summaryrefslogtreecommitdiff
path: root/songs/Santana - Oye Como Va (Tito Puente Cover) (GuitarZero132)/notes.chart
diff options
context:
space:
mode:
Diffstat (limited to 'songs/Santana - Oye Como Va (Tito Puente Cover) (GuitarZero132)/notes.chart')
-rw-r--r--songs/Santana - Oye Como Va (Tito Puente Cover) (GuitarZero132)/notes.chart4298
1 files changed, 4298 insertions, 0 deletions
diff --git a/songs/Santana - Oye Como Va (Tito Puente Cover) (GuitarZero132)/notes.chart b/songs/Santana - Oye Como Va (Tito Puente Cover) (GuitarZero132)/notes.chart
new file mode 100644
index 0000000..cb429a7
--- /dev/null
+++ b/songs/Santana - Oye Como Va (Tito Puente Cover) (GuitarZero132)/notes.chart
@@ -0,0 +1,4298 @@
+[Song]
+{
+ Name = "Oye Como Va (Tito Puente Cover)"
+ Artist = "Santana"
+ Charter = "GuitarZero132"
+ Album = "Abraxas"
+ Year = ", 1970"
+ Offset = 0
+ Resolution = 192
+ Player2 = bass
+ Difficulty = 0
+ PreviewStart = 0
+ PreviewEnd = 0
+ Genre = "Latin Rock"
+ MediaType = "cd"
+ MusicStream = "song.ogg"
+}
+[SyncTrack]
+{
+ 0 = TS 4
+ 0 = B 121000
+ 1536 = B 118000
+ 2688 = B 123000
+ 4224 = B 124000
+ 4608 = B 124000
+ 5760 = B 126000
+ 6144 = B 130000
+ 6528 = B 128000
+ 8448 = B 127000
+ 11520 = B 129000
+ 13056 = B 127000
+ 13824 = B 126000
+ 14976 = B 129000
+ 16128 = B 128000
+ 16896 = B 126000
+ 18048 = B 130000
+ 19008 = B 128000
+ 23040 = B 127000
+ 24960 = B 129000
+ 26688 = B 134000
+ 27264 = B 129000
+ 33984 = B 128000
+ 35136 = B 132000
+ 35328 = B 129000
+ 36672 = B 134000
+ 36864 = B 131000
+ 38016 = B 130000
+ 39168 = B 131000
+ 39552 = B 131000
+ 40320 = B 130000
+ 44544 = B 127000
+ 45312 = B 129000
+ 47616 = B 128000
+ 49152 = B 129000
+ 51072 = B 128000
+ 53760 = B 131000
+ 56448 = B 128000
+ 59520 = B 129000
+ 60672 = B 130000
+ 65856 = B 129000
+ 67776 = B 130000
+ 70656 = B 128000
+ 72576 = B 129000
+ 76032 = B 130000
+ 77760 = B 130000
+ 79488 = B 129000
+ 81408 = B 128000
+ 83712 = B 130000
+ 84480 = B 131000
+ 86016 = B 130000
+ 87168 = B 129000
+ 88320 = B 131000
+ 91392 = B 130000
+ 97536 = B 131000
+ 99456 = B 130000
+ 102912 = B 128000
+ 104448 = B 131000
+ 105408 = B 139000
+}
+[Events]
+{
+ 1536 = E "section Intro"
+ 7680 = E "section Guitar Lead 1"
+ 16896 = E "section Verse 1"
+ 24576 = E "section Guitar Lead 2A"
+ 30720 = E "section Guitar Lead 2B"
+ 39936 = E "section Bridge A"
+ 47616 = E "section Bridge B"
+ 53760 = E "section Organ Solo A"
+ 59904 = E "section Organ Solo B"
+ 66048 = E "section Organ Solo C"
+ 70656 = E "section Organ/Guitar Riff"
+ 75264 = E "section Verse 2"
+ 84480 = E "section Guitar Solo A"
+ 90624 = E "section Guitar Solo B"
+ 96768 = E "section Guitar Solo C"
+ 102912 = E "section Ending"
+}
+[ExpertSingle]
+{
+ 1536 = N 2 0
+ 1536 = N 4 0
+ 1536 = N 6 0
+ 1728 = N 2 0
+ 1728 = N 4 0
+ 1728 = N 6 0
+ 2016 = N 2 0
+ 2016 = N 4 0
+ 2016 = N 6 0
+ 2208 = N 1 0
+ 2208 = N 4 0
+ 2208 = N 6 0
+ 2592 = N 1 0
+ 2592 = N 4 0
+ 2592 = N 6 0
+ 2784 = N 1 0
+ 2784 = N 4 0
+ 2784 = N 6 0
+ 3072 = N 2 0
+ 3072 = N 4 0
+ 3072 = N 6 0
+ 3264 = N 2 0
+ 3264 = N 4 0
+ 3264 = N 6 0
+ 3552 = N 2 0
+ 3552 = N 4 0
+ 3552 = N 6 0
+ 3744 = N 1 0
+ 3744 = N 4 0
+ 3744 = N 6 0
+ 4128 = N 1 0
+ 4128 = N 4 0
+ 4128 = N 6 0
+ 4320 = N 1 0
+ 4320 = N 4 0
+ 4320 = N 6 0
+ 4608 = N 2 0
+ 4608 = N 4 0
+ 4608 = N 6 0
+ 4800 = N 2 0
+ 4800 = N 4 0
+ 4800 = N 6 0
+ 5088 = N 2 0
+ 5088 = N 4 0
+ 5088 = N 6 0
+ 5280 = N 1 0
+ 5280 = N 4 0
+ 5280 = N 6 0
+ 5664 = N 1 0
+ 5664 = N 4 0
+ 5664 = N 6 0
+ 5856 = N 1 0
+ 5856 = N 4 0
+ 5856 = N 6 0
+ 6144 = N 2 0
+ 6144 = N 4 0
+ 6144 = N 6 0
+ 6336 = N 2 0
+ 6336 = N 4 0
+ 6336 = N 6 0
+ 6624 = N 2 0
+ 6624 = N 4 0
+ 6624 = N 6 0
+ 6816 = N 1 0
+ 6816 = N 4 0
+ 6816 = N 6 0
+ 7200 = N 1 0
+ 7200 = N 4 0
+ 7200 = N 6 0
+ 7392 = N 1 0
+ 7392 = N 4 0
+ 7392 = N 6 0
+ 7680 = N 1 0
+ 7680 = S 2 1536
+ 7872 = N 1 0
+ 7968 = N 2 0
+ 8064 = N 3 0
+ 8160 = N 4 0
+ 8352 = N 2 0
+ 8496 = N 0 0
+ 8544 = N 1 288
+ 9024 = N 3 0
+ 9072 = N 2 0
+ 9216 = N 1 0
+ 9408 = N 1 0
+ 9504 = N 2 0
+ 9600 = N 3 0
+ 9696 = N 4 160
+ 9888 = N 2 160
+ 10080 = N 0 0
+ 10176 = N 1 0
+ 10272 = N 4 0
+ 10320 = N 3 112
+ 10464 = N 2 0
+ 10512 = N 3 0
+ 10560 = N 2 0
+ 10608 = N 1 0
+ 10656 = N 0 0
+ 10752 = N 1 0
+ 10944 = N 1 0
+ 11040 = N 2 0
+ 11136 = N 3 0
+ 11232 = N 4 160
+ 11424 = N 2 0
+ 11568 = N 0 0
+ 11616 = N 1 336
+ 12096 = N 2 0
+ 12144 = N 1 0
+ 12192 = N 0 0
+ 12288 = N 1 0
+ 12480 = N 1 0
+ 12576 = N 2 0
+ 12672 = N 3 0
+ 12768 = N 4 160
+ 12960 = N 2 192
+ 13344 = N 3 0
+ 13392 = N 4 0
+ 13440 = N 3 0
+ 13536 = N 2 0
+ 13824 = N 1 0
+ 13824 = N 3 0
+ 13824 = N 4 0
+ 14016 = N 1 0
+ 14016 = N 3 0
+ 14016 = N 4 0
+ 14112 = N 1 0
+ 14112 = N 3 0
+ 14112 = N 4 0
+ 14304 = N 1 0
+ 14400 = N 1 0
+ 14496 = N 1 0
+ 14496 = N 3 0
+ 14688 = N 1 0
+ 14784 = N 1 0
+ 14880 = N 1 0
+ 14976 = N 2 0
+ 14976 = N 4 0
+ 15072 = N 1 0
+ 15168 = N 1 0
+ 15168 = N 3 0
+ 15168 = N 4 0
+ 15360 = N 1 0
+ 15360 = N 3 0
+ 15360 = N 4 0
+ 15552 = N 1 0
+ 15552 = N 3 0
+ 15552 = N 4 0
+ 15744 = N 1 0
+ 15744 = N 3 0
+ 15744 = N 4 0
+ 15840 = N 1 0
+ 15840 = N 3 0
+ 15840 = N 4 0
+ 16032 = N 2 0
+ 16032 = N 4 0
+ 16224 = N 1 0
+ 16320 = N 1 0
+ 16320 = N 3 0
+ 16320 = N 4 0
+ 16704 = N 1 0
+ 16704 = N 3 0
+ 16704 = N 4 0
+ 16896 = N 1 0
+ 16896 = N 3 0
+ 17088 = N 1 0
+ 17088 = N 3 0
+ 17376 = N 1 0
+ 17376 = N 3 0
+ 17568 = N 0 256
+ 17568 = N 2 256
+ 17856 = N 0 0
+ 17952 = N 0 0
+ 17952 = N 2 0
+ 18144 = N 0 0
+ 18144 = N 2 0
+ 18432 = N 1 0
+ 18432 = N 3 0
+ 18432 = S 2 1536
+ 18624 = N 1 0
+ 18624 = N 3 0
+ 18912 = N 1 0
+ 18912 = N 3 0
+ 19104 = N 2 192
+ 19104 = N 4 192
+ 19488 = N 2 0
+ 19488 = N 4 0
+ 19680 = N 2 0
+ 19680 = N 3 0
+ 19968 = N 1 0
+ 19968 = N 3 0
+ 20160 = N 1 0
+ 20160 = N 3 0
+ 20448 = N 1 0
+ 20448 = N 3 0
+ 20640 = N 0 0
+ 20640 = N 2 0
+ 21024 = N 2 0
+ 21024 = N 4 0
+ 21216 = N 2 0
+ 21216 = N 4 0
+ 21504 = N 1 0
+ 21504 = N 3 0
+ 21696 = N 1 0
+ 21696 = N 3 0
+ 21984 = N 1 0
+ 21984 = N 3 0
+ 22176 = N 0 0
+ 22176 = N 2 0
+ 22560 = N 2 0
+ 22560 = N 4 0
+ 22752 = N 1 0
+ 22752 = N 3 0
+ 22752 = N 4 0
+ 23040 = N 1 0
+ 23040 = N 3 0
+ 23040 = N 4 0
+ 23232 = N 1 0
+ 23232 = N 3 0
+ 23232 = N 4 0
+ 23328 = N 1 0
+ 23328 = N 3 0
+ 23328 = N 4 0
+ 23520 = N 1 0
+ 23520 = N 3 0
+ 23520 = N 4 0
+ 23616 = N 1 0
+ 23616 = N 3 0
+ 23616 = N 4 0
+ 23712 = N 1 0
+ 23712 = N 3 0
+ 23712 = N 4 0
+ 23904 = N 1 0
+ 23904 = N 3 0
+ 24000 = N 1 0
+ 24000 = N 3 0
+ 24096 = N 1 0
+ 24192 = N 2 0
+ 24192 = N 4 0
+ 24288 = N 1 0
+ 24384 = N 1 0
+ 24384 = N 3 0
+ 24384 = N 4 0
+ 24576 = N 0 0
+ 24624 = N 1 112
+ 24768 = N 2 0
+ 24864 = N 3 0
+ 24960 = N 4 0
+ 25056 = N 2 0
+ 25152 = N 4 0
+ 25248 = N 2 0
+ 25296 = N 3 0
+ 25392 = N 2 400
+ 25824 = N 1 0
+ 25824 = N 5 0
+ 25920 = N 3 0
+ 25968 = N 2 0
+ 26016 = N 1 0
+ 26064 = N 0 0
+ 26112 = N 1 160
+ 26304 = N 2 0
+ 26400 = N 3 0
+ 26496 = N 4 0
+ 26592 = N 2 0
+ 26688 = N 4 0
+ 26784 = N 2 0
+ 26832 = N 3 112
+ 26976 = N 4 352
+ 27360 = N 4 0
+ 27408 = N 2 0
+ 27408 = N 3 0
+ 27456 = N 2 0
+ 27456 = N 3 0
+ 27648 = N 1 160
+ 27840 = N 2 0
+ 27936 = N 3 0
+ 28032 = N 4 0
+ 28128 = N 2 0
+ 28224 = N 4 0
+ 28320 = N 2 0
+ 28368 = N 3 0
+ 28464 = N 2 352
+ 28848 = N 0 0
+ 28896 = N 1 0
+ 28944 = N 2 0
+ 28992 = N 2 0
+ 29040 = N 1 0
+ 29088 = N 0 0
+ 29184 = N 0 0
+ 29184 = S 2 1536
+ 29280 = N 1 0
+ 29376 = N 2 0
+ 29472 = N 3 0
+ 29568 = N 4 0
+ 29664 = N 2 0
+ 29760 = N 3 0
+ 29856 = N 0 0
+ 29904 = N 1 0
+ 30000 = N 2 400
+ 30432 = N 3 0
+ 30432 = N 5 0
+ 30528 = N 4 160
+ 30528 = N 5 0
+ 30720 = N 4 0
+ 30816 = N 4 0
+ 30912 = N 3 0
+ 31008 = N 3 0
+ 31104 = N 4 0
+ 31200 = N 3 160
+ 31200 = N 5 0
+ 31392 = N 4 160
+ 31584 = N 3 0
+ 31584 = N 5 0
+ 31680 = N 1 0
+ 31728 = N 2 0
+ 31776 = N 3 0
+ 31872 = N 0 0
+ 31920 = N 1 0
+ 31968 = N 1 0
+ 32016 = N 2 0
+ 32064 = N 2 0
+ 32112 = N 1 0
+ 32160 = N 0 0
+ 32256 = N 4 0
+ 32352 = N 4 0
+ 32448 = N 4 0
+ 32472 = N 3 0
+ 32544 = N 3 0
+ 32640 = N 4 0
+ 32736 = N 3 160
+ 32736 = N 5 0
+ 32928 = N 1 0
+ 32976 = N 2 112
+ 33120 = N 3 0
+ 33216 = N 1 0
+ 33312 = N 0 208
+ 33552 = N 1 0
+ 33600 = N 0 0
+ 33792 = N 4 0
+ 33888 = N 4 0
+ 33984 = N 3 0
+ 34080 = N 3 0
+ 34176 = N 4 0
+ 34272 = N 3 160
+ 34272 = N 5 0
+ 34464 = N 4 160
+ 34464 = N 5 0
+ 34656 = N 3 0
+ 34656 = N 5 0
+ 34752 = N 1 0
+ 34800 = N 2 0
+ 34848 = N 3 0
+ 34944 = N 0 0
+ 34992 = N 1 0
+ 35040 = N 1 0
+ 35088 = N 2 0
+ 35136 = N 2 0
+ 35184 = N 1 0
+ 35232 = N 0 0
+ 35328 = N 4 0
+ 35424 = N 4 0
+ 35520 = N 4 0
+ 35544 = N 3 0
+ 35616 = N 3 0
+ 35712 = N 4 0
+ 35808 = N 3 160
+ 35808 = N 5 0
+ 36000 = N 1 0
+ 36048 = N 2 0
+ 36144 = N 3 400
+ 36576 = N 4 0
+ 36576 = N 5 0
+ 36672 = N 2 0
+ 36672 = N 5 0
+ 36864 = N 4 0
+ 36960 = N 3 0
+ 36960 = N 5 0
+ 37152 = N 4 0
+ 37248 = N 3 0
+ 37248 = N 5 0
+ 37392 = N 2 0
+ 37440 = N 4 0
+ 37536 = N 3 0
+ 37536 = N 5 0
+ 37728 = N 4 0
+ 37824 = N 3 0
+ 37824 = N 5 0
+ 38016 = N 4 0
+ 38112 = N 3 0
+ 38112 = N 5 0
+ 38304 = N 4 0
+ 38352 = N 4 0
+ 38400 = N 3 0
+ 38592 = N 4 0
+ 38688 = N 3 0
+ 38688 = N 5 0
+ 38880 = N 4 0
+ 38976 = N 3 0
+ 38976 = N 5 0
+ 39072 = N 2 0
+ 39120 = N 3 0
+ 39168 = N 2 400
+ 39600 = N 1 0
+ 39696 = N 2 0
+ 39696 = N 5 0
+ 39744 = N 1 0
+ 39984 = N 2 0
+ 40080 = N 2 0
+ 40128 = N 2 0
+ 40224 = N 2 0
+ 40320 = N 3 0
+ 40416 = N 2 0
+ 40512 = N 3 0
+ 40608 = N 4 0
+ 40800 = N 0 0
+ 40896 = N 1 160
+ 41088 = N 2 160
+ 41280 = N 3 0
+ 41472 = N 2 0
+ 41472 = S 2 768
+ 41520 = N 2 0
+ 41568 = N 2 0
+ 41616 = N 2 0
+ 41664 = N 2 0
+ 41760 = N 2 0
+ 41856 = N 3 0
+ 41952 = N 2 0
+ 42048 = N 3 0
+ 42144 = N 4 0
+ 42336 = N 0 0
+ 42432 = N 1 160
+ 42624 = N 2 160
+ 42816 = N 3 0
+ 43008 = N 2 0
+ 43056 = N 2 0
+ 43104 = N 2 0
+ 43152 = N 2 0
+ 43200 = N 2 0
+ 43296 = N 2 0
+ 43392 = N 3 0
+ 43488 = N 2 0
+ 43584 = N 3 0
+ 43680 = N 4 0
+ 43872 = N 0 0
+ 43968 = N 1 160
+ 44160 = N 2 160
+ 44352 = N 3 0
+ 44544 = N 1 0
+ 44544 = N 3 0
+ 44544 = N 4 0
+ 44736 = N 1 0
+ 44736 = N 3 0
+ 44736 = N 4 0
+ 45024 = N 1 0
+ 45024 = N 3 0
+ 45216 = N 2 0
+ 45216 = N 4 0
+ 45600 = N 2 0
+ 45600 = N 4 0
+ 45792 = N 2 0
+ 45792 = N 4 0
+ 46080 = N 1 0
+ 46080 = N 3 0
+ 46080 = N 4 0
+ 46272 = N 1 0
+ 46272 = N 3 0
+ 46272 = N 4 0
+ 46560 = N 1 0
+ 46560 = N 3 0
+ 46560 = N 4 0
+ 46752 = N 1 0
+ 46752 = N 3 0
+ 46752 = N 4 0
+ 47136 = N 2 0
+ 47136 = N 4 0
+ 47328 = N 2 0
+ 47328 = N 4 0
+ 47616 = N 2 160
+ 47808 = N 3 0
+ 47904 = N 4 0
+ 48000 = N 1 0
+ 48096 = N 3 0
+ 48192 = N 4 0
+ 48288 = N 2 160
+ 48480 = N 3 0
+ 48576 = N 4 0
+ 48672 = N 1 160
+ 48864 = N 3 0
+ 48864 = N 4 0
+ 48960 = N 0 0
+ 49056 = N 1 0
+ 49152 = N 2 160
+ 49344 = N 3 0
+ 49440 = N 4 0
+ 49536 = N 1 0
+ 49632 = N 3 0
+ 49728 = N 4 0
+ 49824 = N 2 160
+ 50016 = N 1 0
+ 50112 = N 3 0
+ 50112 = N 4 0
+ 50208 = N 1 160
+ 50400 = N 3 0
+ 50400 = N 4 0
+ 50688 = N 2 160
+ 50880 = N 3 0
+ 50976 = N 4 0
+ 51072 = N 1 0
+ 51168 = N 3 0
+ 51264 = N 4 0
+ 51360 = N 2 160
+ 51552 = N 3 0
+ 51648 = N 4 0
+ 51744 = N 1 160
+ 51936 = N 3 0
+ 51936 = N 4 0
+ 52224 = N 1 0
+ 52224 = S 2 1536
+ 52320 = N 1 0
+ 52416 = N 1 0
+ 52512 = N 1 0
+ 52608 = N 1 0
+ 52608 = N 3 0
+ 52704 = N 1 0
+ 52704 = N 3 0
+ 52800 = N 1 0
+ 52800 = N 3 0
+ 52896 = N 1 0
+ 52896 = N 3 0
+ 52992 = N 1 0
+ 52992 = N 3 0
+ 52992 = N 4 0
+ 53088 = N 1 0
+ 53088 = N 3 0
+ 53088 = N 4 0
+ 53184 = N 1 0
+ 53184 = N 3 0
+ 53184 = N 4 0
+ 53280 = N 1 0
+ 53280 = N 3 0
+ 53280 = N 4 0
+ 53376 = N 1 0
+ 53376 = N 3 0
+ 53376 = N 4 0
+ 53520 = N 1 0
+ 53520 = N 3 0
+ 53520 = N 4 0
+ 53664 = N 1 0
+ 53664 = N 3 0
+ 53664 = N 4 0
+ 53760 = N 3 0
+ 53760 = N 6 0
+ 53760 = E solo
+ 53787 = N 4 0
+ 53787 = N 6 0
+ 53815 = N 3 0
+ 53815 = N 6 0
+ 53842 = N 4 0
+ 53842 = N 6 0
+ 53870 = N 3 0
+ 53870 = N 6 0
+ 53897 = N 4 0
+ 53897 = N 6 0
+ 53925 = N 3 0
+ 53925 = N 6 0
+ 53952 = N 4 0
+ 53952 = N 6 0
+ 53979 = N 3 0
+ 53979 = N 6 0
+ 54007 = N 4 0
+ 54007 = N 6 0
+ 54034 = N 3 0
+ 54034 = N 6 0
+ 54062 = N 4 0
+ 54062 = N 6 0
+ 54089 = N 3 0
+ 54089 = N 6 0
+ 54117 = N 4 0
+ 54117 = N 6 0
+ 54144 = N 3 0
+ 54144 = N 6 0
+ 54171 = N 4 0
+ 54171 = N 6 0
+ 54199 = N 3 0
+ 54199 = N 6 0
+ 54226 = N 4 0
+ 54226 = N 6 0
+ 54254 = N 3 0
+ 54254 = N 6 0
+ 54281 = N 4 0
+ 54281 = N 6 0
+ 54309 = N 3 0
+ 54309 = N 6 0
+ 54336 = N 4 0
+ 54336 = N 6 0
+ 54363 = N 3 0
+ 54363 = N 6 0
+ 54391 = N 4 0
+ 54391 = N 6 0
+ 54418 = N 3 0
+ 54418 = N 6 0
+ 54446 = N 4 0
+ 54446 = N 6 0
+ 54473 = N 3 0
+ 54473 = N 6 0
+ 54501 = N 4 0
+ 54501 = N 6 0
+ 54528 = N 3 0
+ 54528 = N 6 0
+ 54555 = N 4 0
+ 54555 = N 6 0
+ 54583 = N 3 0
+ 54583 = N 6 0
+ 54610 = N 4 0
+ 54610 = N 6 0
+ 54638 = N 3 0
+ 54638 = N 6 0
+ 54665 = N 4 0
+ 54665 = N 6 0
+ 54693 = N 3 0
+ 54693 = N 6 0
+ 54720 = N 4 0
+ 54720 = N 6 0
+ 54747 = N 3 0
+ 54747 = N 6 0
+ 54775 = N 4 0
+ 54775 = N 6 0
+ 54802 = N 3 0
+ 54802 = N 6 0
+ 54830 = N 4 0
+ 54830 = N 6 0
+ 54857 = N 3 0
+ 54857 = N 6 0
+ 54885 = N 4 0
+ 54885 = N 6 0
+ 54912 = N 3 0
+ 54912 = N 6 0
+ 55008 = N 2 0
+ 55008 = N 6 0
+ 55032 = N 2 0
+ 55032 = N 3 0
+ 55032 = N 6 0
+ 55128 = N 2 0
+ 55128 = N 6 0
+ 55152 = N 2 0
+ 55152 = N 3 0
+ 55152 = N 6 0
+ 55200 = N 2 0
+ 55200 = N 6 0
+ 55232 = N 3 0
+ 55232 = N 6 0
+ 55264 = N 4 0
+ 55264 = N 6 0
+ 55296 = N 3 0
+ 55296 = N 6 0
+ 55328 = N 2 0
+ 55328 = N 6 0
+ 55360 = N 3 0
+ 55360 = N 6 0
+ 55392 = N 2 0
+ 55392 = N 6 0
+ 55424 = N 1 0
+ 55424 = N 6 0
+ 55456 = N 4 0
+ 55456 = N 6 0
+ 55488 = N 2 0
+ 55488 = N 6 0
+ 55520 = N 1 0
+ 55520 = N 6 0
+ 55552 = N 2 0
+ 55552 = N 6 0
+ 55584 = N 3 0
+ 55584 = N 6 0
+ 55616 = N 2 0
+ 55616 = N 6 0
+ 55648 = N 1 0
+ 55648 = N 6 0
+ 55680 = N 2 0
+ 55680 = N 6 0
+ 55712 = N 1 0
+ 55712 = N 6 0
+ 55744 = N 0 96
+ 55744 = N 6 0
+ 55872 = N 1 0
+ 55872 = N 2 0
+ 55872 = N 6 0
+ 55968 = N 0 0
+ 55968 = N 6 0
+ 56064 = N 1 0
+ 56064 = N 2 0
+ 56064 = N 6 0
+ 56160 = N 0 192
+ 56160 = N 6 0
+ 56592 = N 1 0
+ 56592 = N 6 0
+ 56928 = N 2 0
+ 56928 = N 6 0
+ 56960 = N 3 672
+ 56960 = N 6 0
+ 57664 = N 2 0
+ 57664 = N 6 0
+ 57728 = N 1 0
+ 57728 = N 6 0
+ 57792 = N 2 0
+ 57792 = N 6 0
+ 57856 = N 0 0
+ 57856 = N 6 0
+ 57920 = N 1 0
+ 57920 = N 6 0
+ 57984 = N 2 0
+ 57984 = N 6 0
+ 58016 = N 3 0
+ 58016 = N 6 0
+ 58112 = N 2 0
+ 58112 = N 6 0
+ 58144 = N 3 0
+ 58144 = N 6 0
+ 58240 = N 2 0
+ 58240 = N 6 0
+ 58272 = N 3 0
+ 58272 = N 6 0
+ 58368 = N 2 0
+ 58368 = N 6 0
+ 58392 = N 3 184
+ 58392 = N 6 0
+ 58608 = N 2 0
+ 58608 = N 6 0
+ 58656 = N 1 0
+ 58656 = N 6 0
+ 58752 = N 2 0
+ 58752 = N 6 0
+ 58848 = N 0 0
+ 58848 = N 6 0
+ 58944 = N 4 400
+ 58944 = N 6 0
+ 59376 = N 3 0
+ 59376 = N 6 0
+ 59424 = N 2 0
+ 59424 = N 6 0
+ 59472 = N 1 0
+ 59472 = N 6 0
+ 59496 = N 4 0
+ 59496 = N 6 0
+ 59520 = N 3 0
+ 59520 = N 6 0
+ 59552 = N 2 0
+ 59552 = N 6 0
+ 59584 = N 1 0
+ 59584 = N 6 0
+ 59616 = N 2 0
+ 59616 = N 6 0
+ 59648 = N 1 0
+ 59648 = N 6 0
+ 59680 = N 0 0
+ 59680 = N 6 0
+ 59712 = N 3 0
+ 59712 = N 6 0
+ 59744 = N 3 0
+ 59744 = N 4 0
+ 59744 = N 6 0
+ 59904 = N 3 0
+ 59904 = N 6 0
+ 59936 = N 3 0
+ 59936 = N 4 0
+ 59936 = N 6 0
+ 60096 = N 2 0
+ 60096 = N 3 0
+ 60096 = N 6 0
+ 60192 = N 1 0
+ 60192 = N 6 0
+ 60288 = N 0 0
+ 60288 = N 6 0
+ 60384 = N 2 0
+ 60384 = N 6 0
+ 60408 = N 2 0
+ 60408 = N 3 0
+ 60408 = N 6 0
+ 60480 = N 2 0
+ 60480 = N 6 0
+ 60504 = N 2 0
+ 60504 = N 3 0
+ 60504 = N 6 0
+ 60576 = N 2 0
+ 60576 = N 6 0
+ 60600 = N 2 136
+ 60600 = N 3 136
+ 60600 = N 6 0
+ 60768 = N 2 0
+ 60768 = N 6 0
+ 60792 = N 2 0
+ 60792 = N 3 0
+ 60792 = N 6 0
+ 60864 = N 2 0
+ 60864 = N 6 0
+ 60888 = N 2 136
+ 60888 = N 3 136
+ 60888 = N 6 0
+ 61056 = N 2 0
+ 61056 = N 6 0
+ 61080 = N 2 0
+ 61080 = N 3 0
+ 61080 = N 6 0
+ 61152 = N 2 0
+ 61152 = N 6 0
+ 61176 = N 2 136
+ 61176 = N 3 136
+ 61176 = N 6 0
+ 61344 = N 2 0
+ 61344 = N 6 0
+ 61368 = N 2 0
+ 61368 = N 3 0
+ 61368 = N 6 0
+ 61440 = N 2 0
+ 61440 = N 3 0
+ 61440 = N 6 0
+ 61440 = S 2 768
+ 61488 = N 1 0
+ 61488 = N 6 0
+ 61536 = N 0 0
+ 61536 = N 6 0
+ 61584 = N 1 0
+ 61584 = N 6 0
+ 61632 = N 2 0
+ 61632 = N 3 0
+ 61632 = N 6 0
+ 61680 = N 1 0
+ 61680 = N 6 0
+ 61728 = N 0 0
+ 61728 = N 6 0
+ 61776 = N 1 0
+ 61776 = N 6 0
+ 61824 = N 2 0
+ 61824 = N 3 0
+ 61824 = N 6 0
+ 61872 = N 1 0
+ 61872 = N 6 0
+ 61920 = N 0 0
+ 61920 = N 6 0
+ 61968 = N 1 0
+ 61968 = N 6 0
+ 62016 = N 2 0
+ 62016 = N 3 0
+ 62016 = N 6 0
+ 62064 = N 1 0
+ 62064 = N 6 0
+ 62112 = N 0 0
+ 62112 = N 6 0
+ 62160 = N 1 0
+ 62160 = N 6 0
+ 62208 = N 2 0
+ 62208 = N 3 0
+ 62208 = N 6 0
+ 62256 = N 1 0
+ 62256 = N 6 0
+ 62304 = N 0 0
+ 62304 = N 6 0
+ 62352 = N 1 0
+ 62352 = N 6 0
+ 62400 = N 2 0
+ 62400 = N 3 0
+ 62400 = N 6 0
+ 62448 = N 1 0
+ 62448 = N 6 0
+ 62496 = N 0 0
+ 62496 = N 6 0
+ 62544 = N 1 0
+ 62544 = N 6 0
+ 62592 = N 2 0
+ 62592 = N 6 0
+ 62640 = N 1 0
+ 62640 = N 6 0
+ 62688 = N 1 0
+ 62688 = N 6 0
+ 62784 = N 3 0
+ 62784 = N 6 0
+ 62816 = N 2 0
+ 62816 = N 6 0
+ 62848 = N 1 0
+ 62848 = N 6 0
+ 62880 = N 2 160
+ 62880 = N 3 160
+ 62880 = N 6 0
+ 63072 = N 3 112
+ 63072 = N 6 0
+ 63216 = N 4 544
+ 63216 = N 6 0
+ 63792 = N 3 0
+ 63792 = N 6 0
+ 63840 = N 2 0
+ 63840 = N 6 0
+ 63888 = N 3 0
+ 63888 = N 6 0
+ 63936 = N 1 0
+ 63936 = N 6 0
+ 63984 = N 0 0
+ 63984 = N 6 0
+ 64032 = N 3 0
+ 64032 = N 6 0
+ 64064 = N 2 0
+ 64064 = N 6 0
+ 64096 = N 1 0
+ 64096 = N 6 0
+ 64128 = N 4 0
+ 64128 = N 6 0
+ 64160 = N 3 0
+ 64160 = N 6 0
+ 64192 = N 2 0
+ 64192 = N 6 0
+ 64224 = N 1 0
+ 64224 = N 6 0
+ 64256 = N 3 0
+ 64256 = N 6 0
+ 64288 = N 2 0
+ 64288 = N 6 0
+ 64320 = N 1 0
+ 64320 = N 6 0
+ 64352 = N 2 0
+ 64352 = N 6 0
+ 64384 = N 1 0
+ 64384 = N 6 0
+ 64416 = N 2 0
+ 64416 = N 6 0
+ 64448 = N 1 0
+ 64448 = N 6 0
+ 64480 = N 0 192
+ 64480 = N 6 0
+ 64704 = N 2 0
+ 64704 = N 3 0
+ 64704 = N 6 0
+ 64800 = N 0 288
+ 64800 = N 6 0
+ 65184 = N 2 0
+ 65184 = N 3 0
+ 65184 = N 6 0
+ 65232 = N 3 120
+ 65232 = N 4 120
+ 65232 = N 6 0
+ 65376 = N 2 0
+ 65376 = N 4 0
+ 65376 = N 6 0
+ 65472 = N 2 0
+ 65472 = N 4 0
+ 65472 = N 6 0
+ 65568 = N 1 0
+ 65568 = N 6 0
+ 65664 = N 2 0
+ 65664 = N 4 0
+ 65664 = N 6 0
+ 65760 = N 1 0
+ 65760 = N 6 0
+ 65808 = N 2 0
+ 65808 = N 4 0
+ 65808 = N 6 0
+ 65904 = N 1 0
+ 65904 = N 6 0
+ 65952 = N 2 0
+ 65952 = N 4 0
+ 65952 = N 6 0
+ 66000 = N 2 0
+ 66000 = N 4 0
+ 66000 = N 6 0
+ 66048 = N 1 0
+ 66048 = N 6 0
+ 66096 = N 2 0
+ 66096 = N 4 0
+ 66096 = N 6 0
+ 66192 = N 1 0
+ 66192 = N 6 0
+ 66240 = N 2 0
+ 66240 = N 4 0
+ 66240 = N 6 0
+ 66336 = N 1 0
+ 66336 = N 6 0
+ 66384 = N 2 0
+ 66384 = N 3 0
+ 66384 = N 6 0
+ 66480 = N 1 0
+ 66480 = N 6 0
+ 66528 = N 1 0
+ 66528 = N 6 0
+ 66576 = N 1 0
+ 66576 = N 6 0
+ 66624 = N 2 0
+ 66624 = N 4 0
+ 66624 = N 6 0
+ 66720 = N 2 0
+ 66720 = N 4 0
+ 66720 = N 6 0
+ 66816 = N 0 0
+ 66816 = N 6 0
+ 66840 = N 1 0
+ 66840 = N 6 0
+ 66912 = N 2 0
+ 66912 = N 4 0
+ 66912 = N 6 0
+ 66960 = N 2 0
+ 66960 = N 4 0
+ 66960 = N 6 0
+ 67008 = N 1 0
+ 67008 = N 6 0
+ 67056 = N 2 0
+ 67056 = N 4 0
+ 67056 = N 6 0
+ 67152 = N 1 0
+ 67152 = N 6 0
+ 67200 = N 2 0
+ 67200 = N 4 0
+ 67200 = N 6 0
+ 67296 = N 1 0
+ 67296 = N 6 0
+ 67344 = N 2 0
+ 67344 = N 4 0
+ 67344 = N 6 0
+ 67440 = N 2 0
+ 67440 = N 4 0
+ 67440 = N 6 0
+ 67488 = N 1 0
+ 67488 = N 6 0
+ 67584 = N 1 0
+ 67584 = N 3 0
+ 67584 = N 6 0
+ 67680 = N 1 0
+ 67680 = N 6 0
+ 67728 = N 2 0
+ 67728 = N 3 0
+ 67728 = N 6 0
+ 67824 = N 1 0
+ 67824 = N 6 0
+ 67872 = N 3 0
+ 67872 = N 4 0
+ 67872 = N 6 0
+ 67968 = N 1 0
+ 67968 = N 6 0
+ 68016 = N 2 0
+ 68016 = N 3 0
+ 68016 = N 6 0
+ 68112 = N 1 0
+ 68112 = N 6 0
+ 68160 = N 1 0
+ 68160 = N 3 0
+ 68160 = N 6 0
+ 68256 = N 1 0
+ 68256 = N 6 0
+ 68304 = N 2 0
+ 68304 = N 3 0
+ 68304 = N 6 0
+ 68400 = N 1 0
+ 68400 = N 6 0
+ 68448 = N 3 0
+ 68448 = N 4 0
+ 68448 = N 6 0
+ 68544 = N 1 0
+ 68544 = N 6 0
+ 68592 = N 2 0
+ 68592 = N 3 0
+ 68592 = N 6 0
+ 68688 = N 1 0
+ 68688 = N 6 0
+ 68736 = N 3 0
+ 68736 = N 4 0
+ 68736 = N 6 0
+ 68832 = N 1 0
+ 68832 = N 6 0
+ 68880 = N 1 0
+ 68880 = N 6 0
+ 68928 = N 2 0
+ 68928 = N 3 0
+ 68928 = N 6 0
+ 69024 = N 2 0
+ 69024 = N 6 0
+ 69072 = N 1 408
+ 69072 = N 6 0
+ 69120 = N 3 160
+ 69120 = N 4 160
+ 69120 = N 6 0
+ 69312 = N 2 160
+ 69312 = N 3 160
+ 69312 = N 6 0
+ 69504 = N 1 864
+ 69504 = N 3 0
+ 69504 = N 6 0
+ 69600 = N 2 160
+ 69600 = N 3 160
+ 69600 = N 6 0
+ 69792 = N 3 832
+ 69792 = N 4 832
+ 69792 = N 6 0
+ 70656 = N 1 0
+ 70656 = N 3 0
+ 70656 = N 4 0
+ 70656 = E soloend
+ 70848 = N 1 0
+ 70848 = N 3 0
+ 70848 = N 4 0
+ 71136 = N 1 0
+ 71136 = N 3 0
+ 71136 = N 4 0
+ 71328 = N 1 0
+ 71328 = N 3 0
+ 71328 = N 4 0
+ 71712 = N 1 0
+ 71712 = N 3 0
+ 71712 = N 4 0
+ 71904 = N 1 0
+ 71904 = N 3 0
+ 71904 = N 4 0
+ 72000 = N 1 0
+ 72048 = N 1 0
+ 72096 = N 1 0
+ 72144 = N 1 0
+ 72192 = N 1 0
+ 72192 = N 3 0
+ 72192 = N 4 0
+ 72192 = S 2 1536
+ 72384 = N 1 0
+ 72384 = N 3 0
+ 72384 = N 4 0
+ 72672 = N 1 0
+ 72672 = N 3 0
+ 72672 = N 4 0
+ 72864 = N 1 0
+ 72864 = N 3 0
+ 72864 = N 4 0
+ 73248 = N 1 0
+ 73248 = N 3 0
+ 73248 = N 4 0
+ 73440 = N 1 0
+ 73440 = N 3 0
+ 73440 = N 4 0
+ 73536 = N 1 0
+ 73632 = N 1 0
+ 73728 = N 1 0
+ 73728 = N 3 0
+ 73728 = N 4 0
+ 73920 = N 1 0
+ 73920 = N 3 0
+ 73920 = N 4 0
+ 74016 = N 1 0
+ 74016 = N 3 0
+ 74016 = N 4 0
+ 74208 = N 1 0
+ 74208 = N 3 0
+ 74208 = N 4 0
+ 74304 = N 1 0
+ 74304 = N 3 0
+ 74304 = N 4 0
+ 74400 = N 1 0
+ 74400 = N 3 0
+ 74400 = N 4 0
+ 74592 = N 1 0
+ 74592 = N 3 0
+ 74592 = N 4 0
+ 74688 = N 1 0
+ 74688 = N 3 0
+ 74784 = N 1 0
+ 74784 = N 3 0
+ 74880 = N 2 0
+ 74880 = N 4 0
+ 74976 = N 1 0
+ 75072 = N 1 0
+ 75072 = N 3 0
+ 75072 = N 4 0
+ 75264 = N 1 0
+ 75264 = N 3 0
+ 75456 = N 1 0
+ 75456 = N 3 0
+ 75744 = N 1 0
+ 75744 = N 3 0
+ 75936 = N 0 160
+ 75936 = N 2 160
+ 76128 = N 2 192
+ 76512 = N 2 0
+ 76512 = N 3 0
+ 76800 = N 1 0
+ 76800 = N 3 0
+ 76992 = N 1 0
+ 76992 = N 3 0
+ 77280 = N 1 0
+ 77280 = N 3 0
+ 77472 = N 0 160
+ 77472 = N 2 160
+ 77664 = N 0 0
+ 77664 = N 2 0
+ 77760 = N 0 0
+ 77856 = N 2 0
+ 77856 = N 4 0
+ 78048 = N 2 0
+ 78048 = N 3 0
+ 78336 = N 1 0
+ 78336 = N 3 0
+ 78528 = N 1 0
+ 78528 = N 3 0
+ 78816 = N 1 0
+ 78816 = N 3 0
+ 79008 = N 2 160
+ 79008 = N 4 160
+ 79200 = N 2 0
+ 79200 = N 4 0
+ 79296 = N 2 0
+ 79392 = N 2 0
+ 79392 = N 4 0
+ 79488 = N 2 0
+ 79488 = N 4 0
+ 79584 = N 2 0
+ 79584 = N 3 0
+ 79872 = N 1 0
+ 79872 = N 3 0
+ 79872 = N 4 0
+ 80064 = N 1 0
+ 80064 = N 3 0
+ 80064 = N 4 0
+ 80352 = N 1 0
+ 80352 = N 3 0
+ 80352 = N 4 0
+ 80544 = N 2 288
+ 80544 = N 4 288
+ 80928 = N 2 0
+ 80928 = N 4 0
+ 81120 = N 2 0
+ 81120 = N 3 0
+ 83520 = N 1 0
+ 83520 = E solo
+ 83616 = N 2 0
+ 83616 = N 5 0
+ 83712 = N 3 544
+ 83712 = N 5 0
+ 84480 = N 4 160
+ 84480 = S 2 1536
+ 84672 = N 3 0
+ 84768 = N 3 0
+ 84864 = N 4 0
+ 84960 = N 3 160
+ 84960 = N 5 0
+ 85152 = N 4 160
+ 85344 = N 3 0
+ 85440 = N 1 0
+ 85464 = N 2 0
+ 85536 = N 3 0
+ 85632 = N 2 0
+ 85680 = N 0 0
+ 85728 = N 1 0
+ 85776 = N 2 0
+ 85824 = N 2 0
+ 85872 = N 1 0
+ 85920 = N 0 0
+ 86016 = N 4 0
+ 86112 = N 4 0
+ 86208 = N 4 0
+ 86232 = N 3 0
+ 86304 = N 3 0
+ 86400 = N 4 0
+ 86496 = N 3 0
+ 86496 = N 5 0
+ 86592 = N 1 0
+ 86640 = N 2 0
+ 86688 = N 3 160
+ 86880 = N 2 0
+ 86928 = N 3 0
+ 86976 = N 2 208
+ 87216 = N 1 0
+ 87216 = N 5 0
+ 87312 = N 2 0
+ 87312 = N 3 0
+ 87360 = N 1 0
+ 87408 = N 2 0
+ 87456 = N 1 0
+ 87504 = N 0 0
+ 87552 = N 4 0
+ 87648 = N 4 0
+ 87744 = N 3 0
+ 87840 = N 3 0
+ 87936 = N 4 0
+ 88032 = N 3 160
+ 88032 = N 5 0
+ 88224 = N 4 160
+ 88416 = N 3 0
+ 88416 = N 5 0
+ 88512 = N 1 0
+ 88536 = N 2 0
+ 88608 = N 3 0
+ 88704 = N 0 0
+ 88752 = N 1 0
+ 88800 = N 1 0
+ 88848 = N 2 0
+ 88896 = N 2 0
+ 88944 = N 1 0
+ 89088 = N 4 0
+ 89184 = N 4 0
+ 89280 = N 4 0
+ 89304 = N 3 0
+ 89376 = N 3 0
+ 89472 = N 4 0
+ 89568 = N 3 160
+ 89568 = N 5 0
+ 89760 = N 1 0
+ 89808 = N 2 0
+ 89904 = N 3 304
+ 90240 = N 4 192
+ 90240 = N 5 0
+ 90720 = N 3 0
+ 90744 = N 4 88
+ 90864 = N 3 0
+ 90864 = N 5 0
+ 90888 = N 4 88
+ 91008 = N 3 0
+ 91008 = N 5 0
+ 91032 = N 4 136
+ 91200 = N 1 0
+ 91296 = N 2 0
+ 91344 = N 3 0
+ 91440 = N 4 0
+ 91536 = N 0 432
+ 92064 = N 2 0
+ 92096 = N 3 224
+ 92352 = N 4 0
+ 92448 = N 2 0
+ 92480 = N 3 128
+ 92640 = N 4 0
+ 92736 = N 2 0
+ 92768 = N 3 128
+ 92928 = N 4 0
+ 93024 = N 2 0
+ 93056 = N 3 128
+ 93216 = N 4 0
+ 93312 = N 2 0
+ 93336 = N 3 0
+ 93408 = N 4 0
+ 93504 = N 2 0
+ 93600 = N 3 0
+ 93696 = N 2 0
+ 93792 = N 1 0
+ 93792 = N 5 0
+ 93888 = N 0 0
+ 93984 = N 1 0
+ 94080 = N 3 0
+ 94176 = N 1 0
+ 94272 = N 0 0
+ 94368 = N 2 0
+ 94368 = S 2 864
+ 94400 = N 3 0
+ 94432 = N 2 192
+ 94656 = N 2 0
+ 94752 = N 3 160
+ 94752 = N 5 0
+ 94944 = N 4 0
+ 95040 = N 3 160
+ 95232 = N 4 0
+ 95280 = N 2 0
+ 95328 = N 2 0
+ 95424 = N 2 0
+ 95520 = N 1 0
+ 95616 = N 2 0
+ 95616 = N 3 0
+ 95712 = N 2 0
+ 95712 = N 3 0
+ 95808 = N 1 0
+ 95904 = N 0 0
+ 95928 = N 1 104
+ 96064 = N 0 0
+ 96080 = N 1 0
+ 96128 = N 0 0
+ 96192 = N 4 0
+ 96256 = N 3 0
+ 96320 = N 2 0
+ 96384 = N 3 0
+ 96480 = N 2 0
+ 96576 = N 1 0
+ 96672 = N 2 192
+ 96672 = N 3 192
+ 96960 = N 2 0
+ 96960 = N 3 0
+ 97056 = N 3 0
+ 97056 = N 4 0
+ 97152 = N 1 0
+ 97248 = N 0 0
+ 97344 = N 2 0
+ 97344 = N 3 0
+ 97440 = N 2 112
+ 97440 = N 4 112
+ 97584 = N 2 112
+ 97584 = N 4 112
+ 97728 = N 2 160
+ 97728 = N 3 160
+ 97920 = N 2 0
+ 97920 = N 3 0
+ 98016 = N 2 0
+ 98016 = N 3 0
+ 98112 = N 0 0
+ 98208 = N 0 0
+ 98304 = N 2 0
+ 98400 = N 1 0
+ 98400 = N 5 0
+ 98592 = N 2 0
+ 98688 = N 1 0
+ 98688 = N 5 0
+ 98880 = N 2 0
+ 98976 = N 1 0
+ 98976 = N 5 0
+ 99168 = N 4 0
+ 99264 = N 1 0
+ 99264 = N 5 0
+ 99456 = N 2 0
+ 99552 = N 1 0
+ 99552 = N 5 0
+ 99744 = N 3 0
+ 99840 = N 1 0
+ 99840 = N 5 0
+ 100032 = N 2 0
+ 100128 = N 1 0
+ 100128 = N 5 0
+ 100320 = N 2 0
+ 100368 = N 2 0
+ 100416 = N 1 160
+ 100608 = N 2 0
+ 100704 = N 1 0
+ 100704 = N 5 0
+ 100896 = N 2 0
+ 100992 = N 1 0
+ 100992 = N 5 0
+ 101184 = N 2 0
+ 101280 = N 1 160
+ 101280 = N 5 0
+ 101472 = N 2 0
+ 101568 = N 1 160
+ 101760 = N 2 0
+ 101856 = N 1 0
+ 101904 = N 2 112
+ 102048 = N 2 160
+ 102240 = N 1 0
+ 102336 = N 2 0
+ 102432 = N 1 160
+ 102432 = N 5 0
+ 102624 = N 2 0
+ 102720 = N 1 0
+ 102720 = N 5 0
+ 102816 = E soloend
+ 102912 = N 1 0
+ 102912 = N 3 0
+ 102912 = N 4 0
+ 103104 = N 1 0
+ 103104 = N 3 0
+ 103104 = N 4 0
+ 103200 = N 1 0
+ 103200 = N 3 0
+ 103200 = N 4 0
+ 103392 = N 1 0
+ 103392 = N 3 0
+ 103488 = N 1 0
+ 103488 = N 3 0
+ 103584 = N 1 0
+ 103584 = N 3 0
+ 103584 = N 4 0
+ 103776 = N 1 0
+ 103872 = N 1 0
+ 103872 = N 3 0
+ 103968 = N 1 0
+ 103968 = N 3 0
+ 104064 = N 2 0
+ 104064 = N 4 0
+ 104160 = N 1 0
+ 104256 = N 1 0
+ 104256 = N 3 0
+ 104256 = N 4 0
+ 104448 = N 1 0
+ 104448 = N 3 0
+ 104448 = N 4 0
+ 104640 = N 1 0
+ 104640 = N 3 0
+ 104640 = N 4 0
+ 104832 = N 1 0
+ 104832 = N 3 0
+ 104832 = N 4 0
+ 104928 = N 1 0
+ 104928 = N 3 0
+ 104928 = N 4 0
+ 105120 = N 2 0
+ 105120 = N 4 0
+ 105312 = N 1 0
+ 105408 = N 1 0
+ 105408 = N 3 0
+ 105408 = N 4 0
+ 105792 = N 1 192
+ 105792 = N 3 192
+ 105792 = N 4 192
+}
+[HardSingle]
+{
+ 1536 = N 2 0
+ 1536 = N 4 0
+ 1536 = N 6 0
+ 1728 = N 2 0
+ 1728 = N 4 0
+ 1728 = N 6 0
+ 2016 = N 2 0
+ 2016 = N 4 0
+ 2016 = N 6 0
+ 2208 = N 1 0
+ 2208 = N 4 0
+ 2208 = N 6 0
+ 2592 = N 1 0
+ 2592 = N 4 0
+ 2592 = N 6 0
+ 2784 = N 1 0
+ 2784 = N 4 0
+ 2784 = N 6 0
+ 3072 = N 2 0
+ 3072 = N 4 0
+ 3072 = N 6 0
+ 3264 = N 2 0
+ 3264 = N 4 0
+ 3264 = N 6 0
+ 3552 = N 2 0
+ 3552 = N 4 0
+ 3552 = N 6 0
+ 3744 = N 1 0
+ 3744 = N 4 0
+ 3744 = N 6 0
+ 4128 = N 1 0
+ 4128 = N 4 0
+ 4128 = N 6 0
+ 4320 = N 1 0
+ 4320 = N 4 0
+ 4320 = N 6 0
+ 4608 = N 2 0
+ 4608 = N 4 0
+ 4608 = N 6 0
+ 4800 = N 2 0
+ 4800 = N 4 0
+ 4800 = N 6 0
+ 5088 = N 2 0
+ 5088 = N 4 0
+ 5088 = N 6 0
+ 5280 = N 1 0
+ 5280 = N 4 0
+ 5280 = N 6 0
+ 5664 = N 1 0
+ 5664 = N 4 0
+ 5664 = N 6 0
+ 5856 = N 1 0
+ 5856 = N 4 0
+ 5856 = N 6 0
+ 6144 = N 2 0
+ 6144 = N 4 0
+ 6144 = N 6 0
+ 6336 = N 2 0
+ 6336 = N 4 0
+ 6336 = N 6 0
+ 6624 = N 2 0
+ 6624 = N 4 0
+ 6624 = N 6 0
+ 6816 = N 1 0
+ 6816 = N 4 0
+ 6816 = N 6 0
+ 7200 = N 1 0
+ 7200 = N 4 0
+ 7200 = N 6 0
+ 7392 = N 1 0
+ 7392 = N 4 0
+ 7392 = N 6 0
+ 7680 = N 1 0
+ 7680 = S 2 1536
+ 7872 = N 1 0
+ 7968 = N 2 0
+ 8064 = N 3 0
+ 8160 = N 4 0
+ 8352 = N 2 0
+ 8496 = N 0 0
+ 8544 = N 1 288
+ 9216 = N 1 0
+ 9408 = N 1 0
+ 9504 = N 2 0
+ 9600 = N 3 0
+ 9696 = N 4 160
+ 9888 = N 2 160
+ 10080 = N 0 0
+ 10176 = N 1 0
+ 10272 = N 3 160
+ 10464 = N 2 0
+ 10512 = N 3 0
+ 10560 = N 2 0
+ 10752 = N 1 0
+ 10944 = N 1 0
+ 11040 = N 2 0
+ 11136 = N 3 0
+ 11232 = N 4 160
+ 11424 = N 2 0
+ 11568 = N 0 0
+ 11616 = N 1 336
+ 12288 = N 1 0
+ 12480 = N 1 0
+ 12576 = N 2 0
+ 12672 = N 3 0
+ 12768 = N 4 160
+ 12960 = N 2 192
+ 13344 = N 3 160
+ 13536 = N 2 0
+ 13824 = N 1 0
+ 13824 = N 3 0
+ 14016 = N 1 0
+ 14016 = N 3 0
+ 14112 = N 1 0
+ 14112 = N 3 0
+ 14304 = N 1 0
+ 14400 = N 1 0
+ 14496 = N 1 0
+ 14496 = N 3 0
+ 14688 = N 1 0
+ 14784 = N 1 0
+ 14880 = N 1 0
+ 14976 = N 2 0
+ 14976 = N 4 0
+ 15168 = N 1 0
+ 15168 = N 3 0
+ 15360 = N 1 0
+ 15360 = N 3 0
+ 15552 = N 1 0
+ 15552 = N 3 0
+ 15744 = N 1 0
+ 15744 = N 3 0
+ 15840 = N 1 0
+ 15840 = N 3 0
+ 16032 = N 2 0
+ 16032 = N 4 0
+ 16224 = N 1 0
+ 16320 = N 1 0
+ 16320 = N 3 0
+ 16704 = N 1 0
+ 16704 = N 3 0
+ 16896 = N 1 0
+ 16896 = N 3 0
+ 17088 = N 1 0
+ 17088 = N 3 0
+ 17376 = N 1 0
+ 17376 = N 3 0
+ 17568 = N 0 256
+ 17568 = N 2 256
+ 17856 = N 0 0
+ 17952 = N 0 0
+ 17952 = N 2 0
+ 18144 = N 0 0
+ 18144 = N 2 0
+ 18432 = N 1 0
+ 18432 = N 3 0
+ 18432 = S 2 1536
+ 18624 = N 1 0
+ 18624 = N 3 0
+ 18912 = N 1 0
+ 18912 = N 3 0
+ 19104 = N 2 192
+ 19104 = N 4 192
+ 19488 = N 2 0
+ 19488 = N 4 0
+ 19680 = N 2 0
+ 19680 = N 3 0
+ 19968 = N 1 0
+ 19968 = N 3 0
+ 20160 = N 1 0
+ 20160 = N 3 0
+ 20448 = N 1 0
+ 20448 = N 3 0
+ 20640 = N 0 0
+ 20640 = N 2 0
+ 21024 = N 2 0
+ 21024 = N 4 0
+ 21216 = N 2 0
+ 21216 = N 4 0
+ 21504 = N 1 0
+ 21504 = N 3 0
+ 21696 = N 1 0
+ 21696 = N 3 0
+ 21984 = N 1 0
+ 21984 = N 3 0
+ 22176 = N 0 0
+ 22176 = N 2 0
+ 22560 = N 2 0
+ 22560 = N 4 0
+ 22752 = N 1 0
+ 22752 = N 3 0
+ 23040 = N 1 0
+ 23040 = N 3 0
+ 23232 = N 1 0
+ 23232 = N 3 0
+ 23328 = N 1 0
+ 23328 = N 3 0
+ 23520 = N 1 0
+ 23520 = N 3 0
+ 23616 = N 1 0
+ 23616 = N 3 0
+ 23712 = N 1 0
+ 23712 = N 3 0
+ 23904 = N 1 0
+ 23904 = N 3 0
+ 24000 = N 1 0
+ 24000 = N 3 0
+ 24096 = N 1 0
+ 24192 = N 2 0
+ 24192 = N 4 0
+ 24384 = N 1 0
+ 24384 = N 3 0
+ 24576 = N 1 160
+ 24768 = N 2 0
+ 24864 = N 3 0
+ 24960 = N 4 0
+ 25056 = N 2 0
+ 25152 = N 4 0
+ 25248 = N 3 112
+ 25392 = N 2 400
+ 25824 = N 1 0
+ 25824 = N 5 0
+ 25920 = N 2 0
+ 25968 = N 1 0
+ 26016 = N 0 0
+ 26112 = N 1 160
+ 26304 = N 2 0
+ 26400 = N 3 0
+ 26496 = N 4 0
+ 26592 = N 2 0
+ 26688 = N 4 0
+ 26784 = N 3 160
+ 26976 = N 4 352
+ 27360 = N 4 0
+ 27456 = N 2 0
+ 27456 = N 3 0
+ 27648 = N 1 160
+ 27840 = N 2 0
+ 27936 = N 3 0
+ 28032 = N 4 0
+ 28128 = N 2 0
+ 28224 = N 4 0
+ 28320 = N 3 112
+ 28464 = N 2 352
+ 28896 = N 1 0
+ 28992 = N 2 0
+ 29040 = N 1 0
+ 29088 = N 0 0
+ 29184 = N 0 0
+ 29184 = S 2 1536
+ 29280 = N 1 0
+ 29376 = N 2 0
+ 29472 = N 3 0
+ 29568 = N 4 0
+ 29664 = N 2 0
+ 29760 = N 3 0
+ 29856 = N 1 112
+ 30000 = N 2 400
+ 30432 = N 3 256
+ 30432 = N 5 0
+ 30720 = N 4 0
+ 30816 = N 4 0
+ 30912 = N 3 0
+ 31008 = N 3 0
+ 31104 = N 4 0
+ 31200 = N 3 160
+ 31200 = N 5 0
+ 31392 = N 4 160
+ 31584 = N 3 0
+ 31584 = N 5 0
+ 31680 = N 1 0
+ 31728 = N 2 0
+ 31776 = N 3 0
+ 31872 = N 0 0
+ 31968 = N 1 0
+ 32064 = N 2 0
+ 32112 = N 1 0
+ 32160 = N 0 0
+ 32256 = N 4 0
+ 32352 = N 4 0
+ 32448 = N 3 0
+ 32544 = N 3 0
+ 32640 = N 4 0
+ 32736 = N 3 160
+ 32736 = N 5 0
+ 32928 = N 2 160
+ 33120 = N 3 0
+ 33216 = N 1 0
+ 33312 = N 0 208
+ 33600 = N 0 0
+ 33792 = N 4 0
+ 33888 = N 4 0
+ 33984 = N 3 0
+ 34080 = N 3 0
+ 34176 = N 4 0
+ 34272 = N 3 160
+ 34272 = N 5 0
+ 34464 = N 4 160
+ 34464 = N 5 0
+ 34656 = N 3 0
+ 34656 = N 5 0
+ 34752 = N 1 0
+ 34800 = N 2 0
+ 34848 = N 3 0
+ 34944 = N 0 0
+ 35040 = N 1 0
+ 35136 = N 2 0
+ 35184 = N 1 0
+ 35232 = N 0 0
+ 35328 = N 4 0
+ 35424 = N 4 0
+ 35520 = N 3 0
+ 35616 = N 3 0
+ 35712 = N 4 0
+ 35808 = N 3 160
+ 35808 = N 5 0
+ 36000 = N 2 112
+ 36144 = N 3 400
+ 36576 = N 4 0
+ 36576 = N 5 0
+ 36672 = N 2 0
+ 36672 = N 5 0
+ 36864 = N 4 0
+ 36960 = N 3 0
+ 36960 = N 5 0
+ 37152 = N 4 0
+ 37248 = N 3 0
+ 37248 = N 5 0
+ 37440 = N 4 0
+ 37536 = N 3 0
+ 37536 = N 5 0
+ 37728 = N 4 0
+ 37824 = N 3 0
+ 37824 = N 5 0
+ 38016 = N 4 0
+ 38112 = N 3 0
+ 38112 = N 5 0
+ 38304 = N 4 0
+ 38400 = N 3 0
+ 38592 = N 4 0
+ 38688 = N 3 0
+ 38688 = N 5 0
+ 38880 = N 4 0
+ 38976 = N 3 0
+ 38976 = N 5 0
+ 39072 = N 2 496
+ 39600 = N 1 0
+ 39696 = N 2 0
+ 39696 = N 5 0
+ 39744 = N 1 0
+ 39984 = N 2 0
+ 40080 = N 2 0
+ 40128 = N 2 0
+ 40224 = N 2 0
+ 40320 = N 3 0
+ 40416 = N 2 0
+ 40512 = N 3 0
+ 40608 = N 4 0
+ 40800 = N 0 0
+ 40896 = N 1 160
+ 41088 = N 2 160
+ 41280 = N 3 0
+ 41472 = N 2 0
+ 41472 = S 2 768
+ 41568 = N 2 0
+ 41664 = N 2 0
+ 41760 = N 2 0
+ 41856 = N 3 0
+ 41952 = N 2 0
+ 42048 = N 3 0
+ 42144 = N 4 0
+ 42336 = N 0 0
+ 42432 = N 1 160
+ 42624 = N 2 160
+ 42816 = N 3 0
+ 43008 = N 2 0
+ 43104 = N 2 0
+ 43200 = N 2 0
+ 43296 = N 2 0
+ 43392 = N 3 0
+ 43488 = N 2 0
+ 43584 = N 3 0
+ 43680 = N 4 0
+ 43872 = N 0 0
+ 43968 = N 1 160
+ 44160 = N 2 160
+ 44352 = N 3 0
+ 44544 = N 1 0
+ 44544 = N 3 0
+ 44736 = N 1 0
+ 44736 = N 3 0
+ 45024 = N 1 0
+ 45024 = N 3 0
+ 45216 = N 2 0
+ 45216 = N 4 0
+ 45600 = N 2 0
+ 45600 = N 4 0
+ 45792 = N 2 0
+ 45792 = N 4 0
+ 46080 = N 1 0
+ 46080 = N 3 0
+ 46272 = N 1 0
+ 46272 = N 3 0
+ 46560 = N 1 0
+ 46560 = N 3 0
+ 46752 = N 1 0
+ 46752 = N 3 0
+ 47136 = N 2 0
+ 47136 = N 4 0
+ 47328 = N 2 0
+ 47328 = N 4 0
+ 47616 = N 2 160
+ 47808 = N 3 0
+ 47904 = N 4 0
+ 48000 = N 1 0
+ 48096 = N 3 0
+ 48192 = N 4 0
+ 48288 = N 2 160
+ 48480 = N 3 0
+ 48576 = N 4 0
+ 48672 = N 1 160
+ 48864 = N 4 0
+ 48960 = N 0 0
+ 49056 = N 1 0
+ 49152 = N 2 160
+ 49344 = N 3 0
+ 49440 = N 4 0
+ 49536 = N 1 0
+ 49632 = N 3 0
+ 49728 = N 4 0
+ 49824 = N 2 160
+ 50016 = N 1 0
+ 50112 = N 4 0
+ 50208 = N 1 160
+ 50400 = N 4 0
+ 50688 = N 2 160
+ 50880 = N 3 0
+ 50976 = N 4 0
+ 51072 = N 1 0
+ 51168 = N 3 0
+ 51264 = N 4 0
+ 51360 = N 2 160
+ 51552 = N 3 0
+ 51648 = N 4 0
+ 51744 = N 1 160
+ 51936 = N 4 0
+ 52224 = N 2 0
+ 52224 = S 2 1536
+ 52320 = N 1 0
+ 52416 = N 1 0
+ 52512 = N 1 0
+ 52608 = N 1 0
+ 52608 = N 2 0
+ 52704 = N 1 0
+ 52704 = N 2 0
+ 52800 = N 1 0
+ 52800 = N 2 0
+ 52896 = N 1 0
+ 52896 = N 2 0
+ 52992 = N 1 0
+ 52992 = N 3 0
+ 53088 = N 1 0
+ 53088 = N 3 0
+ 53184 = N 1 0
+ 53184 = N 3 0
+ 53280 = N 1 0
+ 53280 = N 3 0
+ 53376 = N 1 0
+ 53376 = N 3 0
+ 53520 = N 1 0
+ 53520 = N 3 0
+ 53664 = N 1 0
+ 53664 = N 3 0
+ 53760 = N 4 0
+ 53760 = N 6 0
+ 53760 = E solo
+ 53808 = N 3 0
+ 53808 = N 6 0
+ 53856 = N 4 0
+ 53856 = N 6 0
+ 53904 = N 3 0
+ 53904 = N 6 0
+ 53952 = N 4 0
+ 53952 = N 6 0
+ 54000 = N 3 0
+ 54000 = N 6 0
+ 54048 = N 4 0
+ 54048 = N 6 0
+ 54096 = N 3 0
+ 54096 = N 6 0
+ 54144 = N 4 0
+ 54144 = N 6 0
+ 54192 = N 3 0
+ 54192 = N 6 0
+ 54240 = N 4 0
+ 54240 = N 6 0
+ 54288 = N 3 0
+ 54288 = N 6 0
+ 54336 = N 4 0
+ 54336 = N 6 0
+ 54384 = N 3 0
+ 54384 = N 6 0
+ 54432 = N 4 0
+ 54432 = N 6 0
+ 54480 = N 3 0
+ 54480 = N 6 0
+ 54528 = N 4 0
+ 54528 = N 6 0
+ 54576 = N 3 0
+ 54576 = N 6 0
+ 54624 = N 4 0
+ 54624 = N 6 0
+ 54672 = N 3 0
+ 54672 = N 6 0
+ 54720 = N 4 0
+ 54720 = N 6 0
+ 54768 = N 3 0
+ 54768 = N 6 0
+ 54816 = N 4 0
+ 54816 = N 6 0
+ 54864 = N 3 0
+ 54864 = N 6 0
+ 54912 = N 4 0
+ 54912 = N 6 0
+ 55008 = N 2 0
+ 55008 = N 3 0
+ 55008 = N 6 0
+ 55152 = N 3 0
+ 55152 = N 6 0
+ 55200 = N 2 0
+ 55200 = N 6 0
+ 55248 = N 4 0
+ 55248 = N 6 0
+ 55296 = N 3 0
+ 55296 = N 6 0
+ 55344 = N 2 0
+ 55344 = N 6 0
+ 55392 = N 1 0
+ 55392 = N 6 0
+ 55440 = N 4 0
+ 55440 = N 6 0
+ 55488 = N 2 0
+ 55488 = N 6 0
+ 55536 = N 3 0
+ 55536 = N 6 0
+ 55584 = N 2 0
+ 55584 = N 6 0
+ 55632 = N 1 0
+ 55632 = N 6 0
+ 55680 = N 2 0
+ 55680 = N 6 0
+ 55728 = N 1 0
+ 55728 = N 6 0
+ 55776 = N 0 0
+ 55776 = N 6 0
+ 55872 = N 1 0
+ 55872 = N 2 0
+ 55872 = N 6 0
+ 55968 = N 0 0
+ 55968 = N 6 0
+ 56064 = N 1 0
+ 56064 = N 2 0
+ 56064 = N 6 0
+ 56160 = N 0 192
+ 56160 = N 6 0
+ 56592 = N 1 0
+ 56592 = N 6 0
+ 56928 = N 3 704
+ 56928 = N 6 0
+ 57664 = N 2 0
+ 57664 = N 6 0
+ 57728 = N 1 0
+ 57728 = N 6 0
+ 57792 = N 2 0
+ 57792 = N 6 0
+ 57856 = N 0 0
+ 57856 = N 6 0
+ 57920 = N 1 0
+ 57920 = N 6 0
+ 57984 = N 3 96
+ 57984 = N 6 0
+ 58112 = N 3 96
+ 58112 = N 6 0
+ 58240 = N 3 96
+ 58240 = N 6 0
+ 58368 = N 3 208
+ 58368 = N 6 0
+ 58656 = N 1 0
+ 58656 = N 6 0
+ 58752 = N 2 0
+ 58752 = N 6 0
+ 58848 = N 0 0
+ 58848 = N 6 0
+ 58944 = N 4 400
+ 58944 = N 6 0
+ 59376 = N 3 0
+ 59376 = N 6 0
+ 59424 = N 2 0
+ 59424 = N 6 0
+ 59472 = N 1 0
+ 59472 = N 6 0
+ 59520 = N 2 0
+ 59520 = N 6 0
+ 59616 = N 1 0
+ 59616 = N 6 0
+ 59712 = N 3 0
+ 59712 = N 4 0
+ 59712 = N 6 0
+ 59904 = N 3 0
+ 59904 = N 4 0
+ 59904 = N 6 0
+ 60096 = N 2 0
+ 60096 = N 3 0
+ 60096 = N 6 0
+ 60192 = N 1 0
+ 60192 = N 6 0
+ 60288 = N 0 0
+ 60288 = N 6 0
+ 60384 = N 2 0
+ 60384 = N 3 0
+ 60384 = N 6 0
+ 60480 = N 2 0
+ 60480 = N 3 0
+ 60480 = N 6 0
+ 60576 = N 2 160
+ 60576 = N 3 160
+ 60576 = N 6 0
+ 60768 = N 2 0
+ 60768 = N 3 0
+ 60768 = N 6 0
+ 60864 = N 2 160
+ 60864 = N 3 160
+ 60864 = N 6 0
+ 61056 = N 2 0
+ 61056 = N 3 0
+ 61056 = N 6 0
+ 61152 = N 2 160
+ 61152 = N 3 160
+ 61152 = N 6 0
+ 61344 = N 2 0
+ 61344 = N 3 0
+ 61344 = N 6 0
+ 61440 = N 2 0
+ 61440 = N 6 0
+ 61440 = S 2 768
+ 61488 = N 1 0
+ 61488 = N 6 0
+ 61536 = N 0 0
+ 61536 = N 6 0
+ 61632 = N 2 0
+ 61632 = N 6 0
+ 61680 = N 1 0
+ 61680 = N 6 0
+ 61728 = N 0 0
+ 61728 = N 6 0
+ 61824 = N 2 0
+ 61824 = N 6 0
+ 61872 = N 1 0
+ 61872 = N 6 0
+ 61920 = N 0 0
+ 61920 = N 6 0
+ 62016 = N 2 0
+ 62016 = N 6 0
+ 62064 = N 1 0
+ 62064 = N 6 0
+ 62112 = N 0 0
+ 62112 = N 6 0
+ 62208 = N 2 0
+ 62208 = N 6 0
+ 62256 = N 1 0
+ 62256 = N 6 0
+ 62304 = N 0 0
+ 62304 = N 6 0
+ 62400 = N 2 0
+ 62400 = N 6 0
+ 62448 = N 1 0
+ 62448 = N 6 0
+ 62496 = N 0 0
+ 62496 = N 6 0
+ 62592 = N 2 0
+ 62592 = N 6 0
+ 62688 = N 1 0
+ 62688 = N 6 0
+ 62784 = N 2 0
+ 62784 = N 6 0
+ 62880 = N 2 160
+ 62880 = N 3 160
+ 62880 = N 6 0
+ 63072 = N 3 112
+ 63072 = N 6 0
+ 63216 = N 4 544
+ 63216 = N 6 0
+ 63792 = N 3 0
+ 63792 = N 6 0
+ 63840 = N 2 0
+ 63840 = N 6 0
+ 63888 = N 3 0
+ 63888 = N 6 0
+ 63936 = N 2 0
+ 63936 = N 6 0
+ 64032 = N 1 0
+ 64032 = N 6 0
+ 64128 = N 4 0
+ 64128 = N 6 0
+ 64176 = N 3 0
+ 64176 = N 6 0
+ 64224 = N 2 0
+ 64224 = N 6 0
+ 64272 = N 3 0
+ 64272 = N 6 0
+ 64320 = N 2 0
+ 64320 = N 6 0
+ 64464 = N 0 208
+ 64464 = N 6 0
+ 64704 = N 2 0
+ 64704 = N 3 0
+ 64704 = N 6 0
+ 64800 = N 0 288
+ 64800 = N 6 0
+ 65184 = N 3 160
+ 65184 = N 4 160
+ 65184 = N 6 0
+ 65376 = N 2 0
+ 65376 = N 4 0
+ 65376 = N 6 0
+ 65472 = N 2 0
+ 65472 = N 4 0
+ 65472 = N 6 0
+ 65568 = N 2 0
+ 65568 = N 6 0
+ 65664 = N 2 0
+ 65664 = N 4 0
+ 65664 = N 6 0
+ 65760 = N 2 0
+ 65760 = N 6 0
+ 65808 = N 2 0
+ 65808 = N 4 0
+ 65808 = N 6 0
+ 65904 = N 2 0
+ 65904 = N 6 0
+ 65952 = N 2 0
+ 65952 = N 4 0
+ 65952 = N 6 0
+ 66048 = N 2 0
+ 66048 = N 6 0
+ 66096 = N 2 0
+ 66096 = N 4 0
+ 66096 = N 6 0
+ 66192 = N 2 0
+ 66192 = N 6 0
+ 66240 = N 2 0
+ 66240 = N 4 0
+ 66240 = N 6 0
+ 66336 = N 2 0
+ 66336 = N 6 0
+ 66384 = N 2 0
+ 66384 = N 3 0
+ 66384 = N 6 0
+ 66480 = N 2 0
+ 66480 = N 6 0
+ 66528 = N 2 0
+ 66528 = N 6 0
+ 66624 = N 2 0
+ 66624 = N 4 0
+ 66624 = N 6 0
+ 66720 = N 2 0
+ 66720 = N 4 0
+ 66720 = N 6 0
+ 66816 = N 2 0
+ 66816 = N 6 0
+ 66912 = N 2 0
+ 66912 = N 4 0
+ 66912 = N 6 0
+ 67008 = N 2 0
+ 67008 = N 6 0
+ 67056 = N 2 0
+ 67056 = N 4 0
+ 67056 = N 6 0
+ 67152 = N 2 0
+ 67152 = N 6 0
+ 67200 = N 2 0
+ 67200 = N 4 0
+ 67200 = N 6 0
+ 67296 = N 2 0
+ 67296 = N 6 0
+ 67344 = N 2 0
+ 67344 = N 4 0
+ 67344 = N 6 0
+ 67440 = N 2 0
+ 67440 = N 4 0
+ 67440 = N 6 0
+ 67584 = N 1 0
+ 67584 = N 3 0
+ 67584 = N 6 0
+ 67728 = N 2 0
+ 67728 = N 3 0
+ 67728 = N 6 0
+ 67872 = N 3 0
+ 67872 = N 4 0
+ 67872 = N 6 0
+ 68016 = N 2 0
+ 68016 = N 3 0
+ 68016 = N 6 0
+ 68160 = N 1 0
+ 68160 = N 3 0
+ 68160 = N 6 0
+ 68304 = N 2 0
+ 68304 = N 3 0
+ 68304 = N 6 0
+ 68448 = N 3 0
+ 68448 = N 4 0
+ 68448 = N 6 0
+ 68592 = N 2 0
+ 68592 = N 3 0
+ 68592 = N 6 0
+ 68736 = N 3 160
+ 68736 = N 4 160
+ 68736 = N 6 0
+ 68928 = N 2 160
+ 68928 = N 3 160
+ 68928 = N 6 0
+ 69120 = N 3 160
+ 69120 = N 4 160
+ 69120 = N 6 0
+ 69312 = N 2 160
+ 69312 = N 3 160
+ 69312 = N 6 0
+ 69504 = N 1 0
+ 69504 = N 3 0
+ 69504 = N 6 0
+ 69600 = N 2 160
+ 69600 = N 3 160
+ 69600 = N 6 0
+ 69792 = N 3 832
+ 69792 = N 4 832
+ 69792 = N 6 0
+ 70656 = N 1 0
+ 70656 = N 3 0
+ 70656 = E soloend
+ 70848 = N 1 0
+ 70848 = N 3 0
+ 71136 = N 1 0
+ 71136 = N 3 0
+ 71328 = N 1 0
+ 71328 = N 3 0
+ 71712 = N 1 0
+ 71712 = N 3 0
+ 71904 = N 1 0
+ 71904 = N 3 0
+ 72192 = N 1 0
+ 72192 = N 3 0
+ 72192 = S 2 1536
+ 72384 = N 1 0
+ 72384 = N 3 0
+ 72672 = N 1 0
+ 72672 = N 3 0
+ 72864 = N 1 0
+ 72864 = N 3 0
+ 73248 = N 1 0
+ 73248 = N 3 0
+ 73440 = N 1 0
+ 73440 = N 3 0
+ 73536 = N 1 0
+ 73632 = N 1 0
+ 73728 = N 1 0
+ 73728 = N 3 0
+ 73920 = N 1 0
+ 73920 = N 3 0
+ 74016 = N 1 0
+ 74016 = N 3 0
+ 74208 = N 1 0
+ 74208 = N 3 0
+ 74304 = N 1 0
+ 74304 = N 3 0
+ 74400 = N 1 0
+ 74400 = N 3 0
+ 74592 = N 1 0
+ 74592 = N 3 0
+ 74688 = N 1 0
+ 74688 = N 3 0
+ 74784 = N 1 0
+ 74784 = N 3 0
+ 74880 = N 2 0
+ 74880 = N 4 0
+ 75072 = N 1 0
+ 75072 = N 3 0
+ 75264 = N 1 0
+ 75264 = N 3 0
+ 75456 = N 1 0
+ 75456 = N 3 0
+ 75744 = N 1 0
+ 75744 = N 3 0
+ 75936 = N 0 160
+ 75936 = N 2 160
+ 76128 = N 2 192
+ 76512 = N 2 0
+ 76512 = N 3 0
+ 76800 = N 1 0
+ 76800 = N 3 0
+ 76992 = N 1 0
+ 76992 = N 3 0
+ 77280 = N 1 0
+ 77280 = N 3 0
+ 77472 = N 0 160
+ 77472 = N 2 160
+ 77664 = N 0 0
+ 77664 = N 2 0
+ 77856 = N 2 0
+ 77856 = N 4 0
+ 78048 = N 2 0
+ 78048 = N 3 0
+ 78336 = N 1 0
+ 78336 = N 3 0
+ 78528 = N 1 0
+ 78528 = N 3 0
+ 78816 = N 1 0
+ 78816 = N 3 0
+ 79008 = N 2 160
+ 79008 = N 4 160
+ 79200 = N 2 0
+ 79200 = N 4 0
+ 79392 = N 2 0
+ 79392 = N 4 0
+ 79488 = N 2 0
+ 79488 = N 4 0
+ 79584 = N 2 0
+ 79584 = N 3 0
+ 79872 = N 1 0
+ 79872 = N 3 0
+ 80064 = N 1 0
+ 80064 = N 3 0
+ 80352 = N 1 0
+ 80352 = N 3 0
+ 80544 = N 2 288
+ 80544 = N 4 288
+ 80928 = N 2 0
+ 80928 = N 4 0
+ 81120 = N 2 0
+ 81120 = N 3 0
+ 83520 = N 1 0
+ 83520 = E solo
+ 83616 = N 2 0
+ 83616 = N 5 0
+ 83712 = N 3 544
+ 83712 = N 5 0
+ 84480 = N 4 160
+ 84480 = S 2 1536
+ 84672 = N 3 0
+ 84768 = N 3 0
+ 84864 = N 4 0
+ 84960 = N 3 160
+ 84960 = N 5 0
+ 85152 = N 4 160
+ 85344 = N 3 0
+ 85440 = N 1 0
+ 85536 = N 3 0
+ 85632 = N 2 0
+ 85728 = N 1 0
+ 85824 = N 2 0
+ 85872 = N 1 0
+ 85920 = N 0 0
+ 86016 = N 4 0
+ 86112 = N 4 0
+ 86208 = N 3 0
+ 86304 = N 3 0
+ 86400 = N 4 0
+ 86496 = N 3 0
+ 86496 = N 5 0
+ 86592 = N 1 0
+ 86640 = N 2 0
+ 86688 = N 3 160
+ 86880 = N 2 304
+ 87216 = N 1 0
+ 87216 = N 5 0
+ 87312 = N 2 0
+ 87360 = N 1 0
+ 87408 = N 2 0
+ 87456 = N 1 0
+ 87552 = N 4 0
+ 87648 = N 4 0
+ 87744 = N 3 0
+ 87840 = N 3 0
+ 87936 = N 4 0
+ 88032 = N 3 160
+ 88032 = N 5 0
+ 88224 = N 4 160
+ 88416 = N 3 0
+ 88416 = N 5 0
+ 88512 = N 1 0
+ 88608 = N 3 0
+ 88704 = N 0 0
+ 88800 = N 1 0
+ 88896 = N 2 0
+ 88944 = N 1 0
+ 89088 = N 4 0
+ 89184 = N 4 0
+ 89280 = N 3 0
+ 89376 = N 3 0
+ 89472 = N 4 0
+ 89568 = N 3 160
+ 89568 = N 5 0
+ 89760 = N 2 112
+ 89904 = N 3 304
+ 90240 = N 4 192
+ 90240 = N 5 0
+ 90720 = N 4 448
+ 91200 = N 1 0
+ 91296 = N 2 120
+ 91440 = N 4 0
+ 91536 = N 0 432
+ 92064 = N 3 256
+ 92352 = N 4 0
+ 92448 = N 3 160
+ 92640 = N 4 0
+ 92736 = N 3 160
+ 92928 = N 4 0
+ 93024 = N 3 160
+ 93216 = N 4 0
+ 93312 = N 3 0
+ 93408 = N 4 0
+ 93504 = N 2 0
+ 93600 = N 3 0
+ 93696 = N 2 0
+ 93792 = N 1 0
+ 93792 = N 5 0
+ 93888 = N 0 0
+ 93984 = N 1 0
+ 94080 = N 3 0
+ 94176 = N 1 0
+ 94272 = N 0 0
+ 94368 = N 2 256
+ 94368 = S 2 864
+ 94656 = N 3 256
+ 94944 = N 4 0
+ 95040 = N 3 160
+ 95232 = N 4 0
+ 95328 = N 2 0
+ 95424 = N 2 0
+ 95520 = N 1 0
+ 95616 = N 2 0
+ 95616 = N 3 0
+ 95712 = N 2 0
+ 95712 = N 3 0
+ 95808 = N 1 0
+ 95904 = N 1 128
+ 96064 = N 1 0
+ 96192 = N 4 0
+ 96256 = N 3 0
+ 96320 = N 2 0
+ 96384 = N 3 0
+ 96480 = N 2 0
+ 96576 = N 1 0
+ 96672 = N 2 192
+ 96672 = N 3 192
+ 96960 = N 2 0
+ 96960 = N 3 0
+ 97056 = N 4 0
+ 97152 = N 1 0
+ 97344 = N 2 0
+ 97344 = N 3 0
+ 97440 = N 2 112
+ 97440 = N 4 112
+ 97584 = N 2 112
+ 97584 = N 4 112
+ 97728 = N 2 160
+ 97728 = N 3 160
+ 97920 = N 2 0
+ 97920 = N 3 0
+ 98016 = N 2 0
+ 98016 = N 3 0
+ 98112 = N 0 0
+ 98208 = N 0 0
+ 98304 = N 2 0
+ 98400 = N 1 0
+ 98400 = N 5 0
+ 98592 = N 2 0
+ 98688 = N 1 0
+ 98688 = N 5 0
+ 98880 = N 2 0
+ 98976 = N 1 0
+ 98976 = N 5 0
+ 99168 = N 4 0
+ 99264 = N 1 0
+ 99264 = N 5 0
+ 99456 = N 2 0
+ 99552 = N 1 0
+ 99552 = N 5 0
+ 99744 = N 3 0
+ 99840 = N 1 0
+ 99840 = N 5 0
+ 100032 = N 2 0
+ 100128 = N 1 0
+ 100128 = N 5 0
+ 100320 = N 2 0
+ 100416 = N 1 160
+ 100416 = N 5 0
+ 100608 = N 2 0
+ 100704 = N 1 0
+ 100704 = N 5 0
+ 100896 = N 2 0
+ 100992 = N 1 0
+ 100992 = N 5 0
+ 101184 = N 2 0
+ 101280 = N 1 160
+ 101280 = N 5 0
+ 101472 = N 2 0
+ 101568 = N 1 160
+ 101760 = N 2 0
+ 101856 = N 1 0
+ 101904 = N 2 112
+ 102048 = N 2 160
+ 102240 = N 1 0
+ 102336 = N 2 0
+ 102432 = N 1 160
+ 102432 = N 5 0
+ 102624 = N 2 0
+ 102720 = N 1 0
+ 102720 = N 5 0
+ 102816 = E soloend
+ 102912 = N 1 0
+ 102912 = N 3 0
+ 103104 = N 1 0
+ 103104 = N 3 0
+ 103200 = N 1 0
+ 103200 = N 3 0
+ 103392 = N 1 0
+ 103392 = N 3 0
+ 103488 = N 1 0
+ 103488 = N 3 0
+ 103584 = N 1 0
+ 103584 = N 3 0
+ 103776 = N 1 0
+ 103872 = N 1 0
+ 103872 = N 3 0
+ 103968 = N 1 0
+ 103968 = N 3 0
+ 104064 = N 2 0
+ 104064 = N 4 0
+ 104256 = N 1 0
+ 104256 = N 3 0
+ 104448 = N 1 0
+ 104448 = N 3 0
+ 104640 = N 1 0
+ 104640 = N 3 0
+ 104832 = N 1 0
+ 104832 = N 3 0
+ 104928 = N 1 0
+ 104928 = N 3 0
+ 105120 = N 2 0
+ 105120 = N 4 0
+ 105312 = N 1 0
+ 105408 = N 1 0
+ 105408 = N 3 0
+ 105792 = N 1 192
+ 105792 = N 3 192
+}
+[MediumSingle]
+{
+ 1536 = N 2 0
+ 1536 = N 3 0
+ 1536 = N 6 0
+ 1728 = N 2 0
+ 1728 = N 3 0
+ 1728 = N 6 0
+ 2016 = N 2 0
+ 2016 = N 3 0
+ 2016 = N 6 0
+ 2208 = N 1 0
+ 2208 = N 3 0
+ 2208 = N 6 0
+ 2592 = N 1 0
+ 2592 = N 3 0
+ 2592 = N 6 0
+ 2784 = N 1 0
+ 2784 = N 3 0
+ 2784 = N 6 0
+ 3072 = N 2 0
+ 3072 = N 3 0
+ 3072 = N 6 0
+ 3264 = N 2 0
+ 3264 = N 3 0
+ 3264 = N 6 0
+ 3552 = N 2 0
+ 3552 = N 3 0
+ 3552 = N 6 0
+ 3744 = N 1 0
+ 3744 = N 3 0
+ 3744 = N 6 0
+ 4128 = N 1 0
+ 4128 = N 3 0
+ 4128 = N 6 0
+ 4320 = N 1 0
+ 4320 = N 3 0
+ 4320 = N 6 0
+ 4608 = N 2 0
+ 4608 = N 3 0
+ 4608 = N 6 0
+ 4800 = N 2 0
+ 4800 = N 3 0
+ 4800 = N 6 0
+ 5088 = N 2 0
+ 5088 = N 3 0
+ 5088 = N 6 0
+ 5280 = N 1 0
+ 5280 = N 3 0
+ 5280 = N 6 0
+ 5664 = N 1 0
+ 5664 = N 3 0
+ 5664 = N 6 0
+ 5856 = N 1 0
+ 5856 = N 3 0
+ 5856 = N 6 0
+ 6144 = N 2 0
+ 6144 = N 3 0
+ 6144 = N 6 0
+ 6336 = N 2 0
+ 6336 = N 3 0
+ 6336 = N 6 0
+ 6624 = N 2 0
+ 6624 = N 3 0
+ 6624 = N 6 0
+ 6816 = N 1 0
+ 6816 = N 3 0
+ 6816 = N 6 0
+ 7200 = N 1 0
+ 7200 = N 3 0
+ 7200 = N 6 0
+ 7392 = N 1 0
+ 7392 = N 3 0
+ 7392 = N 6 0
+ 7680 = N 0 0
+ 7680 = S 2 1536
+ 7872 = N 0 0
+ 7968 = N 1 0
+ 8064 = N 2 0
+ 8160 = N 3 0
+ 8352 = N 1 0
+ 8544 = N 0 288
+ 9216 = N 0 0
+ 9408 = N 0 0
+ 9504 = N 1 0
+ 9600 = N 2 0
+ 9696 = N 3 160
+ 9888 = N 1 160
+ 10272 = N 2 160
+ 10464 = N 1 0
+ 10752 = N 0 0
+ 10944 = N 0 0
+ 11040 = N 1 0
+ 11136 = N 2 0
+ 11232 = N 3 160
+ 11424 = N 1 0
+ 11616 = N 0 336
+ 12288 = N 0 0
+ 12480 = N 0 0
+ 12576 = N 1 0
+ 12672 = N 2 0
+ 12768 = N 3 160
+ 12960 = N 1 192
+ 13344 = N 2 160
+ 13536 = N 1 0
+ 13824 = N 1 0
+ 13824 = N 2 0
+ 14016 = N 1 0
+ 14016 = N 2 0
+ 14112 = N 1 0
+ 14112 = N 2 0
+ 14304 = N 1 0
+ 14400 = N 1 0
+ 14496 = N 1 0
+ 14496 = N 2 0
+ 14688 = N 1 0
+ 14784 = N 1 0
+ 14976 = N 2 0
+ 14976 = N 3 0
+ 15168 = N 1 0
+ 15168 = N 2 0
+ 15360 = N 1 0
+ 15360 = N 2 0
+ 15552 = N 1 0
+ 15552 = N 2 0
+ 15744 = N 1 0
+ 15744 = N 2 0
+ 15840 = N 1 0
+ 15840 = N 2 0
+ 16032 = N 2 0
+ 16032 = N 3 0
+ 16320 = N 1 0
+ 16320 = N 2 0
+ 16704 = N 1 0
+ 16704 = N 2 0
+ 16896 = N 1 0
+ 16896 = N 2 0
+ 17088 = N 1 0
+ 17088 = N 2 0
+ 17376 = N 1 0
+ 17376 = N 2 0
+ 17568 = N 0 256
+ 17568 = N 1 256
+ 17952 = N 0 0
+ 17952 = N 1 0
+ 18144 = N 0 0
+ 18144 = N 1 0
+ 18432 = N 1 0
+ 18432 = N 2 0
+ 18432 = S 2 1536
+ 18624 = N 1 0
+ 18624 = N 2 0
+ 18912 = N 1 0
+ 18912 = N 2 0
+ 19104 = N 2 192
+ 19104 = N 3 192
+ 19488 = N 2 0
+ 19488 = N 3 0
+ 19680 = N 1 0
+ 19680 = N 3 0
+ 19968 = N 1 0
+ 19968 = N 2 0
+ 20160 = N 1 0
+ 20160 = N 2 0
+ 20448 = N 1 0
+ 20448 = N 2 0
+ 20640 = N 0 0
+ 20640 = N 1 0
+ 21024 = N 2 0
+ 21024 = N 3 0
+ 21216 = N 2 0
+ 21216 = N 3 0
+ 21504 = N 1 0
+ 21504 = N 2 0
+ 21696 = N 1 0
+ 21696 = N 2 0
+ 21984 = N 1 0
+ 21984 = N 2 0
+ 22176 = N 0 0
+ 22176 = N 1 0
+ 22560 = N 2 0
+ 22560 = N 3 0
+ 22752 = N 1 0
+ 22752 = N 2 0
+ 23040 = N 1 0
+ 23040 = N 2 0
+ 23232 = N 1 0
+ 23232 = N 2 0
+ 23328 = N 1 0
+ 23328 = N 2 0
+ 23520 = N 1 0
+ 23520 = N 2 0
+ 23616 = N 1 0
+ 23616 = N 2 0
+ 23712 = N 1 0
+ 23712 = N 2 0
+ 23904 = N 1 0
+ 23904 = N 2 0
+ 24000 = N 1 0
+ 24000 = N 2 0
+ 24192 = N 2 0
+ 24192 = N 3 0
+ 24384 = N 1 0
+ 24384 = N 2 0
+ 24576 = N 0 160
+ 24768 = N 1 0
+ 24960 = N 2 0
+ 25152 = N 2 0
+ 25248 = N 1 0
+ 25392 = N 0 400
+ 26112 = N 0 160
+ 26304 = N 1 0
+ 26496 = N 2 0
+ 26688 = N 2 0
+ 26784 = N 1 160
+ 26976 = N 3 352
+ 27456 = N 1 0
+ 27456 = N 2 0
+ 27648 = N 0 160
+ 27840 = N 1 0
+ 28032 = N 2 0
+ 28224 = N 2 0
+ 28320 = N 1 0
+ 28464 = N 0 352
+ 28896 = N 1 0
+ 28992 = N 2 0
+ 29088 = N 0 0
+ 29184 = N 0 0
+ 29184 = S 2 1536
+ 29376 = N 1 0
+ 29568 = N 3 0
+ 29664 = N 1 0
+ 29760 = N 2 0
+ 29856 = N 0 0
+ 30000 = N 2 688
+ 30720 = N 3 0
+ 30816 = N 3 0
+ 30912 = N 2 0
+ 31008 = N 2 0
+ 31104 = N 3 0
+ 31200 = N 2 160
+ 31200 = N 5 0
+ 31392 = N 3 160
+ 31584 = N 2 0
+ 31584 = N 5 0
+ 31680 = N 1 0
+ 31776 = N 2 0
+ 31872 = N 0 0
+ 31968 = N 1 0
+ 32064 = N 2 0
+ 32256 = N 3 0
+ 32352 = N 3 0
+ 32448 = N 2 0
+ 32544 = N 2 0
+ 32640 = N 3 0
+ 32736 = N 2 160
+ 32736 = N 5 0
+ 32928 = N 1 160
+ 33120 = N 2 0
+ 33216 = N 1 0
+ 33312 = N 0 208
+ 33600 = N 0 0
+ 33792 = N 3 0
+ 33888 = N 3 0
+ 33984 = N 2 0
+ 34080 = N 2 0
+ 34176 = N 3 0
+ 34272 = N 2 160
+ 34272 = N 5 0
+ 34464 = N 3 160
+ 34464 = N 5 0
+ 34656 = N 2 0
+ 34752 = N 1 0
+ 34848 = N 2 0
+ 34944 = N 0 0
+ 35040 = N 1 0
+ 35136 = N 2 0
+ 35328 = N 3 0
+ 35424 = N 3 0
+ 35520 = N 2 0
+ 35616 = N 2 0
+ 35712 = N 3 0
+ 35808 = N 2 160
+ 35808 = N 5 0
+ 36000 = N 1 0
+ 36144 = N 2 400
+ 36576 = N 3 0
+ 36576 = N 5 0
+ 36672 = N 1 0
+ 36672 = N 5 0
+ 36864 = N 3 0
+ 36960 = N 2 0
+ 36960 = N 5 0
+ 37152 = N 3 0
+ 37248 = N 2 0
+ 37248 = N 5 0
+ 37440 = N 3 0
+ 37536 = N 2 0
+ 37536 = N 5 0
+ 37728 = N 3 0
+ 37824 = N 2 0
+ 37824 = N 5 0
+ 38016 = N 3 0
+ 38112 = N 2 0
+ 38112 = N 5 0
+ 38304 = N 3 0
+ 38400 = N 2 0
+ 38592 = N 3 0
+ 38688 = N 2 0
+ 38688 = N 5 0
+ 38880 = N 3 0
+ 38976 = N 2 0
+ 38976 = N 5 0
+ 39072 = N 1 496
+ 39600 = N 0 0
+ 39744 = N 0 0
+ 39984 = N 1 0
+ 40128 = N 1 0
+ 40224 = N 1 0
+ 40320 = N 2 0
+ 40512 = N 2 0
+ 40608 = N 3 0
+ 40800 = N 0 0
+ 40896 = N 1 160
+ 41088 = N 2 160
+ 41280 = N 3 0
+ 41472 = N 1 0
+ 41472 = S 2 768
+ 41568 = N 1 0
+ 41664 = N 1 0
+ 41856 = N 2 0
+ 42048 = N 2 0
+ 42144 = N 3 0
+ 42336 = N 0 0
+ 42432 = N 1 160
+ 42624 = N 2 160
+ 42816 = N 3 0
+ 43008 = N 1 0
+ 43104 = N 1 0
+ 43200 = N 1 0
+ 43392 = N 2 0
+ 43584 = N 2 0
+ 43680 = N 3 0
+ 43872 = N 0 0
+ 43968 = N 1 160
+ 44160 = N 2 160
+ 44352 = N 3 0
+ 44544 = N 1 0
+ 44544 = N 2 0
+ 44736 = N 1 0
+ 44736 = N 2 0
+ 45024 = N 1 0
+ 45024 = N 2 0
+ 45216 = N 2 0
+ 45216 = N 3 0
+ 45600 = N 2 0
+ 45600 = N 3 0
+ 45792 = N 2 0
+ 45792 = N 3 0
+ 46080 = N 1 0
+ 46080 = N 2 0
+ 46272 = N 1 0
+ 46272 = N 2 0
+ 46560 = N 1 0
+ 46560 = N 2 0
+ 46752 = N 1 0
+ 46752 = N 2 0
+ 47136 = N 2 0
+ 47136 = N 3 0
+ 47328 = N 2 0
+ 47328 = N 3 0
+ 47616 = N 2 160
+ 47808 = N 3 0
+ 48000 = N 1 0
+ 48192 = N 3 0
+ 48288 = N 2 160
+ 48576 = N 3 0
+ 48672 = N 1 160
+ 48960 = N 0 0
+ 49056 = N 1 0
+ 49152 = N 2 160
+ 49344 = N 3 0
+ 49536 = N 1 0
+ 49728 = N 3 0
+ 49824 = N 2 160
+ 50016 = N 1 0
+ 50112 = N 3 0
+ 50208 = N 1 160
+ 50400 = N 3 0
+ 50688 = N 2 160
+ 50880 = N 3 0
+ 51072 = N 1 0
+ 51264 = N 3 0
+ 51360 = N 2 160
+ 51648 = N 3 0
+ 51744 = N 1 160
+ 51936 = N 3 0
+ 52224 = N 1 0
+ 52224 = S 2 1536
+ 52320 = N 1 0
+ 52416 = N 1 0
+ 52512 = N 1 0
+ 52608 = N 1 0
+ 52704 = N 1 0
+ 52800 = N 1 0
+ 52896 = N 1 0
+ 52992 = N 1 0
+ 52992 = N 2 0
+ 53088 = N 1 0
+ 53088 = N 2 0
+ 53184 = N 1 0
+ 53184 = N 2 0
+ 53280 = N 1 0
+ 53280 = N 2 0
+ 53376 = N 1 0
+ 53376 = N 2 0
+ 53520 = N 1 0
+ 53520 = N 2 0
+ 53664 = N 1 0
+ 53664 = N 2 0
+ 53760 = N 3 0
+ 53760 = N 6 0
+ 53760 = E solo
+ 53856 = N 3 0
+ 53856 = N 6 0
+ 53952 = N 3 0
+ 53952 = N 6 0
+ 54048 = N 3 0
+ 54048 = N 6 0
+ 54144 = N 3 0
+ 54144 = N 6 0
+ 54240 = N 3 0
+ 54240 = N 6 0
+ 54336 = N 3 0
+ 54336 = N 6 0
+ 54432 = N 3 0
+ 54432 = N 6 0
+ 54528 = N 3 0
+ 54528 = N 6 0
+ 54624 = N 3 0
+ 54624 = N 6 0
+ 54720 = N 3 0
+ 54720 = N 6 0
+ 54816 = N 3 0
+ 54816 = N 6 0
+ 54912 = N 3 0
+ 54912 = N 6 0
+ 55008 = N 3 0
+ 55008 = N 6 0
+ 55152 = N 3 0
+ 55152 = N 6 0
+ 55296 = N 2 0
+ 55296 = N 6 0
+ 55392 = N 1 0
+ 55392 = N 6 0
+ 55488 = N 3 0
+ 55488 = N 6 0
+ 55584 = N 2 0
+ 55584 = N 6 0
+ 55680 = N 1 0
+ 55680 = N 6 0
+ 55776 = N 0 0
+ 55776 = N 6 0
+ 55872 = N 1 0
+ 55872 = N 6 0
+ 55968 = N 0 0
+ 55968 = N 6 0
+ 56064 = N 1 0
+ 56064 = N 6 0
+ 56160 = N 0 192
+ 56160 = N 6 0
+ 56592 = N 1 0
+ 56592 = N 6 0
+ 56928 = N 2 704
+ 56928 = N 6 0
+ 57664 = N 1 0
+ 57664 = N 6 0
+ 57792 = N 1 0
+ 57792 = N 6 0
+ 57984 = N 2 0
+ 57984 = N 6 0
+ 58112 = N 2 0
+ 58112 = N 6 0
+ 58240 = N 2 0
+ 58240 = N 6 0
+ 58368 = N 2 208
+ 58368 = N 6 0
+ 58656 = N 1 0
+ 58656 = N 6 0
+ 58752 = N 2 0
+ 58752 = N 6 0
+ 58848 = N 0 0
+ 58848 = N 6 0
+ 58944 = N 3 400
+ 58944 = N 6 0
+ 59424 = N 2 0
+ 59424 = N 6 0
+ 59520 = N 1 0
+ 59520 = N 6 0
+ 59616 = N 0 0
+ 59616 = N 6 0
+ 59712 = N 2 0
+ 59712 = N 6 0
+ 59904 = N 1 0
+ 59904 = N 2 0
+ 59904 = N 6 0
+ 60096 = N 2 0
+ 60096 = N 6 0
+ 60192 = N 1 0
+ 60192 = N 6 0
+ 60384 = N 1 0
+ 60384 = N 2 0
+ 60384 = N 6 0
+ 60480 = N 1 0
+ 60480 = N 2 0
+ 60480 = N 6 0
+ 60576 = N 1 160
+ 60576 = N 2 160
+ 60576 = N 6 0
+ 60768 = N 1 0
+ 60768 = N 2 0
+ 60768 = N 6 0
+ 60864 = N 1 160
+ 60864 = N 2 160
+ 60864 = N 6 0
+ 61056 = N 1 0
+ 61056 = N 2 0
+ 61056 = N 6 0
+ 61152 = N 1 160
+ 61152 = N 2 160
+ 61152 = N 6 0
+ 61344 = N 1 0
+ 61344 = N 2 0
+ 61344 = N 6 0
+ 61440 = N 1 0
+ 61440 = N 6 0
+ 61440 = S 2 768
+ 61536 = N 0 0
+ 61536 = N 6 0
+ 61632 = N 1 0
+ 61632 = N 6 0
+ 61728 = N 0 0
+ 61728 = N 6 0
+ 61824 = N 1 0
+ 61824 = N 6 0
+ 61920 = N 0 0
+ 61920 = N 6 0
+ 62016 = N 1 0
+ 62016 = N 6 0
+ 62112 = N 0 0
+ 62112 = N 6 0
+ 62208 = N 1 0
+ 62208 = N 6 0
+ 62304 = N 0 0
+ 62304 = N 6 0
+ 62400 = N 1 0
+ 62400 = N 6 0
+ 62496 = N 0 0
+ 62496 = N 6 0
+ 62592 = N 1 0
+ 62592 = N 6 0
+ 62688 = N 0 0
+ 62688 = N 6 0
+ 62784 = N 0 0
+ 62784 = N 6 0
+ 62880 = N 1 160
+ 62880 = N 6 0
+ 63072 = N 2 0
+ 63072 = N 6 0
+ 63216 = N 3 544
+ 63216 = N 6 0
+ 63840 = N 2 0
+ 63840 = N 6 0
+ 63936 = N 1 0
+ 63936 = N 6 0
+ 64032 = N 0 0
+ 64032 = N 6 0
+ 64128 = N 2 0
+ 64128 = N 6 0
+ 64272 = N 2 0
+ 64272 = N 6 0
+ 64368 = N 1 0
+ 64368 = N 6 0
+ 64464 = N 0 208
+ 64464 = N 6 0
+ 64704 = N 2 0
+ 64704 = N 6 0
+ 64800 = N 0 288
+ 64800 = N 6 0
+ 65184 = N 2 160
+ 65184 = N 3 160
+ 65184 = N 6 0
+ 65376 = N 1 0
+ 65376 = N 3 0
+ 65376 = N 6 0
+ 65472 = N 1 0
+ 65472 = N 3 0
+ 65472 = N 6 0
+ 65664 = N 1 0
+ 65664 = N 3 0
+ 65664 = N 6 0
+ 65808 = N 1 0
+ 65808 = N 3 0
+ 65808 = N 6 0
+ 65952 = N 3 0
+ 65952 = N 6 0
+ 66096 = N 1 0
+ 66096 = N 3 0
+ 66096 = N 6 0
+ 66240 = N 1 0
+ 66240 = N 3 0
+ 66240 = N 6 0
+ 66384 = N 1 0
+ 66384 = N 2 0
+ 66384 = N 6 0
+ 66624 = N 1 0
+ 66624 = N 3 0
+ 66624 = N 6 0
+ 66720 = N 1 0
+ 66720 = N 3 0
+ 66720 = N 6 0
+ 66912 = N 1 0
+ 66912 = N 3 0
+ 66912 = N 6 0
+ 67056 = N 1 0
+ 67056 = N 3 0
+ 67056 = N 6 0
+ 67200 = N 1 0
+ 67200 = N 3 0
+ 67200 = N 6 0
+ 67344 = N 1 0
+ 67344 = N 3 0
+ 67344 = N 6 0
+ 67440 = N 1 0
+ 67440 = N 3 0
+ 67440 = N 6 0
+ 67584 = N 0 0
+ 67584 = N 1 0
+ 67584 = N 6 0
+ 67728 = N 1 0
+ 67728 = N 2 0
+ 67728 = N 6 0
+ 67872 = N 2 0
+ 67872 = N 3 0
+ 67872 = N 6 0
+ 68016 = N 1 0
+ 68016 = N 2 0
+ 68016 = N 6 0
+ 68160 = N 0 0
+ 68160 = N 1 0
+ 68160 = N 6 0
+ 68304 = N 1 0
+ 68304 = N 2 0
+ 68304 = N 6 0
+ 68448 = N 2 0
+ 68448 = N 3 0
+ 68448 = N 6 0
+ 68592 = N 1 0
+ 68592 = N 2 0
+ 68592 = N 6 0
+ 68736 = N 2 0
+ 68736 = N 3 0
+ 68736 = N 6 0
+ 68928 = N 1 0
+ 68928 = N 2 0
+ 68928 = N 6 0
+ 69120 = N 2 0
+ 69120 = N 3 0
+ 69120 = N 6 0
+ 69312 = N 1 0
+ 69312 = N 2 0
+ 69312 = N 6 0
+ 69504 = N 0 0
+ 69504 = N 1 0
+ 69504 = N 6 0
+ 69600 = N 1 0
+ 69600 = N 2 0
+ 69600 = N 6 0
+ 69792 = N 2 832
+ 69792 = N 3 832
+ 69792 = N 6 0
+ 70656 = N 1 0
+ 70656 = N 2 0
+ 70656 = E soloend
+ 70848 = N 1 0
+ 70848 = N 2 0
+ 71136 = N 1 0
+ 71136 = N 2 0
+ 71328 = N 1 0
+ 71328 = N 2 0
+ 71712 = N 1 0
+ 71712 = N 2 0
+ 71904 = N 1 0
+ 71904 = N 2 0
+ 72192 = N 1 0
+ 72192 = N 2 0
+ 72192 = S 2 1536
+ 72384 = N 1 0
+ 72384 = N 2 0
+ 72672 = N 1 0
+ 72672 = N 2 0
+ 72864 = N 1 0
+ 72864 = N 2 0
+ 73248 = N 1 0
+ 73248 = N 2 0
+ 73440 = N 1 0
+ 73440 = N 2 0
+ 73728 = N 1 0
+ 73728 = N 2 0
+ 73920 = N 1 0
+ 73920 = N 2 0
+ 74016 = N 1 0
+ 74016 = N 2 0
+ 74208 = N 1 0
+ 74208 = N 2 0
+ 74304 = N 1 0
+ 74304 = N 2 0
+ 74400 = N 1 0
+ 74400 = N 2 0
+ 74592 = N 1 0
+ 74592 = N 2 0
+ 74688 = N 1 0
+ 74688 = N 2 0
+ 74880 = N 2 0
+ 74880 = N 3 0
+ 75072 = N 1 0
+ 75072 = N 2 0
+ 75264 = N 1 0
+ 75264 = N 2 0
+ 75456 = N 1 0
+ 75456 = N 2 0
+ 75744 = N 1 0
+ 75744 = N 2 0
+ 75936 = N 0 160
+ 75936 = N 1 160
+ 76128 = N 1 192
+ 76512 = N 1 0
+ 76512 = N 3 0
+ 76800 = N 1 0
+ 76800 = N 2 0
+ 76992 = N 1 0
+ 76992 = N 2 0
+ 77280 = N 1 0
+ 77280 = N 2 0
+ 77472 = N 0 160
+ 77472 = N 1 160
+ 77664 = N 0 0
+ 77664 = N 1 0
+ 77856 = N 2 0
+ 77856 = N 3 0
+ 78048 = N 1 0
+ 78048 = N 3 0
+ 78336 = N 1 0
+ 78336 = N 2 0
+ 78528 = N 1 0
+ 78528 = N 2 0
+ 78816 = N 1 0
+ 78816 = N 2 0
+ 79008 = N 2 160
+ 79008 = N 3 160
+ 79200 = N 2 0
+ 79200 = N 3 0
+ 79392 = N 2 0
+ 79392 = N 3 0
+ 79584 = N 1 0
+ 79584 = N 3 0
+ 79872 = N 1 0
+ 79872 = N 2 0
+ 80064 = N 1 0
+ 80064 = N 2 0
+ 80352 = N 1 0
+ 80352 = N 2 0
+ 80544 = N 2 288
+ 80544 = N 3 288
+ 80928 = N 2 0
+ 80928 = N 3 0
+ 81120 = N 1 0
+ 81120 = N 3 0
+ 83520 = N 1 160
+ 83520 = E solo
+ 83712 = N 2 544
+ 83712 = N 5 0
+ 84480 = N 3 160
+ 84480 = S 2 1536
+ 84672 = N 2 0
+ 84768 = N 2 0
+ 84864 = N 3 0
+ 84960 = N 2 160
+ 84960 = N 5 0
+ 85152 = N 3 160
+ 85344 = N 2 0
+ 85440 = N 1 0
+ 85536 = N 2 0
+ 85632 = N 1 0
+ 85728 = N 1 0
+ 85824 = N 2 0
+ 86016 = N 3 0
+ 86112 = N 3 0
+ 86208 = N 2 0
+ 86304 = N 2 0
+ 86400 = N 3 0
+ 86496 = N 2 0
+ 86496 = N 5 0
+ 86592 = N 1 0
+ 86688 = N 2 160
+ 86880 = N 1 304
+ 87216 = N 0 0
+ 87360 = N 0 0
+ 87552 = N 3 0
+ 87648 = N 3 0
+ 87744 = N 2 0
+ 87840 = N 2 0
+ 87936 = N 3 0
+ 88032 = N 2 160
+ 88032 = N 5 0
+ 88224 = N 3 160
+ 88416 = N 2 0
+ 88416 = N 5 0
+ 88512 = N 1 0
+ 88608 = N 2 0
+ 88704 = N 0 0
+ 88800 = N 1 0
+ 88896 = N 2 0
+ 89088 = N 3 0
+ 89184 = N 3 0
+ 89280 = N 2 0
+ 89376 = N 2 0
+ 89472 = N 3 0
+ 89568 = N 2 160
+ 89568 = N 5 0
+ 89760 = N 1 0
+ 89904 = N 2 304
+ 90240 = N 3 192
+ 90240 = N 5 0
+ 90720 = N 3 448
+ 91200 = N 1 0
+ 91296 = N 2 0
+ 91440 = N 3 0
+ 91536 = N 0 432
+ 92064 = N 2 256
+ 92352 = N 3 0
+ 92448 = N 2 160
+ 92640 = N 3 0
+ 92736 = N 2 160
+ 92928 = N 3 0
+ 93024 = N 2 160
+ 93216 = N 3 0
+ 93312 = N 2 0
+ 93408 = N 3 0
+ 93504 = N 1 0
+ 93600 = N 2 0
+ 93696 = N 1 0
+ 93888 = N 0 0
+ 93984 = N 1 0
+ 94080 = N 2 0
+ 94272 = N 0 0
+ 94368 = N 1 256
+ 94368 = S 2 864
+ 94656 = N 2 256
+ 94944 = N 3 0
+ 95040 = N 2 160
+ 95232 = N 3 0
+ 95328 = N 2 0
+ 95424 = N 2 0
+ 95520 = N 1 0
+ 95616 = N 2 0
+ 95712 = N 2 0
+ 95808 = N 1 0
+ 95904 = N 1 128
+ 96064 = N 1 0
+ 96192 = N 0 0
+ 96384 = N 0 0
+ 96576 = N 1 0
+ 96672 = N 2 192
+ 96960 = N 2 0
+ 97056 = N 3 0
+ 97152 = N 1 0
+ 97344 = N 1 0
+ 97344 = N 2 0
+ 97440 = N 2 0
+ 97440 = N 3 0
+ 97584 = N 2 0
+ 97584 = N 3 0
+ 97728 = N 1 160
+ 97728 = N 2 160
+ 97920 = N 1 0
+ 97920 = N 2 0
+ 98016 = N 1 0
+ 98016 = N 2 0
+ 98304 = N 1 0
+ 98400 = N 0 0
+ 98400 = N 5 0
+ 98592 = N 1 0
+ 98688 = N 0 0
+ 98688 = N 5 0
+ 98880 = N 1 0
+ 98976 = N 0 0
+ 98976 = N 5 0
+ 99168 = N 3 0
+ 99264 = N 0 0
+ 99264 = N 5 0
+ 99456 = N 1 0
+ 99552 = N 0 0
+ 99552 = N 5 0
+ 99744 = N 2 0
+ 99840 = N 0 0
+ 99840 = N 5 0
+ 100032 = N 1 0
+ 100128 = N 0 0
+ 100128 = N 5 0
+ 100320 = N 1 0
+ 100416 = N 0 160
+ 100608 = N 1 0
+ 100704 = N 0 0
+ 100704 = N 5 0
+ 100896 = N 1 0
+ 100992 = N 0 0
+ 100992 = N 5 0
+ 101184 = N 1 0
+ 101280 = N 0 160
+ 101280 = N 5 0
+ 101472 = N 1 0
+ 101568 = N 0 160
+ 101760 = N 1 0
+ 101904 = N 1 0
+ 102048 = N 1 160
+ 102240 = N 0 0
+ 102336 = N 1 0
+ 102432 = N 0 160
+ 102432 = N 5 0
+ 102624 = N 1 0
+ 102720 = N 0 0
+ 102720 = N 5 0
+ 102816 = E soloend
+ 102912 = N 1 0
+ 102912 = N 2 0
+ 103104 = N 1 0
+ 103104 = N 2 0
+ 103200 = N 1 0
+ 103200 = N 2 0
+ 103392 = N 1 0
+ 103392 = N 2 0
+ 103488 = N 1 0
+ 103488 = N 2 0
+ 103584 = N 1 0
+ 103584 = N 2 0
+ 103776 = N 1 0
+ 103872 = N 1 0
+ 103872 = N 2 0
+ 104064 = N 2 0
+ 104064 = N 3 0
+ 104256 = N 1 0
+ 104256 = N 2 0
+ 104448 = N 1 0
+ 104448 = N 2 0
+ 104640 = N 1 0
+ 104640 = N 2 0
+ 104832 = N 1 0
+ 104832 = N 2 0
+ 104928 = N 1 0
+ 104928 = N 2 0
+ 105120 = N 2 0
+ 105120 = N 3 0
+ 105408 = N 1 0
+ 105408 = N 2 0
+ 105792 = N 1 192
+ 105792 = N 2 192
+}
+[EasySingle]
+{
+ 1536 = N 2 0
+ 1536 = N 6 0
+ 1728 = N 2 0
+ 1728 = N 6 0
+ 2016 = N 2 0
+ 2016 = N 6 0
+ 2208 = N 1 0
+ 2208 = N 6 0
+ 2592 = N 1 0
+ 2592 = N 6 0
+ 2784 = N 1 0
+ 2784 = N 6 0
+ 3072 = N 2 0
+ 3072 = N 6 0
+ 3264 = N 2 0
+ 3264 = N 6 0
+ 3552 = N 2 0
+ 3552 = N 6 0
+ 3744 = N 1 0
+ 3744 = N 6 0
+ 4128 = N 1 0
+ 4128 = N 6 0
+ 4320 = N 1 0
+ 4320 = N 6 0
+ 4608 = N 2 0
+ 4608 = N 6 0
+ 4800 = N 2 0
+ 4800 = N 6 0
+ 5088 = N 2 0
+ 5088 = N 6 0
+ 5280 = N 1 0
+ 5280 = N 6 0
+ 5664 = N 1 0
+ 5664 = N 6 0
+ 5856 = N 1 0
+ 5856 = N 6 0
+ 6144 = N 2 0
+ 6144 = N 6 0
+ 6336 = N 2 0
+ 6336 = N 6 0
+ 6624 = N 2 0
+ 6624 = N 6 0
+ 6816 = N 1 0
+ 6816 = N 6 0
+ 7200 = N 1 0
+ 7200 = N 6 0
+ 7392 = N 1 0
+ 7392 = N 6 0
+ 7680 = N 0 0
+ 7680 = S 2 1536
+ 7872 = N 0 0
+ 8064 = N 1 0
+ 8160 = N 2 0
+ 8352 = N 1 0
+ 8544 = N 0 288
+ 9216 = N 0 0
+ 9408 = N 0 0
+ 9600 = N 1 0
+ 9696 = N 2 160
+ 9888 = N 1 160
+ 10272 = N 2 160
+ 10464 = N 1 0
+ 10752 = N 0 0
+ 10944 = N 0 0
+ 11136 = N 1 0
+ 11232 = N 2 160
+ 11424 = N 1 0
+ 11616 = N 0 336
+ 12288 = N 0 0
+ 12480 = N 0 0
+ 12672 = N 1 0
+ 12768 = N 2 160
+ 12960 = N 1 192
+ 13344 = N 2 160
+ 13536 = N 1 0
+ 13824 = N 1 0
+ 14016 = N 1 0
+ 14112 = N 1 0
+ 14304 = N 1 0
+ 14400 = N 1 0
+ 14496 = N 1 0
+ 14688 = N 1 0
+ 14784 = N 1 0
+ 14976 = N 2 0
+ 15168 = N 1 0
+ 15360 = N 1 0
+ 15552 = N 1 0
+ 15744 = N 1 0
+ 15840 = N 1 0
+ 16032 = N 2 0
+ 16224 = N 1 0
+ 16320 = N 1 0
+ 16704 = N 1 0
+ 16896 = N 1 0
+ 17088 = N 1 0
+ 17376 = N 1 0
+ 17568 = N 0 256
+ 17952 = N 0 0
+ 18144 = N 0 0
+ 18432 = N 1 0
+ 18432 = S 2 1536
+ 18624 = N 1 0
+ 18912 = N 1 0
+ 19104 = N 2 192
+ 19488 = N 2 0
+ 19680 = N 1 0
+ 19968 = N 1 0
+ 20160 = N 1 0
+ 20448 = N 1 0
+ 20640 = N 0 0
+ 21024 = N 2 0
+ 21216 = N 2 0
+ 21504 = N 1 0
+ 21696 = N 1 0
+ 21984 = N 1 0
+ 22176 = N 0 0
+ 22560 = N 2 0
+ 22752 = N 1 0
+ 23040 = N 1 0
+ 23232 = N 1 0
+ 23328 = N 1 0
+ 23520 = N 1 0
+ 23616 = N 1 0
+ 23712 = N 1 0
+ 23904 = N 1 0
+ 24000 = N 1 0
+ 24192 = N 2 0
+ 24384 = N 1 0
+ 24576 = N 0 160
+ 24768 = N 1 0
+ 24960 = N 2 0
+ 25248 = N 1 0
+ 25392 = N 0 400
+ 26112 = N 0 160
+ 26304 = N 1 0
+ 26496 = N 2 0
+ 26784 = N 1 160
+ 26976 = N 2 352
+ 27456 = N 1 0
+ 27648 = N 0 160
+ 27840 = N 1 0
+ 28032 = N 2 0
+ 28320 = N 1 0
+ 28464 = N 0 352
+ 28992 = N 1 0
+ 29184 = N 0 0
+ 29184 = S 2 1536
+ 29376 = N 1 0
+ 29568 = N 2 0
+ 29856 = N 0 0
+ 30000 = N 1 688
+ 30720 = N 2 0
+ 30912 = N 1 0
+ 31104 = N 2 0
+ 31200 = N 1 160
+ 31200 = N 5 0
+ 31392 = N 2 160
+ 31680 = N 0 0
+ 31776 = N 1 0
+ 32064 = N 0 0
+ 32256 = N 2 0
+ 32448 = N 1 0
+ 32640 = N 2 0
+ 32736 = N 1 160
+ 32736 = N 5 0
+ 32928 = N 0 160
+ 33216 = N 1 0
+ 33312 = N 0 208
+ 33792 = N 2 0
+ 33984 = N 1 0
+ 34176 = N 2 0
+ 34272 = N 1 160
+ 34272 = N 5 0
+ 34464 = N 2 160
+ 34464 = N 5 0
+ 34752 = N 0 0
+ 34848 = N 1 0
+ 35136 = N 0 0
+ 35328 = N 2 0
+ 35520 = N 1 0
+ 35712 = N 2 0
+ 35808 = N 1 160
+ 35808 = N 5 0
+ 36000 = N 0 0
+ 36144 = N 1 400
+ 36576 = N 2 0
+ 36576 = N 5 0
+ 36864 = N 2 0
+ 37152 = N 2 0
+ 37440 = N 2 0
+ 37728 = N 2 0
+ 38016 = N 2 0
+ 38304 = N 2 0
+ 38592 = N 2 0
+ 38880 = N 2 0
+ 39072 = N 1 496
+ 39600 = N 0 0
+ 39744 = N 0 0
+ 40000 = N 0 0
+ 40128 = N 0 0
+ 40320 = N 1 0
+ 40512 = N 1 0
+ 40608 = N 2 0
+ 40896 = N 0 160
+ 41088 = N 1 160
+ 41280 = N 2 0
+ 41472 = N 0 0
+ 41472 = S 2 768
+ 41664 = N 0 0
+ 41856 = N 1 0
+ 42048 = N 1 0
+ 42144 = N 2 0
+ 42432 = N 0 160
+ 42624 = N 1 160
+ 42816 = N 2 0
+ 43008 = N 0 0
+ 43200 = N 0 0
+ 43392 = N 1 0
+ 43584 = N 1 0
+ 43680 = N 2 0
+ 43968 = N 0 160
+ 44160 = N 1 160
+ 44352 = N 2 0
+ 44544 = N 1 0
+ 44736 = N 1 0
+ 45024 = N 1 0
+ 45216 = N 2 0
+ 45600 = N 2 0
+ 45792 = N 2 0
+ 46080 = N 1 0
+ 46272 = N 1 0
+ 46560 = N 1 0
+ 46752 = N 1 0
+ 47136 = N 2 0
+ 47328 = N 2 0
+ 47616 = N 2 160
+ 48000 = N 1 0
+ 48288 = N 2 160
+ 48672 = N 1 160
+ 48960 = N 0 0
+ 49152 = N 2 160
+ 49536 = N 1 0
+ 49824 = N 2 160
+ 50208 = N 1 160
+ 50688 = N 2 160
+ 51072 = N 1 0
+ 51360 = N 2 160
+ 51744 = N 1 160
+ 52224 = N 0 0
+ 52224 = S 2 1536
+ 52416 = N 0 0
+ 52608 = N 0 0
+ 52800 = N 0 0
+ 52992 = N 0 0
+ 52992 = N 1 0
+ 53184 = N 0 0
+ 53184 = N 1 0
+ 53376 = N 0 0
+ 53376 = N 1 0
+ 53520 = N 0 0
+ 53520 = N 1 0
+ 53664 = N 0 0
+ 53664 = N 1 0
+ 53760 = N 2 0
+ 53760 = N 6 0
+ 53760 = E solo
+ 53952 = N 2 0
+ 53952 = N 6 0
+ 54144 = N 2 0
+ 54144 = N 6 0
+ 54336 = N 2 0
+ 54336 = N 6 0
+ 54528 = N 2 0
+ 54528 = N 6 0
+ 54720 = N 2 0
+ 54720 = N 6 0
+ 55008 = N 2 0
+ 55008 = N 6 0
+ 55152 = N 2 0
+ 55152 = N 6 0
+ 55296 = N 1 0
+ 55296 = N 6 0
+ 55488 = N 2 0
+ 55488 = N 6 0
+ 55680 = N 0 0
+ 55680 = N 6 0
+ 55872 = N 1 0
+ 55872 = N 6 0
+ 56064 = N 1 0
+ 56064 = N 6 0
+ 56160 = N 0 192
+ 56160 = N 6 0
+ 56928 = N 1 704
+ 56928 = N 6 0
+ 57664 = N 0 0
+ 57664 = N 6 0
+ 57792 = N 0 0
+ 57792 = N 6 0
+ 57984 = N 1 0
+ 57984 = N 6 0
+ 58112 = N 1 0
+ 58112 = N 6 0
+ 58240 = N 1 0
+ 58240 = N 6 0
+ 58368 = N 1 208
+ 58368 = N 6 0
+ 58752 = N 0 0
+ 58752 = N 6 0
+ 58944 = N 2 400
+ 58944 = N 6 0
+ 59520 = N 1 0
+ 59520 = N 6 0
+ 59712 = N 1 0
+ 59712 = N 6 0
+ 59904 = N 1 0
+ 59904 = N 6 0
+ 60096 = N 0 0
+ 60096 = N 6 0
+ 60384 = N 1 0
+ 60384 = N 6 0
+ 60480 = N 1 0
+ 60480 = N 6 0
+ 60576 = N 1 160
+ 60576 = N 6 0
+ 60768 = N 1 0
+ 60768 = N 6 0
+ 60864 = N 1 160
+ 60864 = N 6 0
+ 61056 = N 1 0
+ 61056 = N 6 0
+ 61152 = N 1 160
+ 61152 = N 6 0
+ 61440 = N 0 0
+ 61440 = N 6 0
+ 61440 = S 2 768
+ 61632 = N 0 0
+ 61632 = N 6 0
+ 61824 = N 0 0
+ 61824 = N 6 0
+ 62016 = N 0 0
+ 62016 = N 6 0
+ 62208 = N 0 0
+ 62208 = N 6 0
+ 62400 = N 0 0
+ 62400 = N 6 0
+ 62592 = N 0 0
+ 62592 = N 6 0
+ 62880 = N 0 160
+ 62880 = N 6 0
+ 63072 = N 1 0
+ 63072 = N 6 0
+ 63216 = N 2 544
+ 63216 = N 6 0
+ 63936 = N 1 0
+ 63936 = N 6 0
+ 64128 = N 2 0
+ 64128 = N 6 0
+ 64272 = N 2 0
+ 64272 = N 6 0
+ 64464 = N 0 208
+ 64464 = N 6 0
+ 64704 = N 1 0
+ 64704 = N 6 0
+ 64800 = N 0 288
+ 64800 = N 6 0
+ 65184 = N 2 0
+ 65184 = N 6 0
+ 65376 = N 1 0
+ 65376 = N 6 0
+ 65472 = N 1 0
+ 65472 = N 6 0
+ 65664 = N 1 0
+ 65664 = N 6 0
+ 65808 = N 1 0
+ 65808 = N 6 0
+ 65952 = N 1 0
+ 65952 = N 6 0
+ 66096 = N 1 0
+ 66096 = N 6 0
+ 66240 = N 1 0
+ 66240 = N 6 0
+ 66384 = N 0 0
+ 66384 = N 6 0
+ 66624 = N 1 0
+ 66624 = N 6 0
+ 66720 = N 1 0
+ 66720 = N 6 0
+ 66912 = N 1 0
+ 66912 = N 6 0
+ 67056 = N 1 0
+ 67056 = N 6 0
+ 67200 = N 1 0
+ 67200 = N 6 0
+ 67344 = N 1 0
+ 67344 = N 6 0
+ 67584 = N 0 0
+ 67584 = N 6 0
+ 67728 = N 1 0
+ 67728 = N 6 0
+ 67872 = N 2 0
+ 67872 = N 6 0
+ 68016 = N 1 0
+ 68016 = N 6 0
+ 68160 = N 0 0
+ 68160 = N 6 0
+ 68304 = N 1 0
+ 68304 = N 6 0
+ 68448 = N 2 0
+ 68448 = N 6 0
+ 68592 = N 1 0
+ 68592 = N 6 0
+ 68736 = N 2 0
+ 68736 = N 6 0
+ 68928 = N 1 0
+ 68928 = N 6 0
+ 69120 = N 2 0
+ 69120 = N 6 0
+ 69312 = N 1 0
+ 69312 = N 6 0
+ 69504 = N 0 0
+ 69504 = N 6 0
+ 69600 = N 1 0
+ 69600 = N 6 0
+ 69792 = N 2 832
+ 69792 = N 6 0
+ 70656 = N 1 0
+ 70656 = E soloend
+ 70848 = N 1 0
+ 71136 = N 1 0
+ 71328 = N 1 0
+ 71712 = N 1 0
+ 71904 = N 1 0
+ 72192 = N 1 0
+ 72192 = S 2 1536
+ 72384 = N 1 0
+ 72672 = N 1 0
+ 72864 = N 1 0
+ 73248 = N 1 0
+ 73440 = N 1 0
+ 73728 = N 1 0
+ 73920 = N 1 0
+ 74016 = N 1 0
+ 74208 = N 1 0
+ 74304 = N 1 0
+ 74400 = N 1 0
+ 74592 = N 1 0
+ 74688 = N 1 0
+ 74880 = N 2 0
+ 75072 = N 1 0
+ 75264 = N 1 0
+ 75456 = N 1 0
+ 75744 = N 1 0
+ 75936 = N 0 160
+ 76512 = N 1 0
+ 76800 = N 1 0
+ 76992 = N 1 0
+ 77280 = N 1 0
+ 77472 = N 0 160
+ 77664 = N 0 0
+ 77856 = N 2 0
+ 78048 = N 1 0
+ 78336 = N 1 0
+ 78528 = N 1 0
+ 78816 = N 1 0
+ 79008 = N 2 160
+ 79200 = N 2 0
+ 79392 = N 2 0
+ 79584 = N 1 0
+ 79872 = N 1 0
+ 80064 = N 1 0
+ 80352 = N 1 0
+ 80544 = N 2 288
+ 80928 = N 2 0
+ 81120 = N 1 0
+ 83520 = N 0 160
+ 83520 = E solo
+ 83712 = N 1 544
+ 83712 = N 5 0
+ 84480 = N 2 160
+ 84480 = S 2 1536
+ 84672 = N 1 0
+ 84864 = N 2 0
+ 84960 = N 1 160
+ 84960 = N 5 0
+ 85152 = N 2 160
+ 85440 = N 0 0
+ 85536 = N 1 0
+ 85824 = N 0 0
+ 86016 = N 2 0
+ 86208 = N 1 0
+ 86400 = N 2 0
+ 86592 = N 0 0
+ 86688 = N 1 160
+ 86880 = N 0 304
+ 87360 = N 0 0
+ 87552 = N 2 0
+ 87744 = N 1 0
+ 87936 = N 2 0
+ 88032 = N 1 160
+ 88032 = N 5 0
+ 88224 = N 2 160
+ 88512 = N 0 0
+ 88608 = N 1 0
+ 88896 = N 0 0
+ 89088 = N 2 0
+ 89280 = N 1 0
+ 89472 = N 2 0
+ 89568 = N 1 160
+ 89568 = N 5 0
+ 89760 = N 0 0
+ 89904 = N 1 304
+ 90240 = N 2 192
+ 90240 = N 5 0
+ 90720 = N 2 448
+ 91296 = N 1 0
+ 91440 = N 2 0
+ 91536 = N 0 432
+ 92064 = N 2 256
+ 92448 = N 2 160
+ 92736 = N 2 160
+ 93024 = N 2 160
+ 93312 = N 2 0
+ 93504 = N 1 0
+ 93696 = N 1 0
+ 93888 = N 0 0
+ 94080 = N 2 0
+ 94272 = N 0 0
+ 94368 = N 1 256
+ 94368 = S 2 864
+ 94656 = N 2 256
+ 95040 = N 2 160
+ 95232 = N 2 0
+ 95424 = N 1 0
+ 95616 = N 2 0
+ 95808 = N 1 0
+ 95904 = N 1 128
+ 96192 = N 0 0
+ 96384 = N 0 0
+ 96672 = N 2 192
+ 96960 = N 2 0
+ 97152 = N 1 0
+ 97248 = N 0 0
+ 97344 = N 1 0
+ 97440 = N 2 0
+ 97584 = N 2 0
+ 97728 = N 1 160
+ 97920 = N 1 0
+ 98016 = N 1 0
+ 98304 = N 0 0
+ 98592 = N 0 0
+ 98880 = N 0 0
+ 99168 = N 2 0
+ 99456 = N 0 0
+ 99744 = N 1 0
+ 100032 = N 0 0
+ 100320 = N 0 0
+ 100608 = N 0 0
+ 100896 = N 0 0
+ 101184 = N 0 0
+ 101472 = N 0 0
+ 101760 = N 0 0
+ 101904 = N 0 0
+ 102048 = N 0 160
+ 102336 = N 0 0
+ 102624 = N 0 0
+ 102816 = E soloend
+ 102912 = N 1 0
+ 103104 = N 1 0
+ 103200 = N 1 0
+ 103392 = N 1 0
+ 103488 = N 1 0
+ 103584 = N 1 0
+ 103776 = N 1 0
+ 103872 = N 1 0
+ 104064 = N 2 0
+ 104256 = N 1 0
+ 104448 = N 1 0
+ 104640 = N 1 0
+ 104832 = N 1 0
+ 104928 = N 1 0
+ 105120 = N 2 0
+ 105312 = N 1 0
+ 105408 = N 1 0
+ 105792 = N 1 192
+ 107424 = N 4 0
+}