diff options
Diffstat (limited to 'songs/Symphony X - Eve of Seduction (GuitarZero132)/notes.chart')
-rw-r--r-- | songs/Symphony X - Eve of Seduction (GuitarZero132)/notes.chart | 6036 |
1 files changed, 6036 insertions, 0 deletions
diff --git a/songs/Symphony X - Eve of Seduction (GuitarZero132)/notes.chart b/songs/Symphony X - Eve of Seduction (GuitarZero132)/notes.chart new file mode 100644 index 0000000..7549ce6 --- /dev/null +++ b/songs/Symphony X - Eve of Seduction (GuitarZero132)/notes.chart @@ -0,0 +1,6036 @@ +[Song]
+{
+ Name = "Eve of Seduction"
+ Artist = "Symphony X"
+ Charter = "GuitarZero132"
+ Album = "Paradise Lost"
+ Year = ", 2007"
+ Offset = 0
+ Resolution = 192
+ Player2 = bass
+ Difficulty = 6
+ PreviewStart = 0
+ PreviewEnd = 0
+ Genre = "Power Metal"
+ MediaType = "cd"
+ MusicStream = "song.ogg"
+}
+[SyncTrack]
+{
+ 0 = TS 4
+ 0 = B 145000
+ 1536 = B 142000
+ 9984 = TS 4
+ 12288 = TS 3
+ 12864 = TS 4
+ 13632 = TS 3
+ 14208 = TS 4
+ 14976 = TS 4
+ 15744 = TS 4
+ 40320 = TS 3
+ 43776 = TS 4
+ 44544 = TS 4
+ 76800 = TS 3
+ 80256 = TS 4
+ 81024 = TS 4
+}
+[Events]
+{
+ 1536 = E "section Intro A"
+ 9984 = E "section Intro B"
+ 15744 = E "section Intro C"
+ 21888 = E "section Verse Riff"
+ 28032 = E "section Verse 1A"
+ 34176 = E "section Verse 1B"
+ 40320 = E "section Pre-Chorus 1"
+ 44544 = E "section Chorus 1A"
+ 50688 = E "section Chorus 1B"
+ 56832 = E "section Post-Chorus"
+ 64512 = E "section Verse 2A"
+ 70656 = E "section Verse 2B"
+ 76800 = E "section Pre-Chorus 2"
+ 81024 = E "section Chorus 2A"
+ 86784 = E "section Chorus 2B"
+ 93312 = E "section Guitar Solo A"
+ 99456 = E "section Guitar Solo B"
+ 105600 = E "section Guitar Solo C"
+ 111744 = E "section Guitar Solo D"
+ 117888 = E "section Chorus 3A"
+ 124032 = E "section Chorus 3B"
+ 130176 = E "section Outro"
+}
+[ExpertSingle]
+{
+ 2304 = N 2 0
+ 2352 = N 0 0
+ 2400 = N 0 0
+ 2448 = N 1 0
+ 2496 = N 0 0
+ 2544 = N 0 0
+ 2592 = N 3 0
+ 2640 = N 4 0
+ 2688 = N 3 0
+ 2736 = N 1 0
+ 2784 = N 2 0
+ 2832 = N 0 0
+ 2880 = N 3 0
+ 2928 = N 0 0
+ 2976 = N 2 0
+ 3024 = N 0 0
+ 3072 = N 1 0
+ 3120 = N 0 0
+ 3168 = N 0 0
+ 3216 = N 2 0
+ 3264 = N 0 0
+ 3312 = N 0 0
+ 3360 = N 3 0
+ 3408 = N 4 0
+ 3456 = N 3 0
+ 3504 = N 1 0
+ 3552 = N 2 0
+ 3600 = N 0 0
+ 3648 = N 3 0
+ 3696 = N 0 0
+ 3744 = N 4 0
+ 3792 = N 0 0
+ 3840 = N 3 0
+ 3888 = N 0 0
+ 3936 = N 2 0
+ 3984 = N 3 0
+ 4032 = N 2 0
+ 4080 = N 0 0
+ 4128 = N 1 0
+ 4176 = N 0 0
+ 4224 = N 2 0
+ 4272 = N 0 0
+ 4320 = N 3 0
+ 4368 = N 4 0
+ 4416 = N 3 0
+ 4464 = N 0 0
+ 4512 = N 3 0
+ 4560 = N 0 0
+ 4608 = N 1 0
+ 4656 = N 0 0
+ 4704 = N 0 0
+ 4752 = N 1 0
+ 4800 = N 0 0
+ 4848 = N 0 0
+ 4896 = N 3 0
+ 4944 = N 0 0
+ 4992 = N 1 0
+ 5040 = N 0 0
+ 5088 = N 0 0
+ 5136 = N 1 0
+ 5184 = N 0 0
+ 5232 = N 0 0
+ 5280 = N 3 0
+ 5328 = N 0 0
+ 5376 = N 2 0
+ 5376 = S 2 768
+ 5424 = N 0 0
+ 5472 = N 0 0
+ 5520 = N 1 0
+ 5568 = N 0 0
+ 5616 = N 0 0
+ 5664 = N 3 0
+ 5712 = N 4 0
+ 5760 = N 3 0
+ 5808 = N 1 0
+ 5856 = N 2 0
+ 5904 = N 0 0
+ 5952 = N 3 0
+ 6000 = N 0 0
+ 6048 = N 2 0
+ 6096 = N 0 0
+ 6144 = N 1 0
+ 6192 = N 0 0
+ 6240 = N 0 0
+ 6288 = N 2 0
+ 6336 = N 0 0
+ 6384 = N 0 0
+ 6432 = N 3 0
+ 6480 = N 4 0
+ 6528 = N 3 0
+ 6576 = N 1 0
+ 6624 = N 2 0
+ 6672 = N 0 0
+ 6720 = N 3 0
+ 6768 = N 0 0
+ 6816 = N 4 0
+ 6864 = N 0 0
+ 6912 = N 3 0
+ 6960 = N 0 0
+ 7008 = N 2 0
+ 7056 = N 3 0
+ 7104 = N 2 0
+ 7152 = N 0 0
+ 7200 = N 1 0
+ 7248 = N 0 0
+ 7296 = N 2 0
+ 7344 = N 0 0
+ 7392 = N 3 0
+ 7440 = N 4 0
+ 7488 = N 3 0
+ 7536 = N 0 0
+ 7584 = N 3 0
+ 7632 = N 0 0
+ 7680 = N 1 0
+ 7728 = N 0 0
+ 7776 = N 0 0
+ 7824 = N 1 0
+ 7872 = N 0 0
+ 7920 = N 0 0
+ 7968 = N 3 0
+ 8016 = N 0 0
+ 8064 = N 1 0
+ 8112 = N 0 0
+ 8160 = N 0 0
+ 8208 = N 1 0
+ 8256 = N 0 0
+ 8304 = N 0 0
+ 8352 = N 3 0
+ 8400 = N 0 0
+ 8448 = N 4 0
+ 8544 = N 4 0
+ 8640 = N 2 0
+ 8688 = N 3 0
+ 8736 = N 2 0
+ 8784 = N 0 0
+ 8832 = N 1 0
+ 8880 = N 2 0
+ 8928 = N 1 0
+ 8976 = N 0 0
+ 9024 = N 3 0
+ 9072 = N 4 0
+ 9120 = N 3 0
+ 9168 = N 0 0
+ 9216 = N 2 0
+ 9264 = N 3 0
+ 9312 = N 2 0
+ 9360 = N 0 0
+ 9408 = N 3 0
+ 9456 = N 4 0
+ 9504 = N 3 0
+ 9552 = N 0 0
+ 9600 = N 2 0
+ 9648 = N 3 0
+ 9696 = N 2 0
+ 9744 = N 0 0
+ 9792 = N 1 0
+ 9840 = N 2 0
+ 9888 = N 1 0
+ 9936 = N 0 0
+ 9984 = N 1 0
+ 10080 = N 0 0
+ 10176 = N 1 0
+ 10224 = N 2 0
+ 10272 = N 1 144
+ 10464 = N 0 0
+ 10560 = N 1 0
+ 10608 = N 4 0
+ 10656 = N 1 160
+ 10848 = N 0 0
+ 10944 = N 1 0
+ 10992 = N 2 0
+ 11040 = N 1 0
+ 11088 = N 0 0
+ 11136 = N 2 0
+ 11184 = N 3 0
+ 11232 = N 2 0
+ 11280 = N 0 0
+ 11328 = N 1 0
+ 11424 = N 0 0
+ 11520 = N 1 0
+ 11568 = N 2 0
+ 11616 = N 1 160
+ 11808 = N 0 0
+ 11904 = N 1 0
+ 11952 = N 4 0
+ 12000 = N 1 160
+ 12192 = N 0 0
+ 12288 = N 1 0
+ 12336 = N 2 0
+ 12384 = N 1 0
+ 12432 = N 0 0
+ 12480 = N 2 0
+ 12528 = N 3 0
+ 12576 = N 2 0
+ 12624 = N 0 0
+ 12672 = N 3 0
+ 12720 = N 4 0
+ 12768 = N 3 0
+ 12816 = N 0 0
+ 12864 = N 1 0
+ 12960 = N 0 0
+ 13056 = N 1 0
+ 13104 = N 2 0
+ 13152 = N 1 144
+ 13344 = N 0 0
+ 13440 = N 1 0
+ 13488 = N 4 0
+ 13536 = N 1 160
+ 13728 = N 0 0
+ 13824 = N 1 0
+ 13872 = N 2 0
+ 13920 = N 1 0
+ 13968 = N 0 0
+ 14016 = N 2 0
+ 14064 = N 3 0
+ 14112 = N 2 0
+ 14160 = N 0 0
+ 14208 = N 1 0
+ 14208 = S 2 768
+ 14304 = N 0 0
+ 14400 = N 1 0
+ 14448 = N 2 0
+ 14496 = N 1 160
+ 14688 = N 0 0
+ 14784 = N 1 0
+ 14832 = N 4 0
+ 14880 = N 1 160
+ 15072 = N 0 0
+ 15168 = N 1 0
+ 15216 = N 2 0
+ 15264 = N 1 0
+ 15312 = N 0 0
+ 15360 = N 2 0
+ 15408 = N 3 0
+ 15456 = N 2 0
+ 15504 = N 0 0
+ 15552 = N 3 0
+ 15600 = N 4 0
+ 15648 = N 3 0
+ 15696 = N 0 0
+ 15744 = N 1 0
+ 15840 = N 0 0
+ 15936 = N 1 0
+ 15984 = N 2 0
+ 16032 = N 1 160
+ 16224 = N 0 0
+ 16320 = N 1 0
+ 16368 = N 4 0
+ 16416 = N 1 160
+ 16608 = N 0 0
+ 16704 = N 1 0
+ 16752 = N 2 0
+ 16800 = N 1 160
+ 16992 = N 0 0
+ 17040 = N 1 0
+ 17088 = N 2 0
+ 17120 = N 3 0
+ 17152 = N 2 0
+ 17184 = N 1 0
+ 17232 = N 0 0
+ 17280 = N 1 0
+ 17376 = N 0 0
+ 17472 = N 1 0
+ 17520 = N 2 0
+ 17568 = N 1 160
+ 17760 = N 0 0
+ 17856 = N 1 0
+ 17904 = N 4 0
+ 17952 = N 1 160
+ 18144 = N 0 0
+ 18240 = N 1 0
+ 18288 = N 2 0
+ 18336 = N 1 160
+ 18528 = N 0 0
+ 18576 = N 1 0
+ 18624 = N 2 0
+ 18656 = N 3 0
+ 18688 = N 2 0
+ 18720 = N 1 0
+ 18768 = N 0 0
+ 18816 = N 1 0
+ 18912 = N 0 0
+ 19008 = N 1 0
+ 19056 = N 2 0
+ 19104 = N 1 160
+ 19296 = N 0 0
+ 19392 = N 1 0
+ 19440 = N 4 0
+ 19488 = N 1 160
+ 19680 = N 0 0
+ 19776 = N 1 0
+ 19824 = N 2 0
+ 19872 = N 1 160
+ 20064 = N 0 0
+ 20112 = N 1 0
+ 20160 = N 2 0
+ 20192 = N 3 0
+ 20224 = N 2 0
+ 20256 = N 1 0
+ 20304 = N 0 0
+ 20352 = N 1 0
+ 20448 = N 0 0
+ 20544 = N 1 0
+ 20592 = N 2 0
+ 20640 = N 1 160
+ 20832 = N 0 0
+ 20928 = N 1 0
+ 20976 = N 4 0
+ 21024 = N 1 160
+ 21216 = N 0 0
+ 21312 = N 1 0
+ 21360 = N 2 0
+ 21408 = N 1 0
+ 21504 = N 2 0
+ 21600 = N 3 256
+ 21600 = N 4 256
+ 21888 = N 1 0
+ 21984 = N 0 0
+ 22080 = N 1 0
+ 22128 = N 2 0
+ 22176 = N 1 160
+ 22368 = N 0 0
+ 22464 = N 1 0
+ 22512 = N 4 0
+ 22560 = N 1 160
+ 22752 = N 0 0
+ 22848 = N 1 0
+ 22896 = N 2 0
+ 22944 = N 1 160
+ 23136 = N 0 0
+ 23184 = N 1 0
+ 23232 = N 2 0
+ 23264 = N 3 0
+ 23296 = N 2 0
+ 23328 = N 1 0
+ 23376 = N 0 0
+ 23424 = N 1 0
+ 23520 = N 0 0
+ 23616 = N 1 0
+ 23664 = N 2 0
+ 23712 = N 1 160
+ 23904 = N 0 0
+ 24000 = N 1 0
+ 24048 = N 2 0
+ 24096 = N 1 0
+ 24144 = N 0 0
+ 24192 = N 1 0
+ 24192 = S 2 768
+ 24240 = N 2 0
+ 24288 = N 4 0
+ 24336 = N 2 0
+ 24384 = N 4 0
+ 24432 = N 3 0
+ 24480 = N 1 0
+ 24528 = N 4 0
+ 24576 = N 2 0
+ 24624 = N 0 0
+ 24672 = N 3 0
+ 24720 = N 2 0
+ 24768 = N 1 0
+ 24816 = N 0 0
+ 24864 = N 1 0
+ 24912 = N 3 0
+ 24960 = N 1 0
+ 25056 = N 0 0
+ 25152 = N 1 0
+ 25200 = N 2 0
+ 25248 = N 1 160
+ 25440 = N 0 0
+ 25536 = N 1 0
+ 25584 = N 4 0
+ 25632 = N 1 160
+ 25824 = N 0 0
+ 25920 = N 1 0
+ 25968 = N 2 0
+ 26016 = N 1 160
+ 26208 = N 0 0
+ 26256 = N 1 0
+ 26304 = N 2 0
+ 26336 = N 3 0
+ 26368 = N 2 0
+ 26400 = N 1 0
+ 26448 = N 0 0
+ 26496 = N 0 736
+ 26496 = N 2 736
+ 27264 = N 1 352
+ 27264 = N 3 352
+ 27648 = N 0 0
+ 27744 = N 2 256
+ 27744 = N 4 256
+ 28032 = N 1 0
+ 28128 = N 0 0
+ 28224 = N 1 0
+ 28272 = N 2 0
+ 28320 = N 1 160
+ 28512 = N 0 0
+ 28608 = N 1 0
+ 28656 = N 4 0
+ 28704 = N 1 160
+ 28896 = N 0 0
+ 28992 = N 1 0
+ 29040 = N 2 0
+ 29088 = N 1 160
+ 29280 = N 0 0
+ 29328 = N 1 0
+ 29376 = N 2 0
+ 29408 = N 3 0
+ 29440 = N 2 0
+ 29472 = N 1 0
+ 29520 = N 0 0
+ 29568 = N 1 0
+ 29664 = N 0 0
+ 29760 = N 1 0
+ 29808 = N 2 0
+ 29856 = N 1 160
+ 30048 = N 0 0
+ 30144 = N 1 0
+ 30192 = N 2 0
+ 30240 = N 1 0
+ 30288 = N 0 0
+ 30336 = N 1 0
+ 30384 = N 2 0
+ 30432 = N 4 0
+ 30480 = N 2 0
+ 30528 = N 4 0
+ 30576 = N 3 0
+ 30624 = N 1 0
+ 30672 = N 4 0
+ 30720 = N 2 0
+ 30768 = N 0 0
+ 30816 = N 3 0
+ 30864 = N 2 0
+ 30912 = N 1 0
+ 30960 = N 0 0
+ 31008 = N 1 0
+ 31056 = N 3 0
+ 31104 = N 1 0
+ 31200 = N 0 0
+ 31296 = N 1 0
+ 31344 = N 2 0
+ 31392 = N 1 160
+ 31584 = N 0 0
+ 31680 = N 1 0
+ 31728 = N 4 0
+ 31776 = N 1 160
+ 31968 = N 0 0
+ 32064 = N 1 0
+ 32112 = N 2 0
+ 32160 = N 1 160
+ 32352 = N 0 0
+ 32400 = N 1 0
+ 32448 = N 2 0
+ 32480 = N 3 0
+ 32512 = N 2 0
+ 32544 = N 1 0
+ 32592 = N 0 0
+ 32640 = N 0 736
+ 32640 = N 2 736
+ 33408 = N 1 352
+ 33408 = N 3 352
+ 33792 = N 0 0
+ 33888 = N 0 256
+ 33888 = N 1 256
+ 34176 = N 1 0
+ 34176 = S 2 1536
+ 34272 = N 0 0
+ 34368 = N 1 0
+ 34416 = N 2 0
+ 34464 = N 1 160
+ 34656 = N 0 0
+ 34752 = N 1 0
+ 34800 = N 4 0
+ 34848 = N 1 160
+ 35040 = N 0 0
+ 35136 = N 1 0
+ 35184 = N 2 0
+ 35232 = N 1 160
+ 35424 = N 0 0
+ 35472 = N 1 0
+ 35520 = N 2 0
+ 35552 = N 3 0
+ 35584 = N 2 0
+ 35616 = N 1 0
+ 35664 = N 0 0
+ 35712 = N 1 0
+ 35808 = N 0 0
+ 35904 = N 1 0
+ 35952 = N 2 0
+ 36000 = N 1 160
+ 36192 = N 0 0
+ 36288 = N 1 0
+ 36336 = N 2 0
+ 36384 = N 1 0
+ 36432 = N 0 0
+ 36480 = N 1 0
+ 36528 = N 2 0
+ 36576 = N 4 0
+ 36624 = N 2 0
+ 36672 = N 4 0
+ 36720 = N 3 0
+ 36768 = N 1 0
+ 36816 = N 4 0
+ 36864 = N 2 0
+ 36912 = N 0 0
+ 36960 = N 3 0
+ 37008 = N 2 0
+ 37056 = N 1 0
+ 37104 = N 0 0
+ 37152 = N 1 0
+ 37200 = N 3 0
+ 37248 = N 1 0
+ 37344 = N 0 0
+ 37440 = N 1 0
+ 37488 = N 2 0
+ 37536 = N 1 160
+ 37728 = N 0 0
+ 37824 = N 1 0
+ 37872 = N 4 0
+ 37920 = N 1 160
+ 38112 = N 0 0
+ 38208 = N 1 0
+ 38256 = N 2 0
+ 38304 = N 1 160
+ 38496 = N 0 0
+ 38544 = N 1 0
+ 38592 = N 2 0
+ 38624 = N 3 0
+ 38656 = N 2 0
+ 38688 = N 1 0
+ 38736 = N 0 0
+ 38784 = N 0 736
+ 38784 = N 2 736
+ 39552 = N 1 448
+ 39552 = N 3 448
+ 40032 = N 2 0
+ 40128 = N 4 0
+ 40224 = N 3 0
+ 40320 = N 2 0
+ 40416 = N 0 0
+ 40512 = N 1 0
+ 40608 = N 2 0
+ 40704 = N 4 0
+ 40800 = N 3 0
+ 40896 = N 0 0
+ 40992 = N 1 0
+ 41088 = N 2 0
+ 41184 = N 3 0
+ 41280 = N 4 160
+ 41472 = N 2 0
+ 41568 = N 0 0
+ 41616 = N 0 0
+ 41664 = N 1 0
+ 41760 = N 2 0
+ 41856 = N 4 0
+ 41952 = N 3 0
+ 42048 = N 0 0
+ 42144 = N 1 0
+ 42240 = N 2 0
+ 42336 = N 1 0
+ 42432 = N 2 0
+ 42528 = N 1 0
+ 42624 = N 0 0
+ 42720 = N 1 0
+ 42816 = N 2 0
+ 42912 = N 1 0
+ 43008 = N 2 0
+ 43040 = N 3 0
+ 43104 = N 4 0
+ 43104 = N 5 0
+ 43200 = N 0 0
+ 43296 = N 1 0
+ 43392 = N 2 0
+ 43488 = N 1 0
+ 43584 = N 4 0
+ 43680 = N 1 0
+ 43776 = N 2 0
+ 43872 = N 0 0
+ 43968 = N 1 0
+ 44064 = N 2 0
+ 44160 = N 3 0
+ 44256 = N 2 0
+ 44352 = N 1 0
+ 44448 = N 2 0
+ 44544 = N 1 1120
+ 44544 = N 2 1120
+ 45696 = N 1 352
+ 45696 = N 4 352
+ 46080 = N 2 352
+ 46080 = N 4 352
+ 46464 = N 3 352
+ 46464 = N 4 352
+ 46848 = N 1 736
+ 46848 = N 2 736
+ 47616 = N 0 736
+ 47616 = N 1 736
+ 47616 = S 2 1536
+ 48384 = N 1 736
+ 48384 = N 3 736
+ 49152 = N 0 736
+ 49152 = N 2 736
+ 49920 = N 0 0
+ 49920 = N 3 0
+ 50016 = N 0 0
+ 50112 = N 0 0
+ 50208 = N 0 0
+ 50208 = N 3 0
+ 50304 = N 0 0
+ 50400 = N 0 0
+ 50496 = N 0 0
+ 50496 = N 3 0
+ 50592 = N 0 0
+ 50688 = N 1 1120
+ 50688 = N 2 1120
+ 51840 = N 1 352
+ 51840 = N 4 352
+ 52224 = N 2 352
+ 52224 = N 4 352
+ 52608 = N 3 352
+ 52608 = N 4 352
+ 52992 = N 1 736
+ 52992 = N 2 736
+ 53760 = N 0 736
+ 53760 = N 1 736
+ 54528 = N 1 736
+ 54528 = N 3 736
+ 55296 = N 0 736
+ 55296 = N 2 736
+ 56064 = N 3 0
+ 56096 = N 4 0
+ 56128 = N 3 0
+ 56160 = N 4 0
+ 56192 = N 3 0
+ 56224 = N 4 0
+ 56256 = N 3 0
+ 56288 = N 4 0
+ 56320 = N 3 0
+ 56352 = N 4 0
+ 56384 = N 3 0
+ 56416 = N 4 0
+ 56448 = N 3 0
+ 56480 = N 4 0
+ 56512 = N 3 0
+ 56544 = N 4 0
+ 56576 = N 3 0
+ 56608 = N 4 0
+ 56640 = N 3 160
+ 56832 = N 2 0
+ 56880 = N 0 0
+ 56928 = N 0 0
+ 56976 = N 1 0
+ 57024 = N 0 0
+ 57072 = N 0 0
+ 57120 = N 3 0
+ 57168 = N 4 0
+ 57216 = N 3 0
+ 57264 = N 1 0
+ 57312 = N 2 0
+ 57360 = N 0 0
+ 57408 = N 3 0
+ 57456 = N 0 0
+ 57504 = N 2 0
+ 57552 = N 0 0
+ 57600 = N 1 0
+ 57648 = N 0 0
+ 57696 = N 0 0
+ 57744 = N 2 0
+ 57792 = N 0 0
+ 57840 = N 0 0
+ 57888 = N 3 0
+ 57936 = N 4 0
+ 57984 = N 3 0
+ 58032 = N 1 0
+ 58080 = N 2 0
+ 58128 = N 0 0
+ 58176 = N 3 0
+ 58224 = N 0 0
+ 58272 = N 4 0
+ 58320 = N 0 0
+ 58368 = N 3 0
+ 58416 = N 0 0
+ 58464 = N 2 0
+ 58512 = N 3 0
+ 58560 = N 2 0
+ 58608 = N 0 0
+ 58656 = N 1 0
+ 58704 = N 0 0
+ 58752 = N 2 0
+ 58800 = N 0 0
+ 58848 = N 3 0
+ 58896 = N 4 0
+ 58944 = N 3 0
+ 58992 = N 0 0
+ 59040 = N 3 0
+ 59088 = N 0 0
+ 59136 = N 1 0
+ 59136 = S 2 768
+ 59184 = N 0 0
+ 59232 = N 0 0
+ 59280 = N 1 0
+ 59328 = N 0 0
+ 59376 = N 0 0
+ 59424 = N 3 0
+ 59472 = N 0 0
+ 59520 = N 1 0
+ 59568 = N 0 0
+ 59616 = N 0 0
+ 59664 = N 1 0
+ 59712 = N 0 0
+ 59760 = N 0 0
+ 59808 = N 3 0
+ 59856 = N 0 0
+ 59904 = N 2 0
+ 59952 = N 0 0
+ 60000 = N 0 0
+ 60048 = N 1 0
+ 60096 = N 0 0
+ 60144 = N 0 0
+ 60192 = N 3 0
+ 60240 = N 4 0
+ 60288 = N 3 0
+ 60336 = N 1 0
+ 60384 = N 2 0
+ 60432 = N 0 0
+ 60480 = N 3 0
+ 60528 = N 0 0
+ 60576 = N 2 0
+ 60624 = N 0 0
+ 60672 = N 1 0
+ 60720 = N 0 0
+ 60768 = N 0 0
+ 60816 = N 2 0
+ 60864 = N 0 0
+ 60912 = N 0 0
+ 60960 = N 3 0
+ 61008 = N 4 0
+ 61056 = N 3 0
+ 61104 = N 1 0
+ 61152 = N 2 0
+ 61200 = N 0 0
+ 61248 = N 3 0
+ 61296 = N 0 0
+ 61344 = N 4 0
+ 61392 = N 0 0
+ 61440 = N 3 0
+ 61488 = N 0 0
+ 61536 = N 2 0
+ 61584 = N 3 0
+ 61632 = N 2 0
+ 61680 = N 0 0
+ 61728 = N 1 0
+ 61776 = N 0 0
+ 61824 = N 2 0
+ 61872 = N 0 0
+ 61920 = N 3 0
+ 61968 = N 4 0
+ 62016 = N 3 0
+ 62064 = N 0 0
+ 62112 = N 3 0
+ 62160 = N 0 0
+ 62208 = N 1 0
+ 62256 = N 0 0
+ 62304 = N 0 0
+ 62352 = N 1 0
+ 62400 = N 0 0
+ 62448 = N 0 0
+ 62496 = N 3 0
+ 62544 = N 0 0
+ 62592 = N 1 0
+ 62640 = N 0 0
+ 62688 = N 0 0
+ 62736 = N 1 0
+ 62784 = N 0 0
+ 62832 = N 0 0
+ 62880 = N 3 0
+ 62928 = N 0 0
+ 62976 = N 4 0
+ 63072 = N 4 0
+ 63168 = N 2 0
+ 63216 = N 3 0
+ 63264 = N 2 0
+ 63312 = N 0 0
+ 63360 = N 1 0
+ 63408 = N 2 0
+ 63456 = N 1 0
+ 63504 = N 0 0
+ 63552 = N 3 0
+ 63600 = N 4 0
+ 63648 = N 3 0
+ 63696 = N 0 0
+ 63744 = N 2 0
+ 63792 = N 3 0
+ 63840 = N 2 0
+ 63888 = N 0 0
+ 63936 = N 1 0
+ 63984 = N 0 0
+ 64032 = N 1 0
+ 64064 = N 2 0
+ 64096 = N 3 0
+ 64128 = N 2 0
+ 64152 = N 3 0
+ 64176 = N 4 0
+ 64200 = N 3 0
+ 64224 = N 4 0
+ 64256 = N 3 0
+ 64288 = N 2 0
+ 64320 = N 3 0
+ 64352 = N 2 0
+ 64384 = N 1 0
+ 64416 = N 2 0
+ 64448 = N 1 0
+ 64480 = N 0 0
+ 64512 = N 1 0
+ 64608 = N 0 0
+ 64704 = N 1 0
+ 64752 = N 2 0
+ 64800 = N 1 160
+ 64992 = N 0 0
+ 65088 = N 1 0
+ 65136 = N 4 0
+ 65184 = N 1 160
+ 65376 = N 0 0
+ 65472 = N 1 0
+ 65520 = N 2 0
+ 65568 = N 1 160
+ 65760 = N 0 0
+ 65808 = N 1 0
+ 65856 = N 2 0
+ 65888 = N 3 0
+ 65920 = N 2 0
+ 65952 = N 1 0
+ 66000 = N 0 0
+ 66048 = N 1 0
+ 66144 = N 0 0
+ 66240 = N 1 0
+ 66288 = N 2 0
+ 66336 = N 1 160
+ 66528 = N 0 0
+ 66624 = N 1 0
+ 66672 = N 2 0
+ 66720 = N 1 0
+ 66768 = N 0 0
+ 66816 = N 1 0
+ 66864 = N 2 0
+ 66912 = N 4 0
+ 66960 = N 2 0
+ 67008 = N 4 0
+ 67056 = N 3 0
+ 67104 = N 1 0
+ 67152 = N 4 0
+ 67200 = N 2 0
+ 67248 = N 0 0
+ 67296 = N 3 0
+ 67344 = N 2 0
+ 67392 = N 1 0
+ 67440 = N 0 0
+ 67488 = N 1 0
+ 67536 = N 3 0
+ 67584 = N 1 0
+ 67680 = N 0 0
+ 67776 = N 1 0
+ 67824 = N 2 0
+ 67872 = N 1 160
+ 68064 = N 0 0
+ 68160 = N 1 0
+ 68208 = N 4 0
+ 68256 = N 1 160
+ 68448 = N 0 0
+ 68544 = N 1 0
+ 68592 = N 2 0
+ 68640 = N 1 160
+ 68832 = N 0 0
+ 68880 = N 1 0
+ 68928 = N 2 0
+ 68960 = N 3 0
+ 68992 = N 2 0
+ 69024 = N 1 0
+ 69072 = N 0 0
+ 69120 = N 0 736
+ 69120 = N 2 736
+ 69120 = S 2 1536
+ 69888 = N 1 352
+ 69888 = N 3 352
+ 70272 = N 0 0
+ 70368 = N 0 256
+ 70368 = N 1 256
+ 70656 = N 1 0
+ 70752 = N 0 0
+ 70848 = N 1 0
+ 70896 = N 2 0
+ 70944 = N 1 160
+ 71136 = N 0 0
+ 71232 = N 1 0
+ 71280 = N 4 0
+ 71328 = N 1 160
+ 71520 = N 0 0
+ 71616 = N 1 0
+ 71664 = N 2 0
+ 71712 = N 1 160
+ 71904 = N 0 0
+ 71952 = N 1 0
+ 72000 = N 2 0
+ 72032 = N 3 0
+ 72064 = N 2 0
+ 72096 = N 1 0
+ 72144 = N 0 0
+ 72192 = N 1 0
+ 72240 = N 2 0
+ 72288 = N 3 0
+ 72320 = N 2 0
+ 72352 = N 1 0
+ 72384 = N 0 0
+ 72432 = N 1 0
+ 72480 = N 2 0
+ 72512 = N 3 0
+ 72544 = N 4 0
+ 72576 = N 2 0
+ 72608 = N 3 0
+ 72640 = N 4 0
+ 72672 = N 3 0
+ 72704 = N 2 0
+ 72736 = N 1 0
+ 72768 = N 0 0
+ 72800 = N 1 0
+ 72832 = N 2 0
+ 72864 = N 1 0
+ 72896 = N 2 0
+ 72928 = N 3 0
+ 72960 = N 1 0
+ 72992 = N 2 0
+ 73024 = N 3 0
+ 73056 = N 4 0
+ 73088 = N 3 0
+ 73120 = N 2 0
+ 73152 = N 1 0
+ 73184 = N 2 0
+ 73216 = N 3 0
+ 73248 = N 0 0
+ 73280 = N 1 0
+ 73312 = N 2 0
+ 73344 = N 3 0
+ 73376 = N 2 0
+ 73408 = N 1 0
+ 73440 = N 0 0
+ 73472 = N 1 0
+ 73504 = N 2 0
+ 73536 = N 3 0
+ 73568 = N 4 128
+ 73728 = N 1 0
+ 73824 = N 0 0
+ 73920 = N 1 0
+ 73968 = N 2 0
+ 74016 = N 1 160
+ 74208 = N 0 0
+ 74304 = N 1 0
+ 74352 = N 4 0
+ 74400 = N 1 160
+ 74592 = N 0 0
+ 74688 = N 1 0
+ 74736 = N 2 0
+ 74784 = N 1 160
+ 74976 = N 0 0
+ 75024 = N 1 0
+ 75072 = N 2 0
+ 75104 = N 3 0
+ 75136 = N 2 0
+ 75168 = N 1 0
+ 75216 = N 0 0
+ 75264 = N 0 736
+ 75264 = N 2 736
+ 76032 = N 1 0
+ 76032 = N 3 0
+ 76128 = N 1 0
+ 76224 = N 1 0
+ 76320 = N 1 0
+ 76320 = N 3 0
+ 76416 = N 1 0
+ 76512 = N 2 0
+ 76608 = N 4 0
+ 76704 = N 3 0
+ 76800 = N 2 0
+ 76896 = N 0 0
+ 76992 = N 1 0
+ 77088 = N 2 0
+ 77184 = N 4 0
+ 77280 = N 3 0
+ 77376 = N 0 0
+ 77472 = N 1 0
+ 77568 = N 2 0
+ 77664 = N 3 0
+ 77760 = N 4 160
+ 77952 = N 2 0
+ 78048 = N 0 0
+ 78096 = N 0 0
+ 78144 = N 1 0
+ 78240 = N 2 0
+ 78336 = N 4 0
+ 78432 = N 3 0
+ 78528 = N 0 0
+ 78624 = N 1 0
+ 78720 = N 2 0
+ 78816 = N 1 0
+ 78912 = N 2 0
+ 79008 = N 1 0
+ 79104 = N 0 0
+ 79200 = N 1 0
+ 79296 = N 2 0
+ 79392 = N 1 0
+ 79488 = N 2 0
+ 79520 = N 3 0
+ 79584 = N 4 0
+ 79584 = N 5 0
+ 79680 = N 0 0
+ 79776 = N 1 0
+ 79872 = N 2 0
+ 79968 = N 1 0
+ 80064 = N 4 0
+ 80160 = N 1 0
+ 80256 = N 2 0
+ 80352 = N 0 0
+ 80448 = N 1 0
+ 80544 = N 2 0
+ 80640 = N 3 0
+ 80736 = N 2 0
+ 80832 = N 1 0
+ 80928 = N 2 0
+ 81024 = N 1 1120
+ 81024 = N 2 1120
+ 81024 = S 2 1920
+ 82176 = N 1 352
+ 82176 = N 4 352
+ 82560 = N 2 352
+ 82560 = N 4 352
+ 82944 = N 3 352
+ 82944 = N 4 352
+ 83328 = N 1 736
+ 83328 = N 2 736
+ 84096 = N 0 736
+ 84096 = N 1 736
+ 84864 = N 1 736
+ 84864 = N 3 736
+ 85632 = N 0 736
+ 85632 = N 2 736
+ 86400 = N 0 0
+ 86400 = N 3 0
+ 86496 = N 0 0
+ 86592 = N 0 0
+ 86688 = N 0 0
+ 86688 = N 3 0
+ 86784 = N 0 0
+ 86880 = N 0 0
+ 86976 = N 0 0
+ 86976 = N 3 0
+ 87072 = N 0 0
+ 87168 = N 1 1120
+ 87168 = N 2 1120
+ 88320 = N 1 352
+ 88320 = N 4 352
+ 88704 = N 2 352
+ 88704 = N 4 352
+ 89088 = N 3 352
+ 89088 = N 4 352
+ 89472 = N 1 736
+ 89472 = N 2 736
+ 90240 = N 0 736
+ 90240 = N 1 736
+ 91008 = N 1 736
+ 91008 = N 3 736
+ 91776 = N 0 736
+ 91776 = N 2 736
+ 92544 = N 0 0
+ 92544 = N 3 0
+ 92544 = S 2 768
+ 92640 = N 0 0
+ 92736 = N 0 0
+ 92832 = N 0 0
+ 92832 = N 3 0
+ 92928 = N 0 0
+ 93024 = N 0 0
+ 93120 = N 0 160
+ 93120 = N 3 160
+ 93312 = N 0 0
+ 93312 = N 6 0
+ 93312 = E solo
+ 93344 = N 1 0
+ 93344 = N 6 0
+ 93376 = N 2 0
+ 93376 = N 6 0
+ 93408 = N 1 0
+ 93408 = N 6 0
+ 93440 = N 2 0
+ 93440 = N 6 0
+ 93472 = N 3 0
+ 93472 = N 6 0
+ 93504 = N 4 0
+ 93504 = N 6 0
+ 93536 = N 3 0
+ 93536 = N 6 0
+ 93568 = N 2 0
+ 93568 = N 6 0
+ 93600 = N 3 0
+ 93600 = N 6 0
+ 93632 = N 2 0
+ 93632 = N 6 0
+ 93664 = N 1 0
+ 93664 = N 6 0
+ 93696 = N 0 0
+ 93696 = N 6 0
+ 93728 = N 1 0
+ 93728 = N 6 0
+ 93760 = N 2 0
+ 93760 = N 6 0
+ 93792 = N 1 0
+ 93792 = N 6 0
+ 93824 = N 2 0
+ 93824 = N 6 0
+ 93856 = N 3 0
+ 93856 = N 6 0
+ 93888 = N 4 0
+ 93888 = N 6 0
+ 93920 = N 3 0
+ 93920 = N 6 0
+ 93952 = N 2 0
+ 93952 = N 6 0
+ 93984 = N 3 0
+ 93984 = N 6 0
+ 94016 = N 2 0
+ 94016 = N 6 0
+ 94048 = N 1 0
+ 94048 = N 6 0
+ 94080 = N 0 0
+ 94080 = N 6 0
+ 94112 = N 1 0
+ 94112 = N 6 0
+ 94144 = N 2 0
+ 94144 = N 6 0
+ 94176 = N 0 0
+ 94176 = N 6 0
+ 94208 = N 1 0
+ 94208 = N 6 0
+ 94240 = N 2 0
+ 94240 = N 6 0
+ 94272 = N 3 0
+ 94272 = N 6 0
+ 94304 = N 2 0
+ 94304 = N 6 0
+ 94336 = N 3 0
+ 94336 = N 6 0
+ 94368 = N 2 0
+ 94368 = N 6 0
+ 94400 = N 1 0
+ 94400 = N 6 0
+ 94432 = N 0 0
+ 94432 = N 6 0
+ 94464 = N 4 0
+ 94464 = N 6 0
+ 94496 = N 2 0
+ 94496 = N 6 0
+ 94528 = N 4 0
+ 94528 = N 6 0
+ 94560 = N 2 0
+ 94560 = N 6 0
+ 94592 = N 1 0
+ 94592 = N 6 0
+ 94624 = N 0 0
+ 94624 = N 6 0
+ 94656 = N 4 0
+ 94656 = N 6 0
+ 94688 = N 3 0
+ 94688 = N 6 0
+ 94720 = N 4 0
+ 94720 = N 6 0
+ 94752 = N 2 0
+ 94752 = N 6 0
+ 94800 = N 1 0
+ 94800 = N 6 0
+ 94848 = N 0 0
+ 94848 = N 6 0
+ 94880 = N 1 0
+ 94880 = N 6 0
+ 94912 = N 2 0
+ 94912 = N 6 0
+ 94944 = N 1 0
+ 94944 = N 6 0
+ 94976 = N 2 0
+ 94976 = N 6 0
+ 95008 = N 3 0
+ 95008 = N 6 0
+ 95040 = N 4 0
+ 95040 = N 6 0
+ 95072 = N 3 0
+ 95072 = N 6 0
+ 95104 = N 2 0
+ 95104 = N 6 0
+ 95136 = N 3 0
+ 95136 = N 6 0
+ 95168 = N 2 0
+ 95168 = N 6 0
+ 95200 = N 1 0
+ 95200 = N 6 0
+ 95232 = N 0 0
+ 95232 = N 6 0
+ 95264 = N 1 0
+ 95264 = N 6 0
+ 95296 = N 2 0
+ 95296 = N 6 0
+ 95328 = N 1 0
+ 95328 = N 6 0
+ 95360 = N 2 0
+ 95360 = N 6 0
+ 95392 = N 3 0
+ 95392 = N 6 0
+ 95424 = N 4 0
+ 95424 = N 6 0
+ 95456 = N 3 0
+ 95456 = N 6 0
+ 95488 = N 2 0
+ 95488 = N 6 0
+ 95520 = N 3 0
+ 95520 = N 6 0
+ 95552 = N 2 0
+ 95552 = N 6 0
+ 95584 = N 1 0
+ 95584 = N 6 0
+ 95616 = N 0 0
+ 95616 = N 6 0
+ 95648 = N 1 0
+ 95648 = N 6 0
+ 95680 = N 2 0
+ 95680 = N 6 0
+ 95712 = N 1 0
+ 95712 = N 6 0
+ 95744 = N 2 0
+ 95744 = N 6 0
+ 95776 = N 3 0
+ 95776 = N 6 0
+ 95808 = N 1 0
+ 95808 = N 6 0
+ 95840 = N 2 0
+ 95840 = N 6 0
+ 95872 = N 3 0
+ 95872 = N 6 0
+ 95904 = N 2 0
+ 95904 = N 6 0
+ 95936 = N 3 0
+ 95936 = N 6 0
+ 95968 = N 4 0
+ 95968 = N 6 0
+ 96000 = N 3 0
+ 96000 = N 6 0
+ 96032 = N 4 0
+ 96032 = N 6 0
+ 96064 = N 3 0
+ 96064 = N 6 0
+ 96096 = N 4 0
+ 96096 = N 6 0
+ 96128 = N 3 0
+ 96128 = N 6 0
+ 96160 = N 2 0
+ 96160 = N 6 0
+ 96192 = N 1 0
+ 96192 = N 6 0
+ 96224 = N 2 0
+ 96224 = N 6 0
+ 96256 = N 1 0
+ 96256 = N 6 0
+ 96288 = N 2 0
+ 96288 = N 6 0
+ 96320 = N 1 0
+ 96320 = N 6 0
+ 96352 = N 2 0
+ 96352 = N 6 0
+ 96384 = N 0 0
+ 96384 = N 6 0
+ 96416 = N 1 0
+ 96416 = N 6 0
+ 96448 = N 2 0
+ 96448 = N 6 0
+ 96480 = N 1 0
+ 96480 = N 6 0
+ 96512 = N 2 0
+ 96512 = N 6 0
+ 96544 = N 3 0
+ 96544 = N 6 0
+ 96576 = N 4 0
+ 96576 = N 6 0
+ 96608 = N 3 0
+ 96608 = N 6 0
+ 96640 = N 2 0
+ 96640 = N 6 0
+ 96672 = N 3 0
+ 96672 = N 6 0
+ 96704 = N 2 0
+ 96704 = N 6 0
+ 96736 = N 1 0
+ 96736 = N 6 0
+ 96768 = N 0 0
+ 96768 = N 6 0
+ 96800 = N 1 0
+ 96800 = N 6 0
+ 96832 = N 2 0
+ 96832 = N 6 0
+ 96864 = N 1 0
+ 96864 = N 6 0
+ 96896 = N 2 0
+ 96896 = N 6 0
+ 96928 = N 3 0
+ 96928 = N 6 0
+ 96960 = N 4 0
+ 96960 = N 6 0
+ 96992 = N 3 0
+ 96992 = N 6 0
+ 97024 = N 2 0
+ 97024 = N 6 0
+ 97056 = N 3 0
+ 97056 = N 6 0
+ 97088 = N 2 0
+ 97088 = N 6 0
+ 97120 = N 1 0
+ 97120 = N 6 0
+ 97152 = N 0 0
+ 97152 = N 6 0
+ 97184 = N 1 0
+ 97184 = N 6 0
+ 97216 = N 2 0
+ 97216 = N 6 0
+ 97248 = N 0 0
+ 97248 = N 6 0
+ 97280 = N 1 0
+ 97280 = N 6 0
+ 97312 = N 2 0
+ 97312 = N 6 0
+ 97344 = N 3 0
+ 97344 = N 6 0
+ 97376 = N 2 0
+ 97376 = N 6 0
+ 97408 = N 3 0
+ 97408 = N 6 0
+ 97440 = N 2 0
+ 97440 = N 6 0
+ 97472 = N 1 0
+ 97472 = N 6 0
+ 97504 = N 0 0
+ 97504 = N 6 0
+ 97536 = N 4 0
+ 97536 = N 6 0
+ 97568 = N 2 0
+ 97568 = N 6 0
+ 97600 = N 4 0
+ 97600 = N 6 0
+ 97632 = N 2 0
+ 97632 = N 6 0
+ 97664 = N 1 0
+ 97664 = N 6 0
+ 97696 = N 0 0
+ 97696 = N 6 0
+ 97728 = N 4 0
+ 97728 = N 6 0
+ 97760 = N 3 0
+ 97760 = N 6 0
+ 97792 = N 4 0
+ 97792 = N 6 0
+ 97824 = N 2 0
+ 97824 = N 6 0
+ 97872 = N 1 0
+ 97872 = N 6 0
+ 97920 = N 0 0
+ 97920 = N 6 0
+ 97952 = N 1 0
+ 97952 = N 6 0
+ 97984 = N 2 0
+ 97984 = N 6 0
+ 98016 = N 1 0
+ 98016 = N 6 0
+ 98048 = N 2 0
+ 98048 = N 6 0
+ 98080 = N 3 0
+ 98080 = N 6 0
+ 98112 = N 4 0
+ 98112 = N 6 0
+ 98144 = N 3 0
+ 98144 = N 6 0
+ 98176 = N 2 0
+ 98176 = N 6 0
+ 98208 = N 3 0
+ 98208 = N 6 0
+ 98240 = N 2 0
+ 98240 = N 6 0
+ 98272 = N 1 0
+ 98272 = N 6 0
+ 98304 = N 0 0
+ 98304 = N 6 0
+ 98336 = N 1 0
+ 98336 = N 6 0
+ 98368 = N 2 0
+ 98368 = N 6 0
+ 98400 = N 1 0
+ 98400 = N 6 0
+ 98432 = N 2 0
+ 98432 = N 6 0
+ 98464 = N 3 0
+ 98464 = N 6 0
+ 98496 = N 4 0
+ 98496 = N 6 0
+ 98528 = N 3 0
+ 98528 = N 6 0
+ 98560 = N 2 0
+ 98560 = N 6 0
+ 98592 = N 3 0
+ 98592 = N 6 0
+ 98624 = N 2 0
+ 98624 = N 6 0
+ 98656 = N 1 0
+ 98656 = N 6 0
+ 98688 = N 0 0
+ 98688 = N 6 0
+ 98720 = N 1 0
+ 98720 = N 6 0
+ 98752 = N 2 0
+ 98752 = N 6 0
+ 98784 = N 1 0
+ 98784 = N 6 0
+ 98816 = N 2 0
+ 98816 = N 6 0
+ 98848 = N 3 0
+ 98848 = N 6 0
+ 98880 = N 1 0
+ 98880 = N 6 0
+ 98912 = N 2 0
+ 98912 = N 6 0
+ 98944 = N 3 0
+ 98944 = N 6 0
+ 98976 = N 2 0
+ 98976 = N 6 0
+ 99008 = N 3 0
+ 99008 = N 6 0
+ 99040 = N 4 0
+ 99040 = N 6 0
+ 99072 = N 3 0
+ 99072 = N 6 0
+ 99104 = N 4 0
+ 99104 = N 6 0
+ 99136 = N 3 0
+ 99136 = N 6 0
+ 99168 = N 4 0
+ 99168 = N 6 0
+ 99200 = N 3 0
+ 99200 = N 6 0
+ 99232 = N 2 0
+ 99232 = N 6 0
+ 99264 = N 1 0
+ 99264 = N 6 0
+ 99296 = N 2 0
+ 99296 = N 6 0
+ 99328 = N 1 0
+ 99328 = N 6 0
+ 99360 = N 2 0
+ 99360 = N 6 0
+ 99392 = N 1 0
+ 99392 = N 6 0
+ 99424 = N 2 0
+ 99424 = N 6 0
+ 99456 = N 0 0
+ 99456 = N 6 0
+ 99456 = S 2 384
+ 99488 = N 1 0
+ 99488 = N 6 0
+ 99520 = N 2 0
+ 99520 = N 6 0
+ 99552 = N 1 0
+ 99552 = N 6 0
+ 99584 = N 2 0
+ 99584 = N 6 0
+ 99616 = N 3 0
+ 99616 = N 6 0
+ 99648 = N 4 0
+ 99648 = N 6 0
+ 99680 = N 3 0
+ 99680 = N 6 0
+ 99712 = N 2 0
+ 99712 = N 6 0
+ 99744 = N 3 0
+ 99744 = N 6 0
+ 99776 = N 2 0
+ 99776 = N 6 0
+ 99808 = N 1 0
+ 99808 = N 6 0
+ 99840 = N 0 0
+ 99840 = N 6 0
+ 99872 = N 1 0
+ 99872 = N 6 0
+ 99904 = N 2 0
+ 99904 = N 6 0
+ 99936 = N 1 0
+ 99936 = N 6 0
+ 99968 = N 2 0
+ 99968 = N 6 0
+ 100000 = N 3 0
+ 100000 = N 6 0
+ 100032 = N 4 0
+ 100032 = N 6 0
+ 100064 = N 3 0
+ 100064 = N 6 0
+ 100096 = N 2 0
+ 100096 = N 6 0
+ 100128 = N 3 0
+ 100128 = N 6 0
+ 100160 = N 2 0
+ 100160 = N 6 0
+ 100192 = N 1 0
+ 100192 = N 6 0
+ 100224 = N 0 0
+ 100224 = N 6 0
+ 100256 = N 1 0
+ 100256 = N 6 0
+ 100288 = N 2 0
+ 100288 = N 6 0
+ 100320 = N 0 0
+ 100320 = N 6 0
+ 100352 = N 1 0
+ 100352 = N 6 0
+ 100384 = N 2 0
+ 100384 = N 6 0
+ 100416 = N 3 0
+ 100416 = N 6 0
+ 100448 = N 2 0
+ 100448 = N 6 0
+ 100480 = N 3 0
+ 100480 = N 6 0
+ 100512 = N 2 0
+ 100512 = N 6 0
+ 100544 = N 1 0
+ 100544 = N 6 0
+ 100576 = N 0 0
+ 100576 = N 6 0
+ 100608 = N 4 0
+ 100608 = N 6 0
+ 100640 = N 2 0
+ 100640 = N 6 0
+ 100672 = N 4 0
+ 100672 = N 6 0
+ 100704 = N 2 0
+ 100704 = N 6 0
+ 100736 = N 1 0
+ 100736 = N 6 0
+ 100768 = N 0 0
+ 100768 = N 6 0
+ 100800 = N 4 0
+ 100800 = N 6 0
+ 100832 = N 3 0
+ 100832 = N 6 0
+ 100864 = N 4 0
+ 100864 = N 6 0
+ 100896 = N 2 0
+ 100896 = N 6 0
+ 100944 = N 1 0
+ 100944 = N 6 0
+ 100992 = N 0 0
+ 100992 = N 6 0
+ 101024 = N 1 0
+ 101024 = N 6 0
+ 101056 = N 2 0
+ 101056 = N 6 0
+ 101088 = N 1 0
+ 101088 = N 6 0
+ 101120 = N 2 0
+ 101120 = N 6 0
+ 101152 = N 3 0
+ 101152 = N 6 0
+ 101184 = N 4 0
+ 101184 = N 6 0
+ 101216 = N 3 0
+ 101216 = N 6 0
+ 101248 = N 2 0
+ 101248 = N 6 0
+ 101280 = N 3 0
+ 101280 = N 6 0
+ 101312 = N 2 0
+ 101312 = N 6 0
+ 101344 = N 1 0
+ 101344 = N 6 0
+ 101376 = N 0 0
+ 101376 = N 6 0
+ 101408 = N 1 0
+ 101408 = N 6 0
+ 101440 = N 2 0
+ 101440 = N 6 0
+ 101472 = N 1 0
+ 101472 = N 6 0
+ 101504 = N 2 0
+ 101504 = N 6 0
+ 101536 = N 3 0
+ 101536 = N 6 0
+ 101568 = N 4 0
+ 101568 = N 6 0
+ 101600 = N 3 0
+ 101600 = N 6 0
+ 101632 = N 2 0
+ 101632 = N 6 0
+ 101664 = N 3 0
+ 101664 = N 6 0
+ 101696 = N 2 0
+ 101696 = N 6 0
+ 101728 = N 1 0
+ 101728 = N 6 0
+ 101760 = N 0 0
+ 101760 = N 6 0
+ 101792 = N 1 0
+ 101792 = N 6 0
+ 101824 = N 2 0
+ 101824 = N 6 0
+ 101856 = N 1 0
+ 101856 = N 6 0
+ 101888 = N 2 0
+ 101888 = N 6 0
+ 101920 = N 3 0
+ 101920 = N 6 0
+ 101952 = N 1 0
+ 101952 = N 6 0
+ 101984 = N 2 0
+ 101984 = N 6 0
+ 102016 = N 3 0
+ 102016 = N 6 0
+ 102048 = N 2 0
+ 102048 = N 6 0
+ 102080 = N 3 0
+ 102080 = N 6 0
+ 102112 = N 4 0
+ 102112 = N 6 0
+ 102144 = N 3 0
+ 102144 = N 6 0
+ 102176 = N 4 0
+ 102176 = N 6 0
+ 102208 = N 3 0
+ 102208 = N 6 0
+ 102240 = N 4 0
+ 102240 = N 6 0
+ 102272 = N 3 0
+ 102272 = N 6 0
+ 102304 = N 2 0
+ 102304 = N 6 0
+ 102336 = N 1 0
+ 102336 = N 6 0
+ 102368 = N 2 0
+ 102368 = N 6 0
+ 102400 = N 1 0
+ 102400 = N 6 0
+ 102432 = N 2 0
+ 102432 = N 6 0
+ 102464 = N 1 0
+ 102464 = N 6 0
+ 102496 = N 2 0
+ 102496 = N 6 0
+ 102528 = N 0 0
+ 102528 = N 6 0
+ 102560 = N 1 0
+ 102560 = N 6 0
+ 102592 = N 2 0
+ 102592 = N 6 0
+ 102624 = N 1 0
+ 102624 = N 6 0
+ 102656 = N 2 0
+ 102656 = N 6 0
+ 102688 = N 3 0
+ 102688 = N 6 0
+ 102720 = N 4 0
+ 102720 = N 6 0
+ 102752 = N 3 0
+ 102752 = N 6 0
+ 102784 = N 2 0
+ 102784 = N 6 0
+ 102816 = N 3 0
+ 102816 = N 6 0
+ 102848 = N 2 0
+ 102848 = N 6 0
+ 102880 = N 1 0
+ 102880 = N 6 0
+ 102912 = N 0 0
+ 102912 = N 6 0
+ 102944 = N 1 0
+ 102944 = N 6 0
+ 102976 = N 2 0
+ 102976 = N 6 0
+ 103008 = N 1 0
+ 103008 = N 6 0
+ 103040 = N 2 0
+ 103040 = N 6 0
+ 103072 = N 3 0
+ 103072 = N 6 0
+ 103104 = N 4 0
+ 103104 = N 6 0
+ 103136 = N 3 0
+ 103136 = N 6 0
+ 103168 = N 2 0
+ 103168 = N 6 0
+ 103200 = N 3 0
+ 103200 = N 6 0
+ 103232 = N 2 0
+ 103232 = N 6 0
+ 103264 = N 1 0
+ 103264 = N 6 0
+ 103296 = N 0 0
+ 103296 = N 6 0
+ 103328 = N 1 0
+ 103328 = N 6 0
+ 103360 = N 2 0
+ 103360 = N 6 0
+ 103392 = N 0 0
+ 103392 = N 6 0
+ 103424 = N 1 0
+ 103424 = N 6 0
+ 103456 = N 2 0
+ 103456 = N 6 0
+ 103488 = N 3 0
+ 103488 = N 6 0
+ 103520 = N 2 0
+ 103520 = N 6 0
+ 103552 = N 3 0
+ 103552 = N 6 0
+ 103584 = N 2 0
+ 103584 = N 6 0
+ 103616 = N 1 0
+ 103616 = N 6 0
+ 103648 = N 0 0
+ 103648 = N 6 0
+ 103680 = N 4 0
+ 103680 = N 6 0
+ 103712 = N 2 0
+ 103712 = N 6 0
+ 103744 = N 4 0
+ 103744 = N 6 0
+ 103776 = N 2 0
+ 103776 = N 6 0
+ 103808 = N 1 0
+ 103808 = N 6 0
+ 103840 = N 0 0
+ 103840 = N 6 0
+ 103872 = N 4 0
+ 103872 = N 6 0
+ 103904 = N 3 0
+ 103904 = N 6 0
+ 103936 = N 4 0
+ 103936 = N 6 0
+ 103968 = N 2 0
+ 103968 = N 6 0
+ 104016 = N 1 0
+ 104016 = N 6 0
+ 104064 = N 0 0
+ 104064 = N 6 0
+ 104096 = N 1 0
+ 104096 = N 6 0
+ 104128 = N 2 0
+ 104128 = N 6 0
+ 104160 = N 1 0
+ 104160 = N 6 0
+ 104192 = N 2 0
+ 104192 = N 6 0
+ 104224 = N 3 0
+ 104224 = N 6 0
+ 104256 = N 4 0
+ 104256 = N 6 0
+ 104288 = N 3 0
+ 104288 = N 6 0
+ 104320 = N 2 0
+ 104320 = N 6 0
+ 104352 = N 3 0
+ 104352 = N 6 0
+ 104384 = N 2 0
+ 104384 = N 6 0
+ 104416 = N 1 0
+ 104416 = N 6 0
+ 104448 = N 0 0
+ 104448 = N 6 0
+ 104480 = N 1 0
+ 104480 = N 6 0
+ 104512 = N 2 0
+ 104512 = N 6 0
+ 104544 = N 1 0
+ 104544 = N 6 0
+ 104576 = N 2 0
+ 104576 = N 6 0
+ 104608 = N 3 0
+ 104608 = N 6 0
+ 104640 = N 4 0
+ 104640 = N 6 0
+ 104672 = N 3 0
+ 104672 = N 6 0
+ 104704 = N 2 0
+ 104704 = N 6 0
+ 104736 = N 3 0
+ 104736 = N 6 0
+ 104768 = N 2 0
+ 104768 = N 6 0
+ 104800 = N 1 0
+ 104800 = N 6 0
+ 104832 = N 0 0
+ 104832 = N 6 0
+ 104864 = N 1 0
+ 104864 = N 6 0
+ 104896 = N 2 0
+ 104896 = N 6 0
+ 104928 = N 1 0
+ 104928 = N 6 0
+ 104960 = N 2 0
+ 104960 = N 6 0
+ 104992 = N 3 0
+ 104992 = N 6 0
+ 105024 = N 1 0
+ 105024 = N 6 0
+ 105056 = N 2 0
+ 105056 = N 6 0
+ 105088 = N 3 0
+ 105088 = N 6 0
+ 105120 = N 2 0
+ 105120 = N 6 0
+ 105152 = N 3 0
+ 105152 = N 6 0
+ 105184 = N 4 0
+ 105184 = N 6 0
+ 105216 = N 3 0
+ 105216 = N 6 0
+ 105248 = N 4 0
+ 105248 = N 6 0
+ 105280 = N 3 0
+ 105280 = N 6 0
+ 105312 = N 4 0
+ 105312 = N 6 0
+ 105344 = N 3 0
+ 105344 = N 6 0
+ 105376 = N 2 0
+ 105376 = N 6 0
+ 105408 = N 1 160
+ 105408 = N 6 0
+ 105600 = N 4 160
+ 105792 = N 1 0
+ 105840 = N 1 0
+ 105888 = N 3 0
+ 105984 = N 1 0
+ 106080 = N 0 0
+ 106176 = N 1 0
+ 106224 = N 2 0
+ 106272 = N 3 0
+ 106320 = N 2 112
+ 106464 = N 3 0
+ 106464 = N 5 0
+ 106512 = N 2 0
+ 106560 = N 3 0
+ 106656 = N 4 0
+ 106752 = N 1 256
+ 107040 = N 3 0
+ 107040 = N 5 0
+ 107072 = N 4 0
+ 107136 = N 1 0
+ 107136 = N 5 0
+ 107232 = N 0 0
+ 107280 = N 1 0
+ 107328 = N 2 0
+ 107376 = N 3 0
+ 107424 = N 1 0
+ 107472 = N 2 0
+ 107520 = N 3 0
+ 107568 = N 4 0
+ 107616 = N 0 0
+ 107664 = N 1 0
+ 107712 = N 2 0
+ 107760 = N 3 0
+ 107808 = N 1 0
+ 107856 = N 2 0
+ 107904 = N 3 0
+ 107952 = N 4 0
+ 108000 = N 0 0
+ 108048 = N 1 0
+ 108096 = N 2 0
+ 108128 = N 3 0
+ 108160 = N 4 0
+ 108192 = N 3 0
+ 108224 = N 2 0
+ 108256 = N 1 0
+ 108288 = N 0 0
+ 108320 = N 1 0
+ 108352 = N 2 0
+ 108384 = N 1 0
+ 108416 = N 2 0
+ 108448 = N 3 0
+ 108480 = N 4 0
+ 108512 = N 3 0
+ 108544 = N 2 0
+ 108576 = N 1 0
+ 108608 = N 2 0
+ 108640 = N 3 0
+ 108672 = N 4 0
+ 108704 = N 2 0
+ 108736 = N 1 0
+ 108768 = N 0 0
+ 108800 = N 1 0
+ 108832 = N 2 0
+ 108864 = N 3 0
+ 108896 = N 2 0
+ 108928 = N 1 0
+ 108960 = N 0 0
+ 108992 = N 1 0
+ 109024 = N 2 0
+ 109056 = N 4 0
+ 109088 = N 2 0
+ 109120 = N 1 0
+ 109152 = N 0 0
+ 109184 = N 1 0
+ 109216 = N 2 0
+ 109248 = N 3 0
+ 109280 = N 2 0
+ 109312 = N 1 0
+ 109344 = N 0 0
+ 109376 = N 1 0
+ 109408 = N 2 0
+ 109440 = N 4 0
+ 109440 = S 2 1152
+ 109472 = N 2 0
+ 109504 = N 1 0
+ 109536 = N 0 0
+ 109568 = N 1 0
+ 109600 = N 2 0
+ 109632 = N 2 0
+ 109728 = N 1 0
+ 109760 = N 2 320
+ 110112 = N 1 0
+ 110160 = N 0 0
+ 110208 = N 1 352
+ 110592 = N 1 0
+ 110656 = N 2 0
+ 110720 = N 0 0
+ 110784 = N 3 0
+ 110848 = N 0 0
+ 110912 = N 4 0
+ 110976 = N 3 0
+ 111008 = N 4 224
+ 111264 = N 3 0
+ 111312 = N 2 0
+ 111360 = N 3 352
+ 111744 = N 2 160
+ 111936 = N 1 0
+ 111984 = N 0 0
+ 112032 = N 4 160
+ 112224 = N 0 0
+ 112272 = N 1 0
+ 112320 = N 4 0
+ 112416 = N 1 0
+ 112464 = N 0 0
+ 112512 = N 4 0
+ 112608 = N 0 0
+ 112656 = N 1 0
+ 112704 = N 2 0
+ 112832 = N 3 0
+ 112960 = N 2 0
+ 113040 = N 3 0
+ 113088 = N 4 0
+ 113088 = N 6 0
+ 113136 = N 3 0
+ 113136 = N 6 0
+ 113184 = N 4 0
+ 113184 = N 6 0
+ 113216 = N 3 0
+ 113216 = N 6 0
+ 113248 = N 4 0
+ 113248 = N 6 0
+ 113280 = N 3 0
+ 113280 = N 6 0
+ 113312 = N 2 0
+ 113312 = N 6 0
+ 113344 = N 1 0
+ 113344 = N 6 0
+ 113376 = N 0 0
+ 113376 = N 6 0
+ 113408 = N 1 0
+ 113408 = N 6 0
+ 113440 = N 2 0
+ 113440 = N 6 0
+ 113472 = N 3 0
+ 113472 = N 6 0
+ 113504 = N 2 0
+ 113504 = N 6 0
+ 113536 = N 1 0
+ 113536 = N 6 0
+ 113568 = N 2 0
+ 113568 = N 6 0
+ 113616 = N 1 0
+ 113616 = N 6 0
+ 113664 = N 0 0
+ 113664 = N 6 0
+ 113696 = N 1 0
+ 113696 = N 6 0
+ 113728 = N 2 0
+ 113728 = N 6 0
+ 113760 = N 3 0
+ 113760 = N 6 0
+ 113792 = N 0 0
+ 113792 = N 6 0
+ 113824 = N 1 0
+ 113824 = N 6 0
+ 113856 = N 2 0
+ 113856 = N 6 0
+ 113888 = N 3 0
+ 113888 = N 6 0
+ 113920 = N 4 0
+ 113920 = N 6 0
+ 113952 = N 1 0
+ 113952 = N 6 0
+ 113984 = N 2 0
+ 113984 = N 6 0
+ 114016 = N 3 0
+ 114016 = N 6 0
+ 114048 = N 1 0
+ 114048 = N 6 0
+ 114080 = N 2 0
+ 114080 = N 6 0
+ 114112 = N 3 0
+ 114112 = N 6 0
+ 114144 = N 4 0
+ 114144 = N 6 0
+ 114176 = N 0 0
+ 114176 = N 6 0
+ 114208 = N 1 0
+ 114208 = N 6 0
+ 114240 = N 2 0
+ 114240 = N 6 0
+ 114272 = N 3 0
+ 114272 = N 6 0
+ 114304 = N 0 0
+ 114304 = N 6 0
+ 114336 = N 1 0
+ 114336 = N 6 0
+ 114368 = N 2 0
+ 114368 = N 6 0
+ 114400 = N 3 0
+ 114400 = N 6 0
+ 114432 = N 4 0
+ 114432 = N 6 0
+ 114464 = N 3 0
+ 114464 = N 6 0
+ 114496 = N 2 0
+ 114496 = N 6 0
+ 114528 = N 1 0
+ 114528 = N 6 0
+ 114560 = N 0 0
+ 114560 = N 6 0
+ 114592 = N 1 0
+ 114592 = N 6 0
+ 114624 = N 2 0
+ 114624 = N 6 0
+ 114656 = N 3 0
+ 114656 = N 6 0
+ 114688 = N 4 0
+ 114688 = N 6 0
+ 114720 = N 3 0
+ 114720 = N 6 0
+ 114744 = N 2 0
+ 114744 = N 6 0
+ 114768 = N 1 0
+ 114768 = N 6 0
+ 114792 = N 0 0
+ 114792 = N 6 0
+ 114816 = N 2 0
+ 114816 = N 6 0
+ 114840 = N 1 0
+ 114840 = N 6 0
+ 114864 = N 0 0
+ 114864 = N 6 0
+ 114888 = N 1 0
+ 114888 = N 6 0
+ 114912 = N 2 0
+ 114912 = N 6 0
+ 114936 = N 3 0
+ 114936 = N 6 0
+ 114960 = N 4 0
+ 114960 = N 6 0
+ 114984 = N 1 0
+ 114984 = N 6 0
+ 115008 = N 2 0
+ 115008 = N 6 0
+ 115040 = N 3 0
+ 115040 = N 6 0
+ 115072 = N 4 0
+ 115072 = N 6 0
+ 115104 = N 3 0
+ 115104 = N 6 0
+ 115128 = N 2 0
+ 115128 = N 6 0
+ 115152 = N 1 0
+ 115152 = N 6 0
+ 115176 = N 0 0
+ 115176 = N 6 0
+ 115200 = N 3 0
+ 115200 = N 6 0
+ 115224 = N 2 0
+ 115224 = N 6 0
+ 115248 = N 1 0
+ 115248 = N 6 0
+ 115272 = N 0 0
+ 115272 = N 6 0
+ 115296 = N 1 0
+ 115296 = N 6 0
+ 115320 = N 2 0
+ 115320 = N 6 0
+ 115344 = N 3 0
+ 115344 = N 6 0
+ 115368 = N 4 0
+ 115368 = N 6 0
+ 115392 = N 1 0
+ 115392 = N 6 0
+ 115416 = N 2 0
+ 115416 = N 6 0
+ 115440 = N 3 0
+ 115440 = N 6 0
+ 115464 = N 4 0
+ 115464 = N 6 0
+ 115488 = N 0 0
+ 115488 = N 6 0
+ 115512 = N 1 0
+ 115512 = N 6 0
+ 115536 = N 2 0
+ 115536 = N 6 0
+ 115560 = N 3 0
+ 115560 = N 6 0
+ 115584 = N 0 0
+ 115584 = N 6 0
+ 115608 = N 1 0
+ 115608 = N 6 0
+ 115632 = N 2 0
+ 115632 = N 6 0
+ 115656 = N 3 0
+ 115656 = N 6 0
+ 115680 = N 4 0
+ 115680 = N 6 0
+ 115728 = N 3 0
+ 115728 = N 6 0
+ 115752 = N 2 0
+ 115752 = N 6 0
+ 115776 = N 1 0
+ 115776 = N 6 0
+ 115800 = N 2 0
+ 115800 = N 6 0
+ 115824 = N 1 0
+ 115824 = N 6 0
+ 115848 = N 0 0
+ 115848 = N 6 0
+ 115872 = N 4 0
+ 115872 = N 6 0
+ 115896 = N 3 0
+ 115896 = N 6 0
+ 115920 = N 2 0
+ 115920 = N 6 0
+ 115944 = N 1 0
+ 115944 = N 6 0
+ 115968 = N 3 0
+ 115968 = N 6 0
+ 115992 = N 2 0
+ 115992 = N 6 0
+ 116016 = N 1 0
+ 116016 = N 6 0
+ 116040 = N 0 0
+ 116040 = N 6 0
+ 116064 = N 4 0
+ 116064 = N 6 0
+ 116088 = N 3 0
+ 116088 = N 6 0
+ 116112 = N 2 0
+ 116112 = N 6 0
+ 116136 = N 1 0
+ 116136 = N 6 0
+ 116160 = N 3 0
+ 116160 = N 6 0
+ 116184 = N 2 0
+ 116184 = N 6 0
+ 116208 = N 1 0
+ 116208 = N 6 0
+ 116232 = N 0 0
+ 116232 = N 6 0
+ 116256 = N 4 0
+ 116256 = N 6 0
+ 116280 = N 3 0
+ 116280 = N 6 0
+ 116304 = N 2 0
+ 116304 = N 6 0
+ 116328 = N 1 0
+ 116328 = N 6 0
+ 116352 = N 3 0
+ 116352 = N 6 0
+ 116376 = N 2 0
+ 116376 = N 6 0
+ 116400 = N 1 0
+ 116400 = N 6 0
+ 116424 = N 0 0
+ 116424 = N 6 0
+ 116448 = N 3 0
+ 116448 = N 6 0
+ 116472 = N 2 0
+ 116472 = N 6 0
+ 116496 = N 1 0
+ 116496 = N 6 0
+ 116520 = N 0 0
+ 116520 = N 6 0
+ 116544 = N 4 0
+ 116544 = N 6 0
+ 116568 = N 3 0
+ 116568 = N 6 0
+ 116592 = N 2 0
+ 116592 = N 6 0
+ 116616 = N 1 0
+ 116616 = N 6 0
+ 116640 = N 0 352
+ 116640 = N 6 0
+ 117024 = N 1 0
+ 117072 = N 1 0
+ 117120 = N 1 352
+ 117120 = N 2 352
+ 117504 = N 2 0
+ 117536 = N 2 320
+ 117536 = N 3 320
+ 117536 = N 5 0
+ 117888 = N 3 0
+ 117920 = N 4 1504
+ 119424 = E soloend
+ 120192 = N 1 736
+ 120192 = N 2 736
+ 120960 = N 0 736
+ 120960 = N 1 736
+ 121728 = N 1 736
+ 121728 = N 3 736
+ 122496 = N 0 736
+ 122496 = N 2 736
+ 122496 = S 2 1920
+ 123264 = N 0 0
+ 123264 = N 3 0
+ 123360 = N 0 0
+ 123456 = N 0 0
+ 123552 = N 0 0
+ 123552 = N 3 0
+ 123648 = N 0 0
+ 123744 = N 0 0
+ 123840 = N 0 0
+ 123840 = N 3 0
+ 123936 = N 0 0
+ 124032 = N 1 1120
+ 124032 = N 2 1120
+ 125184 = N 1 352
+ 125184 = N 4 352
+ 125568 = N 2 352
+ 125568 = N 4 352
+ 125952 = N 3 352
+ 125952 = N 4 352
+ 126336 = N 1 736
+ 126336 = N 2 736
+ 127104 = N 0 736
+ 127104 = N 1 736
+ 127872 = N 1 736
+ 127872 = N 3 736
+ 128640 = N 0 736
+ 128640 = N 2 736
+ 129408 = N 1 736
+ 129408 = N 2 736
+ 130176 = N 2 0
+ 130224 = N 0 0
+ 130272 = N 0 0
+ 130320 = N 1 0
+ 130368 = N 0 0
+ 130416 = N 0 0
+ 130464 = N 3 0
+ 130512 = N 4 0
+ 130560 = N 3 0
+ 130608 = N 1 0
+ 130656 = N 2 0
+ 130704 = N 0 0
+ 130752 = N 3 0
+ 130800 = N 0 0
+ 130848 = N 2 0
+ 130896 = N 0 0
+ 130944 = N 1 0
+ 130992 = N 0 0
+ 131040 = N 0 0
+ 131088 = N 2 0
+ 131136 = N 0 0
+ 131184 = N 0 0
+ 131232 = N 3 0
+ 131280 = N 4 0
+ 131328 = N 3 0
+ 131376 = N 1 0
+ 131424 = N 2 0
+ 131472 = N 0 0
+ 131520 = N 3 0
+ 131568 = N 0 0
+ 131616 = N 4 0
+ 131664 = N 0 0
+ 131712 = N 3 0
+ 131760 = N 0 0
+ 131808 = N 2 0
+ 131856 = N 3 0
+ 131904 = N 2 0
+ 131952 = N 0 0
+ 132000 = N 1 0
+ 132048 = N 0 0
+ 132096 = N 2 0
+ 132144 = N 0 0
+ 132192 = N 3 0
+ 132240 = N 4 0
+ 132288 = N 3 0
+ 132336 = N 0 0
+ 132384 = N 3 0
+ 132432 = N 0 0
+ 132480 = N 1 0
+ 132528 = N 0 0
+ 132576 = N 0 0
+ 132624 = N 1 0
+ 132672 = N 0 0
+ 132720 = N 0 0
+ 132768 = N 3 0
+ 132816 = N 0 0
+ 132864 = N 1 0
+ 132912 = N 0 0
+ 132960 = N 0 0
+ 133008 = N 1 0
+ 133056 = N 0 0
+ 133104 = N 0 0
+ 133152 = N 3 0
+ 133200 = N 0 0
+ 133248 = N 2 0
+ 133296 = N 0 0
+ 133344 = N 0 0
+ 133392 = N 1 0
+ 133440 = N 0 0
+ 133488 = N 0 0
+ 133536 = N 3 0
+ 133584 = N 4 0
+ 133632 = N 3 0
+ 133680 = N 1 0
+ 133728 = N 2 0
+ 133776 = N 0 0
+ 133824 = N 3 0
+ 133872 = N 0 0
+ 133920 = N 2 0
+ 133968 = N 0 0
+ 134016 = N 1 0
+ 134064 = N 0 0
+ 134112 = N 0 0
+ 134160 = N 2 0
+ 134208 = N 0 0
+ 134256 = N 0 0
+ 134304 = N 3 0
+ 134352 = N 4 0
+ 134400 = N 3 0
+ 134448 = N 1 0
+ 134496 = N 2 0
+ 134544 = N 0 0
+ 134592 = N 3 0
+ 134640 = N 0 0
+ 134688 = N 4 0
+ 134736 = N 0 0
+ 134784 = N 3 0
+ 134832 = N 0 0
+ 134880 = N 2 0
+ 134928 = N 3 0
+ 134976 = N 2 0
+ 135024 = N 0 0
+ 135072 = N 1 0
+ 135120 = N 0 0
+ 135168 = N 2 0
+ 135216 = N 0 0
+ 135264 = N 3 0
+ 135312 = N 4 0
+ 135360 = N 3 0
+ 135408 = N 0 0
+ 135456 = N 3 0
+ 135504 = N 0 0
+ 135552 = N 1 0
+ 135600 = N 0 0
+ 135648 = N 0 0
+ 135696 = N 1 0
+ 135744 = N 0 0
+ 135792 = N 0 0
+ 135840 = N 3 0
+ 135888 = N 0 0
+ 135936 = N 1 0
+ 135984 = N 0 0
+ 136032 = N 0 0
+ 136080 = N 1 0
+ 136128 = N 0 0
+ 136176 = N 0 0
+ 136224 = N 3 0
+ 136272 = N 0 0
+ 136320 = N 1 0
+ 136368 = N 0 0
+ 136416 = N 0 0
+ 136464 = N 1 0
+ 136512 = N 0 0
+ 136560 = N 0 0
+ 136608 = N 3 0
+ 136656 = N 0 0
+ 136704 = N 1 0
+ 136752 = N 0 0
+ 136800 = N 0 0
+ 136848 = N 1 0
+ 136896 = N 0 0
+ 136944 = N 0 0
+ 136992 = N 3 0
+ 137040 = N 0 0
+ 137088 = N 1 0
+ 137136 = N 0 0
+ 137184 = N 0 0
+ 137232 = N 1 0
+ 137280 = N 0 0
+ 137328 = N 0 0
+ 137376 = N 3 0
+ 137424 = N 0 0
+ 137472 = N 1 0
+ 137520 = N 0 0
+ 137568 = N 0 0
+ 137616 = N 1 0
+ 137664 = N 0 0
+ 137712 = N 0 0
+ 137760 = N 3 0
+ 137808 = N 0 0
+}
+[HardSingle]
+{
+ 2304 = N 2 0
+ 2352 = N 0 0
+ 2400 = N 0 0
+ 2448 = N 1 0
+ 2592 = N 3 0
+ 2640 = N 4 0
+ 2688 = N 3 0
+ 2784 = N 2 0
+ 2880 = N 3 0
+ 2976 = N 2 0
+ 3072 = N 1 0
+ 3120 = N 0 0
+ 3168 = N 0 0
+ 3216 = N 2 0
+ 3360 = N 3 0
+ 3408 = N 4 0
+ 3456 = N 3 0
+ 3552 = N 2 0
+ 3648 = N 3 0
+ 3744 = N 4 0
+ 3840 = N 3 0
+ 3936 = N 2 0
+ 3984 = N 3 0
+ 4032 = N 2 0
+ 4128 = N 1 0
+ 4224 = N 2 0
+ 4320 = N 3 0
+ 4368 = N 4 0
+ 4416 = N 3 0
+ 4512 = N 3 0
+ 4608 = N 1 0
+ 4704 = N 0 0
+ 4752 = N 1 0
+ 4848 = N 0 0
+ 4896 = N 3 0
+ 4992 = N 1 0
+ 5088 = N 0 0
+ 5136 = N 1 0
+ 5232 = N 0 0
+ 5280 = N 3 0
+ 5376 = N 2 0
+ 5376 = S 2 768
+ 5424 = N 0 0
+ 5472 = N 0 0
+ 5520 = N 1 0
+ 5664 = N 3 0
+ 5712 = N 4 0
+ 5760 = N 3 0
+ 5856 = N 2 0
+ 5952 = N 3 0
+ 6048 = N 2 0
+ 6144 = N 1 0
+ 6192 = N 0 0
+ 6240 = N 0 0
+ 6288 = N 2 0
+ 6432 = N 3 0
+ 6480 = N 4 0
+ 6528 = N 3 0
+ 6624 = N 2 0
+ 6720 = N 3 0
+ 6816 = N 4 0
+ 6912 = N 3 0
+ 7008 = N 2 0
+ 7056 = N 3 0
+ 7104 = N 2 0
+ 7200 = N 1 0
+ 7296 = N 2 0
+ 7392 = N 3 0
+ 7440 = N 4 0
+ 7488 = N 3 0
+ 7584 = N 3 0
+ 7680 = N 1 0
+ 7776 = N 0 0
+ 7824 = N 1 0
+ 7920 = N 0 0
+ 7968 = N 3 0
+ 8064 = N 1 0
+ 8160 = N 0 0
+ 8208 = N 1 0
+ 8304 = N 0 0
+ 8352 = N 3 0
+ 8448 = N 4 0
+ 8544 = N 4 0
+ 8640 = N 2 0
+ 8688 = N 3 0
+ 8736 = N 2 0
+ 8832 = N 1 0
+ 8880 = N 2 0
+ 8928 = N 1 0
+ 9024 = N 3 0
+ 9072 = N 4 0
+ 9120 = N 3 0
+ 9216 = N 2 0
+ 9264 = N 3 0
+ 9312 = N 2 0
+ 9408 = N 3 0
+ 9456 = N 4 0
+ 9504 = N 3 0
+ 9600 = N 2 0
+ 9648 = N 3 0
+ 9696 = N 2 0
+ 9792 = N 1 0
+ 9840 = N 2 0
+ 9888 = N 1 0
+ 9984 = N 1 0
+ 10080 = N 0 0
+ 10176 = N 1 0
+ 10224 = N 2 0
+ 10272 = N 1 144
+ 10464 = N 0 0
+ 10560 = N 1 0
+ 10608 = N 4 0
+ 10656 = N 1 160
+ 10848 = N 0 0
+ 10944 = N 1 0
+ 10992 = N 2 0
+ 11040 = N 1 0
+ 11136 = N 2 0
+ 11184 = N 3 0
+ 11232 = N 2 0
+ 11328 = N 1 0
+ 11424 = N 0 0
+ 11520 = N 1 0
+ 11568 = N 2 0
+ 11616 = N 1 160
+ 11808 = N 0 0
+ 11904 = N 1 0
+ 11952 = N 4 0
+ 12000 = N 1 160
+ 12192 = N 0 0
+ 12288 = N 1 0
+ 12336 = N 2 0
+ 12384 = N 1 0
+ 12480 = N 2 0
+ 12528 = N 3 0
+ 12576 = N 2 0
+ 12672 = N 3 0
+ 12720 = N 4 0
+ 12768 = N 3 0
+ 12864 = N 1 0
+ 12960 = N 0 0
+ 13056 = N 1 0
+ 13104 = N 2 0
+ 13152 = N 1 144
+ 13344 = N 0 0
+ 13440 = N 1 0
+ 13488 = N 4 0
+ 13536 = N 1 160
+ 13728 = N 0 0
+ 13824 = N 1 0
+ 13872 = N 2 0
+ 13920 = N 1 0
+ 14016 = N 2 0
+ 14064 = N 3 0
+ 14112 = N 2 0
+ 14208 = N 1 0
+ 14208 = S 2 768
+ 14304 = N 0 0
+ 14400 = N 1 0
+ 14448 = N 2 0
+ 14496 = N 1 160
+ 14688 = N 0 0
+ 14784 = N 1 0
+ 14832 = N 4 0
+ 14880 = N 1 160
+ 15072 = N 0 0
+ 15168 = N 1 0
+ 15216 = N 2 0
+ 15264 = N 1 0
+ 15360 = N 2 0
+ 15408 = N 3 0
+ 15456 = N 2 0
+ 15552 = N 3 0
+ 15600 = N 4 0
+ 15648 = N 3 0
+ 15744 = N 1 0
+ 15840 = N 0 0
+ 15936 = N 1 0
+ 15984 = N 2 0
+ 16032 = N 1 160
+ 16224 = N 0 0
+ 16320 = N 1 0
+ 16368 = N 4 0
+ 16416 = N 1 160
+ 16608 = N 0 0
+ 16704 = N 1 0
+ 16752 = N 2 0
+ 16800 = N 1 160
+ 16992 = N 0 0
+ 17040 = N 1 0
+ 17088 = N 2 0
+ 17136 = N 1 0
+ 17184 = N 0 0
+ 17280 = N 1 0
+ 17376 = N 0 0
+ 17472 = N 1 0
+ 17520 = N 2 0
+ 17568 = N 1 160
+ 17760 = N 0 0
+ 17856 = N 1 0
+ 17904 = N 4 0
+ 17952 = N 1 160
+ 18144 = N 0 0
+ 18240 = N 1 0
+ 18288 = N 2 0
+ 18336 = N 1 160
+ 18528 = N 0 0
+ 18576 = N 1 0
+ 18624 = N 2 0
+ 18672 = N 1 0
+ 18720 = N 0 0
+ 18816 = N 1 0
+ 18912 = N 0 0
+ 19008 = N 1 0
+ 19056 = N 2 0
+ 19104 = N 1 160
+ 19296 = N 0 0
+ 19392 = N 1 0
+ 19440 = N 4 0
+ 19488 = N 1 160
+ 19680 = N 0 0
+ 19776 = N 1 0
+ 19824 = N 2 0
+ 19872 = N 1 160
+ 20064 = N 0 0
+ 20112 = N 1 0
+ 20160 = N 2 0
+ 20208 = N 1 0
+ 20256 = N 0 0
+ 20352 = N 1 0
+ 20448 = N 0 0
+ 20544 = N 1 0
+ 20592 = N 2 0
+ 20640 = N 1 160
+ 20832 = N 0 0
+ 20928 = N 1 0
+ 20976 = N 4 0
+ 21024 = N 1 160
+ 21216 = N 0 0
+ 21312 = N 1 0
+ 21360 = N 2 0
+ 21408 = N 1 0
+ 21504 = N 2 0
+ 21600 = N 3 256
+ 21600 = N 4 256
+ 21888 = N 1 0
+ 21984 = N 0 0
+ 22080 = N 1 0
+ 22128 = N 2 0
+ 22176 = N 1 160
+ 22368 = N 0 0
+ 22464 = N 1 0
+ 22512 = N 4 0
+ 22560 = N 1 160
+ 22752 = N 0 0
+ 22848 = N 1 0
+ 22896 = N 2 0
+ 22944 = N 1 160
+ 23136 = N 0 0
+ 23184 = N 1 0
+ 23232 = N 2 0
+ 23280 = N 1 0
+ 23328 = N 0 0
+ 23424 = N 1 0
+ 23520 = N 0 0
+ 23616 = N 1 0
+ 23664 = N 2 0
+ 23712 = N 1 160
+ 23904 = N 0 0
+ 24000 = N 1 0
+ 24048 = N 2 0
+ 24096 = N 1 0
+ 24192 = N 1 0
+ 24192 = S 2 768
+ 24240 = N 2 0
+ 24288 = N 4 0
+ 24384 = N 4 0
+ 24432 = N 3 0
+ 24528 = N 4 0
+ 24576 = N 2 0
+ 24672 = N 3 0
+ 24720 = N 2 0
+ 24768 = N 1 0
+ 24816 = N 0 0
+ 24864 = N 1 0
+ 24912 = N 2 0
+ 24960 = N 1 0
+ 25056 = N 0 0
+ 25152 = N 1 0
+ 25200 = N 2 0
+ 25248 = N 1 160
+ 25440 = N 0 0
+ 25536 = N 1 0
+ 25584 = N 4 0
+ 25632 = N 1 160
+ 25824 = N 0 0
+ 25920 = N 1 0
+ 25968 = N 2 0
+ 26016 = N 1 160
+ 26208 = N 0 0
+ 26256 = N 1 0
+ 26304 = N 2 0
+ 26352 = N 1 0
+ 26400 = N 0 0
+ 26496 = N 0 736
+ 26496 = N 2 736
+ 27264 = N 1 352
+ 27264 = N 3 352
+ 27648 = N 2 0
+ 27744 = N 2 256
+ 27744 = N 4 256
+ 28032 = N 1 0
+ 28128 = N 0 0
+ 28224 = N 1 0
+ 28272 = N 2 0
+ 28320 = N 1 160
+ 28512 = N 0 0
+ 28608 = N 1 0
+ 28656 = N 4 0
+ 28704 = N 1 160
+ 28896 = N 0 0
+ 28992 = N 1 0
+ 29040 = N 2 0
+ 29088 = N 1 160
+ 29280 = N 0 0
+ 29328 = N 1 0
+ 29376 = N 2 0
+ 29424 = N 1 0
+ 29472 = N 0 0
+ 29568 = N 1 0
+ 29664 = N 0 0
+ 29760 = N 1 0
+ 29808 = N 2 0
+ 29856 = N 1 160
+ 30048 = N 0 0
+ 30144 = N 1 0
+ 30192 = N 2 0
+ 30240 = N 1 0
+ 30336 = N 1 0
+ 30384 = N 2 0
+ 30432 = N 4 0
+ 30528 = N 4 0
+ 30576 = N 3 0
+ 30672 = N 4 0
+ 30720 = N 2 0
+ 30816 = N 3 0
+ 30864 = N 2 0
+ 30912 = N 1 0
+ 30960 = N 0 0
+ 31008 = N 1 0
+ 31056 = N 2 0
+ 31104 = N 1 0
+ 31200 = N 0 0
+ 31296 = N 1 0
+ 31344 = N 2 0
+ 31392 = N 1 160
+ 31584 = N 0 0
+ 31680 = N 1 0
+ 31728 = N 4 0
+ 31776 = N 1 160
+ 31968 = N 0 0
+ 32064 = N 1 0
+ 32112 = N 2 0
+ 32160 = N 1 160
+ 32352 = N 0 0
+ 32400 = N 1 0
+ 32448 = N 2 0
+ 32496 = N 1 0
+ 32544 = N 0 0
+ 32640 = N 0 736
+ 32640 = N 2 736
+ 33408 = N 1 352
+ 33408 = N 3 352
+ 33792 = N 0 0
+ 33888 = N 0 256
+ 33888 = N 1 256
+ 34176 = N 1 0
+ 34176 = S 2 1536
+ 34272 = N 0 0
+ 34368 = N 1 0
+ 34416 = N 2 0
+ 34464 = N 1 160
+ 34656 = N 0 0
+ 34752 = N 1 0
+ 34800 = N 4 0
+ 34848 = N 1 160
+ 35040 = N 0 0
+ 35136 = N 1 0
+ 35184 = N 2 0
+ 35232 = N 1 160
+ 35424 = N 0 0
+ 35472 = N 1 0
+ 35520 = N 2 0
+ 35568 = N 1 0
+ 35616 = N 0 0
+ 35712 = N 1 0
+ 35808 = N 0 0
+ 35904 = N 1 0
+ 35952 = N 2 0
+ 36000 = N 1 160
+ 36192 = N 0 0
+ 36288 = N 1 0
+ 36336 = N 2 0
+ 36384 = N 1 0
+ 36480 = N 1 0
+ 36528 = N 2 0
+ 36576 = N 4 0
+ 36672 = N 4 0
+ 36720 = N 3 0
+ 36816 = N 4 0
+ 36864 = N 2 0
+ 36960 = N 3 0
+ 37008 = N 2 0
+ 37056 = N 1 0
+ 37104 = N 0 0
+ 37152 = N 1 0
+ 37200 = N 2 0
+ 37248 = N 1 0
+ 37344 = N 0 0
+ 37440 = N 1 0
+ 37488 = N 2 0
+ 37536 = N 1 160
+ 37728 = N 0 0
+ 37824 = N 1 0
+ 37872 = N 4 0
+ 37920 = N 1 160
+ 38112 = N 0 0
+ 38208 = N 1 0
+ 38256 = N 2 0
+ 38304 = N 1 160
+ 38496 = N 0 0
+ 38544 = N 1 0
+ 38592 = N 2 0
+ 38640 = N 1 0
+ 38688 = N 0 0
+ 38784 = N 0 736
+ 38784 = N 2 736
+ 39552 = N 1 448
+ 39552 = N 3 448
+ 40032 = N 2 0
+ 40128 = N 4 0
+ 40224 = N 3 0
+ 40320 = N 2 0
+ 40416 = N 0 0
+ 40512 = N 1 0
+ 40608 = N 2 0
+ 40704 = N 4 0
+ 40800 = N 3 0
+ 40896 = N 0 0
+ 40992 = N 1 0
+ 41088 = N 2 0
+ 41184 = N 3 0
+ 41280 = N 4 160
+ 41472 = N 2 0
+ 41568 = N 0 0
+ 41664 = N 1 0
+ 41760 = N 2 0
+ 41856 = N 4 0
+ 41952 = N 3 0
+ 42048 = N 0 0
+ 42144 = N 1 0
+ 42240 = N 2 0
+ 42336 = N 1 0
+ 42432 = N 2 0
+ 42528 = N 1 0
+ 42624 = N 0 0
+ 42720 = N 1 0
+ 42816 = N 2 0
+ 42912 = N 1 0
+ 43008 = N 3 0
+ 43104 = N 4 0
+ 43200 = N 0 0
+ 43296 = N 1 0
+ 43392 = N 2 0
+ 43488 = N 1 0
+ 43584 = N 4 0
+ 43680 = N 1 0
+ 43776 = N 2 0
+ 43872 = N 0 0
+ 43968 = N 1 0
+ 44064 = N 2 0
+ 44160 = N 3 0
+ 44256 = N 2 0
+ 44352 = N 1 0
+ 44448 = N 2 0
+ 44544 = N 1 1120
+ 44544 = N 2 1120
+ 45696 = N 1 352
+ 45696 = N 4 352
+ 46080 = N 2 352
+ 46080 = N 4 352
+ 46464 = N 3 352
+ 46464 = N 4 352
+ 46848 = N 1 736
+ 46848 = N 2 736
+ 47616 = N 0 736
+ 47616 = N 1 736
+ 47616 = S 2 1536
+ 48384 = N 1 736
+ 48384 = N 3 736
+ 49152 = N 0 736
+ 49152 = N 2 736
+ 49920 = N 0 0
+ 49920 = N 3 0
+ 50016 = N 0 0
+ 50112 = N 0 0
+ 50208 = N 0 0
+ 50208 = N 3 0
+ 50304 = N 0 0
+ 50400 = N 0 0
+ 50496 = N 0 0
+ 50496 = N 3 0
+ 50688 = N 1 1120
+ 50688 = N 2 1120
+ 51840 = N 1 352
+ 51840 = N 4 352
+ 52224 = N 2 352
+ 52224 = N 4 352
+ 52608 = N 3 352
+ 52608 = N 4 352
+ 52992 = N 1 736
+ 52992 = N 2 736
+ 53760 = N 0 736
+ 53760 = N 1 736
+ 54528 = N 1 736
+ 54528 = N 3 736
+ 55296 = N 0 736
+ 55296 = N 2 736
+ 56064 = N 3 0
+ 56112 = N 4 0
+ 56160 = N 3 0
+ 56208 = N 4 0
+ 56256 = N 3 0
+ 56304 = N 4 0
+ 56352 = N 3 0
+ 56400 = N 4 0
+ 56448 = N 3 0
+ 56496 = N 4 0
+ 56544 = N 3 0
+ 56592 = N 4 0
+ 56640 = N 3 160
+ 56832 = N 2 0
+ 56880 = N 0 0
+ 56928 = N 0 0
+ 56976 = N 1 0
+ 57120 = N 3 0
+ 57168 = N 4 0
+ 57216 = N 3 0
+ 57312 = N 2 0
+ 57408 = N 3 0
+ 57504 = N 2 0
+ 57600 = N 1 0
+ 57648 = N 0 0
+ 57696 = N 0 0
+ 57744 = N 2 0
+ 57888 = N 3 0
+ 57936 = N 4 0
+ 57984 = N 3 0
+ 58080 = N 2 0
+ 58176 = N 3 0
+ 58272 = N 4 0
+ 58368 = N 3 0
+ 58464 = N 2 0
+ 58512 = N 3 0
+ 58560 = N 2 0
+ 58656 = N 1 0
+ 58752 = N 2 0
+ 58848 = N 3 0
+ 58896 = N 4 0
+ 58944 = N 3 0
+ 59040 = N 3 0
+ 59136 = N 1 0
+ 59136 = S 2 768
+ 59232 = N 0 0
+ 59280 = N 1 0
+ 59376 = N 0 0
+ 59424 = N 3 0
+ 59520 = N 1 0
+ 59616 = N 0 0
+ 59664 = N 1 0
+ 59760 = N 0 0
+ 59808 = N 3 0
+ 59904 = N 2 0
+ 59952 = N 0 0
+ 60000 = N 0 0
+ 60048 = N 1 0
+ 60192 = N 3 0
+ 60240 = N 4 0
+ 60288 = N 3 0
+ 60384 = N 2 0
+ 60480 = N 3 0
+ 60576 = N 2 0
+ 60672 = N 1 0
+ 60720 = N 0 0
+ 60768 = N 0 0
+ 60816 = N 2 0
+ 60960 = N 3 0
+ 61008 = N 4 0
+ 61056 = N 3 0
+ 61152 = N 2 0
+ 61248 = N 3 0
+ 61344 = N 4 0
+ 61440 = N 3 0
+ 61536 = N 2 0
+ 61584 = N 3 0
+ 61632 = N 2 0
+ 61728 = N 1 0
+ 61824 = N 2 0
+ 61920 = N 3 0
+ 61968 = N 4 0
+ 62016 = N 3 0
+ 62112 = N 3 0
+ 62208 = N 1 0
+ 62304 = N 0 0
+ 62352 = N 1 0
+ 62448 = N 0 0
+ 62496 = N 3 0
+ 62592 = N 1 0
+ 62688 = N 0 0
+ 62736 = N 1 0
+ 62832 = N 0 0
+ 62880 = N 3 0
+ 62976 = N 4 0
+ 63072 = N 4 0
+ 63168 = N 2 0
+ 63216 = N 3 0
+ 63264 = N 2 0
+ 63360 = N 1 0
+ 63408 = N 2 0
+ 63456 = N 1 0
+ 63552 = N 3 0
+ 63600 = N 4 0
+ 63648 = N 3 0
+ 63744 = N 2 0
+ 63792 = N 3 0
+ 63840 = N 2 0
+ 63936 = N 1 0
+ 63984 = N 0 0
+ 64032 = N 1 0
+ 64080 = N 2 0
+ 64128 = N 3 0
+ 64176 = N 4 0
+ 64224 = N 3 0
+ 64272 = N 4 0
+ 64320 = N 3 0
+ 64368 = N 2 0
+ 64416 = N 1 0
+ 64464 = N 0 0
+ 64512 = N 1 0
+ 64608 = N 0 0
+ 64704 = N 1 0
+ 64752 = N 2 0
+ 64800 = N 1 160
+ 64992 = N 0 0
+ 65088 = N 1 0
+ 65136 = N 4 0
+ 65184 = N 1 160
+ 65376 = N 0 0
+ 65472 = N 1 0
+ 65520 = N 2 0
+ 65568 = N 1 160
+ 65760 = N 0 0
+ 65808 = N 1 0
+ 65856 = N 2 0
+ 65904 = N 1 0
+ 65952 = N 0 0
+ 66048 = N 1 0
+ 66144 = N 0 0
+ 66240 = N 1 0
+ 66288 = N 2 0
+ 66336 = N 1 160
+ 66528 = N 0 0
+ 66624 = N 1 0
+ 66672 = N 2 0
+ 66720 = N 1 0
+ 66816 = N 1 0
+ 66864 = N 2 0
+ 66912 = N 4 0
+ 67008 = N 4 0
+ 67056 = N 3 0
+ 67152 = N 4 0
+ 67200 = N 2 0
+ 67296 = N 3 0
+ 67344 = N 2 0
+ 67392 = N 1 0
+ 67440 = N 0 0
+ 67488 = N 1 0
+ 67536 = N 2 0
+ 67584 = N 1 0
+ 67680 = N 0 0
+ 67776 = N 1 0
+ 67824 = N 2 0
+ 67872 = N 1 160
+ 68064 = N 0 0
+ 68160 = N 1 0
+ 68208 = N 4 0
+ 68256 = N 1 160
+ 68448 = N 0 0
+ 68544 = N 1 0
+ 68592 = N 2 0
+ 68640 = N 1 160
+ 68832 = N 0 0
+ 68880 = N 1 0
+ 68928 = N 2 0
+ 68976 = N 1 0
+ 69024 = N 0 0
+ 69120 = N 0 736
+ 69120 = N 2 736
+ 69120 = S 2 1536
+ 69888 = N 1 352
+ 69888 = N 3 352
+ 70272 = N 0 0
+ 70368 = N 0 256
+ 70368 = N 1 256
+ 70656 = N 1 0
+ 70752 = N 0 0
+ 70848 = N 1 0
+ 70896 = N 2 0
+ 70944 = N 1 160
+ 71136 = N 0 0
+ 71232 = N 1 0
+ 71280 = N 4 0
+ 71328 = N 1 160
+ 71520 = N 0 0
+ 71616 = N 1 0
+ 71664 = N 2 0
+ 71712 = N 1 160
+ 71904 = N 0 0
+ 71952 = N 1 0
+ 72000 = N 2 0
+ 72048 = N 1 0
+ 72096 = N 0 0
+ 72192 = N 0 0
+ 72240 = N 1 0
+ 72288 = N 2 0
+ 72336 = N 1 0
+ 72384 = N 0 0
+ 72432 = N 1 0
+ 72480 = N 2 0
+ 72528 = N 3 0
+ 72576 = N 1 0
+ 72624 = N 2 0
+ 72672 = N 3 0
+ 72720 = N 2 0
+ 72768 = N 1 0
+ 72816 = N 2 0
+ 72864 = N 3 0
+ 72912 = N 4 0
+ 72960 = N 2 0
+ 73008 = N 3 0
+ 73056 = N 4 0
+ 73104 = N 3 0
+ 73152 = N 2 0
+ 73200 = N 0 0
+ 73248 = N 1 0
+ 73296 = N 2 0
+ 73344 = N 3 0
+ 73392 = N 2 0
+ 73440 = N 1 0
+ 73488 = N 2 0
+ 73536 = N 4 160
+ 73728 = N 1 0
+ 73824 = N 0 0
+ 73920 = N 1 0
+ 73968 = N 2 0
+ 74016 = N 1 160
+ 74208 = N 0 0
+ 74304 = N 1 0
+ 74352 = N 4 0
+ 74400 = N 1 160
+ 74592 = N 0 0
+ 74688 = N 1 0
+ 74736 = N 2 0
+ 74784 = N 1 160
+ 74976 = N 0 0
+ 75024 = N 1 0
+ 75072 = N 2 0
+ 75120 = N 1 0
+ 75168 = N 0 0
+ 75264 = N 0 736
+ 75264 = N 2 736
+ 76032 = N 1 0
+ 76032 = N 3 0
+ 76128 = N 1 0
+ 76224 = N 1 0
+ 76320 = N 1 0
+ 76320 = N 3 0
+ 76416 = N 1 0
+ 76512 = N 2 0
+ 76608 = N 4 0
+ 76704 = N 3 0
+ 76800 = N 2 0
+ 76896 = N 0 0
+ 76992 = N 1 0
+ 77088 = N 2 0
+ 77184 = N 4 0
+ 77280 = N 3 0
+ 77376 = N 0 0
+ 77472 = N 1 0
+ 77568 = N 2 0
+ 77664 = N 3 0
+ 77760 = N 4 160
+ 77952 = N 2 0
+ 78048 = N 0 0
+ 78144 = N 1 0
+ 78240 = N 2 0
+ 78336 = N 4 0
+ 78432 = N 3 0
+ 78528 = N 0 0
+ 78624 = N 1 0
+ 78720 = N 2 0
+ 78816 = N 1 0
+ 78912 = N 2 0
+ 79008 = N 1 0
+ 79104 = N 0 0
+ 79200 = N 1 0
+ 79296 = N 2 0
+ 79392 = N 1 0
+ 79488 = N 3 0
+ 79584 = N 4 0
+ 79680 = N 0 0
+ 79776 = N 1 0
+ 79872 = N 2 0
+ 79968 = N 1 0
+ 80064 = N 4 0
+ 80160 = N 1 0
+ 80256 = N 2 0
+ 80352 = N 0 0
+ 80448 = N 1 0
+ 80544 = N 2 0
+ 80640 = N 3 0
+ 80736 = N 2 0
+ 80832 = N 1 0
+ 80928 = N 2 0
+ 81024 = N 1 1120
+ 81024 = N 2 1120
+ 81024 = S 2 1920
+ 82176 = N 1 352
+ 82176 = N 4 352
+ 82560 = N 2 352
+ 82560 = N 4 352
+ 82944 = N 3 352
+ 82944 = N 4 352
+ 83328 = N 1 736
+ 83328 = N 2 736
+ 84096 = N 0 736
+ 84096 = N 1 736
+ 84864 = N 1 736
+ 84864 = N 3 736
+ 85632 = N 0 736
+ 85632 = N 2 736
+ 86400 = N 0 0
+ 86400 = N 3 0
+ 86496 = N 0 0
+ 86592 = N 0 0
+ 86688 = N 0 0
+ 86688 = N 3 0
+ 86784 = N 0 0
+ 86880 = N 0 0
+ 86976 = N 0 0
+ 86976 = N 3 0
+ 87168 = N 1 1120
+ 87168 = N 2 1120
+ 88320 = N 1 352
+ 88320 = N 4 352
+ 88704 = N 2 352
+ 88704 = N 4 352
+ 89088 = N 3 352
+ 89088 = N 4 352
+ 89472 = N 1 736
+ 89472 = N 2 736
+ 90240 = N 0 736
+ 90240 = N 1 736
+ 91008 = N 1 736
+ 91008 = N 3 736
+ 91776 = N 0 736
+ 91776 = N 2 736
+ 92544 = N 0 0
+ 92544 = N 3 0
+ 92544 = S 2 768
+ 92640 = N 0 0
+ 92736 = N 0 0
+ 92832 = N 0 0
+ 92832 = N 3 0
+ 92928 = N 0 0
+ 93024 = N 0 0
+ 93120 = N 0 160
+ 93120 = N 3 160
+ 93312 = N 0 0
+ 93312 = N 6 0
+ 93312 = E solo
+ 93360 = N 1 0
+ 93360 = N 6 0
+ 93408 = N 2 0
+ 93408 = N 6 0
+ 93456 = N 3 0
+ 93456 = N 6 0
+ 93504 = N 4 0
+ 93504 = N 6 0
+ 93552 = N 3 0
+ 93552 = N 6 0
+ 93600 = N 2 0
+ 93600 = N 6 0
+ 93648 = N 1 0
+ 93648 = N 6 0
+ 93696 = N 0 0
+ 93696 = N 6 0
+ 93744 = N 1 0
+ 93744 = N 6 0
+ 93792 = N 2 0
+ 93792 = N 6 0
+ 93840 = N 3 0
+ 93840 = N 6 0
+ 93888 = N 4 0
+ 93888 = N 6 0
+ 93936 = N 3 0
+ 93936 = N 6 0
+ 93984 = N 2 0
+ 93984 = N 6 0
+ 94032 = N 1 0
+ 94032 = N 6 0
+ 94080 = N 0 0
+ 94080 = N 6 0
+ 94128 = N 1 0
+ 94128 = N 6 0
+ 94176 = N 2 0
+ 94176 = N 6 0
+ 94224 = N 3 0
+ 94224 = N 6 0
+ 94272 = N 2 0
+ 94272 = N 6 0
+ 94320 = N 2 0
+ 94320 = N 6 0
+ 94368 = N 1 0
+ 94368 = N 6 0
+ 94416 = N 0 0
+ 94416 = N 6 0
+ 94464 = N 3 0
+ 94464 = N 6 0
+ 94512 = N 3 0
+ 94512 = N 6 0
+ 94560 = N 1 0
+ 94560 = N 6 0
+ 94608 = N 0 0
+ 94608 = N 6 0
+ 94656 = N 4 0
+ 94656 = N 6 0
+ 94704 = N 4 0
+ 94704 = N 6 0
+ 94752 = N 1 0
+ 94752 = N 6 0
+ 94800 = N 0 0
+ 94800 = N 6 0
+ 94848 = N 0 0
+ 94848 = N 6 0
+ 94896 = N 1 0
+ 94896 = N 6 0
+ 94944 = N 2 0
+ 94944 = N 6 0
+ 94992 = N 3 0
+ 94992 = N 6 0
+ 95040 = N 4 0
+ 95040 = N 6 0
+ 95088 = N 3 0
+ 95088 = N 6 0
+ 95136 = N 2 0
+ 95136 = N 6 0
+ 95184 = N 1 0
+ 95184 = N 6 0
+ 95232 = N 0 0
+ 95232 = N 6 0
+ 95280 = N 1 0
+ 95280 = N 6 0
+ 95328 = N 2 0
+ 95328 = N 6 0
+ 95376 = N 3 0
+ 95376 = N 6 0
+ 95424 = N 4 0
+ 95424 = N 6 0
+ 95472 = N 3 0
+ 95472 = N 6 0
+ 95520 = N 2 0
+ 95520 = N 6 0
+ 95568 = N 1 0
+ 95568 = N 6 0
+ 95616 = N 0 0
+ 95616 = N 6 0
+ 95664 = N 1 0
+ 95664 = N 6 0
+ 95712 = N 2 0
+ 95712 = N 6 0
+ 95760 = N 1 0
+ 95760 = N 6 0
+ 95808 = N 2 0
+ 95808 = N 6 0
+ 95856 = N 3 0
+ 95856 = N 6 0
+ 95904 = N 2 0
+ 95904 = N 6 0
+ 95952 = N 3 0
+ 95952 = N 6 0
+ 96000 = N 4 0
+ 96000 = N 6 0
+ 96048 = N 3 0
+ 96048 = N 6 0
+ 96096 = N 4 0
+ 96096 = N 6 0
+ 96144 = N 3 0
+ 96144 = N 6 0
+ 96192 = N 2 0
+ 96192 = N 6 0
+ 96240 = N 1 0
+ 96240 = N 6 0
+ 96288 = N 2 0
+ 96288 = N 6 0
+ 96336 = N 1 0
+ 96336 = N 6 0
+ 96384 = N 0 0
+ 96384 = N 6 0
+ 96432 = N 1 0
+ 96432 = N 6 0
+ 96480 = N 2 0
+ 96480 = N 6 0
+ 96528 = N 3 0
+ 96528 = N 6 0
+ 96576 = N 4 0
+ 96576 = N 6 0
+ 96624 = N 3 0
+ 96624 = N 6 0
+ 96672 = N 2 0
+ 96672 = N 6 0
+ 96720 = N 1 0
+ 96720 = N 6 0
+ 96768 = N 0 0
+ 96768 = N 6 0
+ 96816 = N 1 0
+ 96816 = N 6 0
+ 96864 = N 2 0
+ 96864 = N 6 0
+ 96912 = N 3 0
+ 96912 = N 6 0
+ 96960 = N 4 0
+ 96960 = N 6 0
+ 97008 = N 3 0
+ 97008 = N 6 0
+ 97056 = N 2 0
+ 97056 = N 6 0
+ 97104 = N 1 0
+ 97104 = N 6 0
+ 97152 = N 0 0
+ 97152 = N 6 0
+ 97200 = N 1 0
+ 97200 = N 6 0
+ 97248 = N 2 0
+ 97248 = N 6 0
+ 97296 = N 3 0
+ 97296 = N 6 0
+ 97344 = N 2 0
+ 97344 = N 6 0
+ 97392 = N 2 0
+ 97392 = N 6 0
+ 97440 = N 1 0
+ 97440 = N 6 0
+ 97488 = N 0 0
+ 97488 = N 6 0
+ 97536 = N 3 0
+ 97536 = N 6 0
+ 97584 = N 3 0
+ 97584 = N 6 0
+ 97632 = N 1 0
+ 97632 = N 6 0
+ 97680 = N 0 0
+ 97680 = N 6 0
+ 97728 = N 4 0
+ 97728 = N 6 0
+ 97776 = N 4 0
+ 97776 = N 6 0
+ 97824 = N 1 0
+ 97824 = N 6 0
+ 97872 = N 0 0
+ 97872 = N 6 0
+ 97920 = N 0 0
+ 97920 = N 6 0
+ 97968 = N 1 0
+ 97968 = N 6 0
+ 98016 = N 2 0
+ 98016 = N 6 0
+ 98064 = N 3 0
+ 98064 = N 6 0
+ 98112 = N 4 0
+ 98112 = N 6 0
+ 98160 = N 3 0
+ 98160 = N 6 0
+ 98208 = N 2 0
+ 98208 = N 6 0
+ 98256 = N 1 0
+ 98256 = N 6 0
+ 98304 = N 0 0
+ 98304 = N 6 0
+ 98352 = N 1 0
+ 98352 = N 6 0
+ 98400 = N 2 0
+ 98400 = N 6 0
+ 98448 = N 3 0
+ 98448 = N 6 0
+ 98496 = N 4 0
+ 98496 = N 6 0
+ 98544 = N 3 0
+ 98544 = N 6 0
+ 98592 = N 2 0
+ 98592 = N 6 0
+ 98640 = N 1 0
+ 98640 = N 6 0
+ 98688 = N 0 0
+ 98688 = N 6 0
+ 98736 = N 1 0
+ 98736 = N 6 0
+ 98784 = N 2 0
+ 98784 = N 6 0
+ 98832 = N 1 0
+ 98832 = N 6 0
+ 98880 = N 2 0
+ 98880 = N 6 0
+ 98928 = N 3 0
+ 98928 = N 6 0
+ 98976 = N 2 0
+ 98976 = N 6 0
+ 99024 = N 3 0
+ 99024 = N 6 0
+ 99072 = N 4 0
+ 99072 = N 6 0
+ 99120 = N 3 0
+ 99120 = N 6 0
+ 99168 = N 4 0
+ 99168 = N 6 0
+ 99216 = N 3 0
+ 99216 = N 6 0
+ 99264 = N 2 0
+ 99264 = N 6 0
+ 99312 = N 1 0
+ 99312 = N 6 0
+ 99360 = N 2 0
+ 99360 = N 6 0
+ 99408 = N 1 0
+ 99408 = N 6 0
+ 99456 = N 0 0
+ 99456 = N 6 0
+ 99456 = S 2 384
+ 99504 = N 1 0
+ 99504 = N 6 0
+ 99552 = N 2 0
+ 99552 = N 6 0
+ 99600 = N 3 0
+ 99600 = N 6 0
+ 99648 = N 4 0
+ 99648 = N 6 0
+ 99696 = N 3 0
+ 99696 = N 6 0
+ 99744 = N 2 0
+ 99744 = N 6 0
+ 99792 = N 1 0
+ 99792 = N 6 0
+ 99840 = N 0 0
+ 99840 = N 6 0
+ 99888 = N 1 0
+ 99888 = N 6 0
+ 99936 = N 2 0
+ 99936 = N 6 0
+ 99984 = N 3 0
+ 99984 = N 6 0
+ 100032 = N 4 0
+ 100032 = N 6 0
+ 100080 = N 3 0
+ 100080 = N 6 0
+ 100128 = N 2 0
+ 100128 = N 6 0
+ 100176 = N 1 0
+ 100176 = N 6 0
+ 100224 = N 0 0
+ 100224 = N 6 0
+ 100272 = N 1 0
+ 100272 = N 6 0
+ 100320 = N 2 0
+ 100320 = N 6 0
+ 100368 = N 3 0
+ 100368 = N 6 0
+ 100416 = N 2 0
+ 100416 = N 6 0
+ 100464 = N 2 0
+ 100464 = N 6 0
+ 100512 = N 1 0
+ 100512 = N 6 0
+ 100560 = N 0 0
+ 100560 = N 6 0
+ 100608 = N 3 0
+ 100608 = N 6 0
+ 100656 = N 3 0
+ 100656 = N 6 0
+ 100704 = N 1 0
+ 100704 = N 6 0
+ 100752 = N 0 0
+ 100752 = N 6 0
+ 100800 = N 4 0
+ 100800 = N 6 0
+ 100848 = N 4 0
+ 100848 = N 6 0
+ 100896 = N 1 0
+ 100896 = N 6 0
+ 100944 = N 0 0
+ 100944 = N 6 0
+ 100992 = N 0 0
+ 100992 = N 6 0
+ 101040 = N 1 0
+ 101040 = N 6 0
+ 101088 = N 2 0
+ 101088 = N 6 0
+ 101136 = N 3 0
+ 101136 = N 6 0
+ 101184 = N 4 0
+ 101184 = N 6 0
+ 101232 = N 3 0
+ 101232 = N 6 0
+ 101280 = N 2 0
+ 101280 = N 6 0
+ 101328 = N 1 0
+ 101328 = N 6 0
+ 101376 = N 0 0
+ 101376 = N 6 0
+ 101424 = N 1 0
+ 101424 = N 6 0
+ 101472 = N 2 0
+ 101472 = N 6 0
+ 101520 = N 3 0
+ 101520 = N 6 0
+ 101568 = N 4 0
+ 101568 = N 6 0
+ 101616 = N 3 0
+ 101616 = N 6 0
+ 101664 = N 2 0
+ 101664 = N 6 0
+ 101712 = N 1 0
+ 101712 = N 6 0
+ 101760 = N 0 0
+ 101760 = N 6 0
+ 101808 = N 1 0
+ 101808 = N 6 0
+ 101856 = N 2 0
+ 101856 = N 6 0
+ 101904 = N 1 0
+ 101904 = N 6 0
+ 101952 = N 2 0
+ 101952 = N 6 0
+ 102000 = N 3 0
+ 102000 = N 6 0
+ 102048 = N 2 0
+ 102048 = N 6 0
+ 102096 = N 3 0
+ 102096 = N 6 0
+ 102144 = N 4 0
+ 102144 = N 6 0
+ 102192 = N 3 0
+ 102192 = N 6 0
+ 102240 = N 4 0
+ 102240 = N 6 0
+ 102288 = N 3 0
+ 102288 = N 6 0
+ 102336 = N 2 0
+ 102336 = N 6 0
+ 102384 = N 1 0
+ 102384 = N 6 0
+ 102432 = N 2 0
+ 102432 = N 6 0
+ 102480 = N 1 0
+ 102480 = N 6 0
+ 102528 = N 0 0
+ 102528 = N 6 0
+ 102576 = N 1 0
+ 102576 = N 6 0
+ 102624 = N 2 0
+ 102624 = N 6 0
+ 102672 = N 3 0
+ 102672 = N 6 0
+ 102720 = N 4 0
+ 102720 = N 6 0
+ 102768 = N 3 0
+ 102768 = N 6 0
+ 102816 = N 2 0
+ 102816 = N 6 0
+ 102864 = N 1 0
+ 102864 = N 6 0
+ 102912 = N 0 0
+ 102912 = N 6 0
+ 102960 = N 1 0
+ 102960 = N 6 0
+ 103008 = N 2 0
+ 103008 = N 6 0
+ 103056 = N 3 0
+ 103056 = N 6 0
+ 103104 = N 4 0
+ 103104 = N 6 0
+ 103152 = N 3 0
+ 103152 = N 6 0
+ 103200 = N 2 0
+ 103200 = N 6 0
+ 103248 = N 1 0
+ 103248 = N 6 0
+ 103296 = N 0 0
+ 103296 = N 6 0
+ 103344 = N 1 0
+ 103344 = N 6 0
+ 103392 = N 2 0
+ 103392 = N 6 0
+ 103440 = N 3 0
+ 103440 = N 6 0
+ 103488 = N 2 0
+ 103488 = N 6 0
+ 103536 = N 2 0
+ 103536 = N 6 0
+ 103584 = N 1 0
+ 103584 = N 6 0
+ 103632 = N 0 0
+ 103632 = N 6 0
+ 103680 = N 3 0
+ 103680 = N 6 0
+ 103728 = N 3 0
+ 103728 = N 6 0
+ 103776 = N 1 0
+ 103776 = N 6 0
+ 103824 = N 0 0
+ 103824 = N 6 0
+ 103872 = N 4 0
+ 103872 = N 6 0
+ 103920 = N 4 0
+ 103920 = N 6 0
+ 103968 = N 1 0
+ 103968 = N 6 0
+ 104016 = N 0 0
+ 104016 = N 6 0
+ 104064 = N 0 0
+ 104064 = N 6 0
+ 104112 = N 1 0
+ 104112 = N 6 0
+ 104160 = N 2 0
+ 104160 = N 6 0
+ 104208 = N 3 0
+ 104208 = N 6 0
+ 104256 = N 4 0
+ 104256 = N 6 0
+ 104304 = N 3 0
+ 104304 = N 6 0
+ 104352 = N 2 0
+ 104352 = N 6 0
+ 104400 = N 1 0
+ 104400 = N 6 0
+ 104448 = N 0 0
+ 104448 = N 6 0
+ 104496 = N 1 0
+ 104496 = N 6 0
+ 104544 = N 2 0
+ 104544 = N 6 0
+ 104592 = N 3 0
+ 104592 = N 6 0
+ 104640 = N 4 0
+ 104640 = N 6 0
+ 104688 = N 3 0
+ 104688 = N 6 0
+ 104736 = N 2 0
+ 104736 = N 6 0
+ 104784 = N 1 0
+ 104784 = N 6 0
+ 104832 = N 0 0
+ 104832 = N 6 0
+ 104880 = N 1 0
+ 104880 = N 6 0
+ 104928 = N 2 0
+ 104928 = N 6 0
+ 104976 = N 1 0
+ 104976 = N 6 0
+ 105024 = N 2 0
+ 105024 = N 6 0
+ 105072 = N 3 0
+ 105072 = N 6 0
+ 105120 = N 2 0
+ 105120 = N 6 0
+ 105168 = N 3 0
+ 105168 = N 6 0
+ 105216 = N 4 0
+ 105216 = N 6 0
+ 105264 = N 3 0
+ 105264 = N 6 0
+ 105312 = N 4 0
+ 105312 = N 6 0
+ 105360 = N 3 0
+ 105360 = N 6 0
+ 105408 = N 2 160
+ 105408 = N 6 0
+ 105600 = N 4 160
+ 105792 = N 0 0
+ 105888 = N 3 0
+ 106080 = N 0 0
+ 106176 = N 1 0
+ 106224 = N 2 0
+ 106272 = N 3 0
+ 106320 = N 2 112
+ 106464 = N 3 160
+ 106464 = N 5 0
+ 106656 = N 4 0
+ 106752 = N 1 256
+ 107040 = N 3 0
+ 107040 = N 5 0
+ 107136 = N 1 0
+ 107232 = N 0 0
+ 107280 = N 1 0
+ 107328 = N 2 0
+ 107376 = N 3 0
+ 107424 = N 1 0
+ 107472 = N 2 0
+ 107520 = N 3 0
+ 107568 = N 4 0
+ 107616 = N 0 0
+ 107664 = N 1 0
+ 107712 = N 2 0
+ 107760 = N 3 0
+ 107808 = N 1 0
+ 107856 = N 2 0
+ 107904 = N 3 0
+ 107952 = N 4 0
+ 108000 = N 0 0
+ 108048 = N 1 0
+ 108096 = N 2 0
+ 108144 = N 3 0
+ 108192 = N 2 0
+ 108240 = N 1 0
+ 108288 = N 0 0
+ 108336 = N 1 0
+ 108384 = N 2 0
+ 108432 = N 3 0
+ 108480 = N 4 0
+ 108528 = N 3 0
+ 108576 = N 2 0
+ 108624 = N 3 0
+ 108672 = N 4 0
+ 108720 = N 2 0
+ 108768 = N 1 0
+ 108816 = N 2 0
+ 108864 = N 3 0
+ 108912 = N 2 0
+ 108960 = N 1 0
+ 109008 = N 2 0
+ 109056 = N 4 0
+ 109104 = N 2 0
+ 109152 = N 1 0
+ 109200 = N 2 0
+ 109248 = N 3 0
+ 109296 = N 2 0
+ 109344 = N 1 0
+ 109392 = N 2 0
+ 109440 = N 4 0
+ 109440 = S 2 1152
+ 109488 = N 2 0
+ 109536 = N 1 0
+ 109584 = N 2 0
+ 109632 = N 3 0
+ 109728 = N 3 352
+ 110112 = N 1 0
+ 110160 = N 0 0
+ 110208 = N 1 352
+ 110592 = N 1 0
+ 110656 = N 2 0
+ 110784 = N 3 0
+ 110912 = N 4 0
+ 110976 = N 4 256
+ 111264 = N 3 0
+ 111312 = N 2 0
+ 111360 = N 3 352
+ 111744 = N 2 160
+ 111936 = N 1 0
+ 112032 = N 4 160
+ 112224 = N 1 0
+ 112320 = N 4 0
+ 112416 = N 1 0
+ 112512 = N 4 0
+ 112608 = N 0 0
+ 112656 = N 1 0
+ 112704 = N 2 0
+ 112832 = N 3 0
+ 112960 = N 2 0
+ 113040 = N 3 0
+ 113088 = N 4 0
+ 113088 = N 6 0
+ 113136 = N 3 0
+ 113136 = N 6 0
+ 113184 = N 4 0
+ 113184 = N 6 0
+ 113232 = N 3 0
+ 113232 = N 6 0
+ 113280 = N 2 0
+ 113280 = N 6 0
+ 113328 = N 1 0
+ 113328 = N 6 0
+ 113376 = N 0 0
+ 113376 = N 6 0
+ 113424 = N 1 0
+ 113424 = N 6 0
+ 113472 = N 2 0
+ 113472 = N 6 0
+ 113520 = N 1 0
+ 113520 = N 6 0
+ 113568 = N 2 0
+ 113568 = N 6 0
+ 113616 = N 1 0
+ 113616 = N 6 0
+ 113664 = N 0 0
+ 113664 = N 6 0
+ 113712 = N 1 0
+ 113712 = N 6 0
+ 113760 = N 2 0
+ 113760 = N 6 0
+ 113808 = N 0 0
+ 113808 = N 6 0
+ 113856 = N 1 0
+ 113856 = N 6 0
+ 113904 = N 2 0
+ 113904 = N 6 0
+ 113952 = N 0 0
+ 113952 = N 6 0
+ 114000 = N 1 0
+ 114000 = N 6 0
+ 114048 = N 2 0
+ 114048 = N 6 0
+ 114096 = N 3 0
+ 114096 = N 6 0
+ 114144 = N 4 0
+ 114144 = N 6 0
+ 114192 = N 1 0
+ 114192 = N 6 0
+ 114240 = N 2 0
+ 114240 = N 6 0
+ 114288 = N 3 0
+ 114288 = N 6 0
+ 114336 = N 2 0
+ 114336 = N 6 0
+ 114384 = N 3 0
+ 114384 = N 6 0
+ 114432 = N 4 0
+ 114432 = N 6 0
+ 114480 = N 3 0
+ 114480 = N 6 0
+ 114528 = N 2 0
+ 114528 = N 6 0
+ 114576 = N 1 0
+ 114576 = N 6 0
+ 114624 = N 2 0
+ 114624 = N 6 0
+ 114672 = N 3 0
+ 114672 = N 6 0
+ 114720 = N 2 0
+ 114720 = N 6 0
+ 114768 = N 1 0
+ 114768 = N 6 0
+ 114816 = N 0 0
+ 114816 = N 6 0
+ 114864 = N 1 0
+ 114864 = N 6 0
+ 114912 = N 2 0
+ 114912 = N 6 0
+ 114960 = N 1 0
+ 114960 = N 6 0
+ 115008 = N 2 0
+ 115008 = N 6 0
+ 115056 = N 3 0
+ 115056 = N 6 0
+ 115104 = N 2 0
+ 115104 = N 6 0
+ 115152 = N 1 0
+ 115152 = N 6 0
+ 115200 = N 0 0
+ 115200 = N 6 0
+ 115248 = N 1 0
+ 115248 = N 6 0
+ 115296 = N 2 0
+ 115296 = N 6 0
+ 115344 = N 3 0
+ 115344 = N 6 0
+ 115392 = N 0 0
+ 115392 = N 6 0
+ 115440 = N 1 0
+ 115440 = N 6 0
+ 115488 = N 2 0
+ 115488 = N 6 0
+ 115536 = N 1 0
+ 115536 = N 6 0
+ 115584 = N 2 0
+ 115584 = N 6 0
+ 115632 = N 3 0
+ 115632 = N 6 0
+ 115680 = N 4 0
+ 115680 = N 6 0
+ 115776 = N 3 0
+ 115776 = N 6 0
+ 115824 = N 2 0
+ 115824 = N 6 0
+ 115872 = N 1 0
+ 115872 = N 6 0
+ 115920 = N 0 0
+ 115920 = N 6 0
+ 115968 = N 3 0
+ 115968 = N 6 0
+ 116016 = N 2 0
+ 116016 = N 6 0
+ 116064 = N 1 0
+ 116064 = N 6 0
+ 116112 = N 0 0
+ 116112 = N 6 0
+ 116160 = N 4 0
+ 116160 = N 6 0
+ 116208 = N 3 0
+ 116208 = N 6 0
+ 116256 = N 2 0
+ 116256 = N 6 0
+ 116304 = N 1 0
+ 116304 = N 6 0
+ 116352 = N 4 0
+ 116352 = N 6 0
+ 116400 = N 3 0
+ 116400 = N 6 0
+ 116448 = N 2 0
+ 116448 = N 6 0
+ 116496 = N 1 0
+ 116496 = N 6 0
+ 116544 = N 2 0
+ 116544 = N 6 0
+ 116592 = N 1 0
+ 116592 = N 6 0
+ 116640 = N 0 352
+ 116640 = N 6 0
+ 117024 = N 1 0
+ 117072 = N 1 0
+ 117120 = N 1 352
+ 117120 = N 2 352
+ 117504 = N 2 352
+ 117504 = N 3 352
+ 117888 = N 4 1536
+ 119424 = E soloend
+ 120192 = N 1 736
+ 120192 = N 2 736
+ 120960 = N 0 736
+ 120960 = N 1 736
+ 121728 = N 1 736
+ 121728 = N 3 736
+ 122496 = N 0 736
+ 122496 = N 2 736
+ 122496 = S 2 1920
+ 123264 = N 0 0
+ 123264 = N 3 0
+ 123360 = N 0 0
+ 123456 = N 0 0
+ 123552 = N 0 0
+ 123552 = N 3 0
+ 123648 = N 0 0
+ 123744 = N 0 0
+ 123840 = N 0 0
+ 123840 = N 3 0
+ 123936 = N 0 0
+ 124032 = N 1 1120
+ 124032 = N 2 1120
+ 125184 = N 1 352
+ 125184 = N 4 352
+ 125568 = N 2 352
+ 125568 = N 4 352
+ 125952 = N 3 352
+ 125952 = N 4 352
+ 126336 = N 1 736
+ 126336 = N 2 736
+ 127104 = N 0 736
+ 127104 = N 1 736
+ 127872 = N 1 736
+ 127872 = N 3 736
+ 128640 = N 0 736
+ 128640 = N 2 736
+ 129408 = N 1 736
+ 129408 = N 2 736
+ 130176 = N 2 0
+ 130224 = N 0 0
+ 130272 = N 0 0
+ 130320 = N 1 0
+ 130464 = N 3 0
+ 130512 = N 4 0
+ 130560 = N 3 0
+ 130656 = N 2 0
+ 130752 = N 3 0
+ 130848 = N 2 0
+ 130944 = N 1 0
+ 130992 = N 0 0
+ 131040 = N 0 0
+ 131088 = N 2 0
+ 131232 = N 3 0
+ 131280 = N 4 0
+ 131328 = N 3 0
+ 131424 = N 2 0
+ 131520 = N 3 0
+ 131616 = N 4 0
+ 131712 = N 3 0
+ 131808 = N 2 0
+ 131856 = N 3 0
+ 131904 = N 2 0
+ 132000 = N 1 0
+ 132096 = N 2 0
+ 132192 = N 3 0
+ 132240 = N 4 0
+ 132288 = N 3 0
+ 132384 = N 3 0
+ 132480 = N 1 0
+ 132576 = N 0 0
+ 132624 = N 1 0
+ 132720 = N 0 0
+ 132768 = N 3 0
+ 132864 = N 1 0
+ 132960 = N 0 0
+ 133008 = N 1 0
+ 133104 = N 0 0
+ 133152 = N 3 0
+ 133248 = N 2 0
+ 133296 = N 0 0
+ 133344 = N 0 0
+ 133392 = N 1 0
+ 133536 = N 3 0
+ 133584 = N 4 0
+ 133632 = N 3 0
+ 133728 = N 2 0
+ 133824 = N 3 0
+ 133920 = N 2 0
+ 134016 = N 1 0
+ 134064 = N 0 0
+ 134112 = N 0 0
+ 134160 = N 2 0
+ 134304 = N 3 0
+ 134352 = N 4 0
+ 134400 = N 3 0
+ 134496 = N 2 0
+ 134592 = N 3 0
+ 134688 = N 4 0
+ 134784 = N 3 0
+ 134880 = N 2 0
+ 134928 = N 3 0
+ 134976 = N 2 0
+ 135072 = N 1 0
+ 135168 = N 2 0
+ 135264 = N 3 0
+ 135312 = N 4 0
+ 135360 = N 3 0
+ 135456 = N 3 0
+ 135552 = N 1 0
+ 135648 = N 0 0
+ 135696 = N 1 0
+ 135792 = N 0 0
+ 135840 = N 3 0
+ 135936 = N 1 0
+ 136032 = N 0 0
+ 136080 = N 1 0
+ 136176 = N 0 0
+ 136224 = N 3 0
+ 136320 = N 1 0
+ 136416 = N 0 0
+ 136464 = N 1 0
+ 136560 = N 0 0
+ 136608 = N 3 0
+ 136704 = N 1 0
+ 136800 = N 0 0
+ 136848 = N 1 0
+ 136944 = N 0 0
+ 136992 = N 3 0
+ 137088 = N 1 0
+ 137184 = N 0 0
+ 137232 = N 1 0
+ 137328 = N 0 0
+ 137376 = N 3 0
+ 137472 = N 1 0
+ 137568 = N 0 0
+ 137616 = N 1 0
+ 137712 = N 0 0
+ 137760 = N 3 0
+}
+[MediumSingle]
+{
+ 2304 = N 2 0
+ 2448 = N 1 0
+ 2592 = N 3 0
+ 2688 = N 3 0
+ 2784 = N 2 0
+ 2880 = N 3 0
+ 2976 = N 2 0
+ 3072 = N 0 0
+ 3216 = N 1 0
+ 3360 = N 2 0
+ 3456 = N 2 0
+ 3552 = N 1 0
+ 3648 = N 2 0
+ 3744 = N 3 0
+ 3840 = N 2 0
+ 3936 = N 1 0
+ 4032 = N 1 0
+ 4128 = N 0 0
+ 4224 = N 1 0
+ 4320 = N 3 0
+ 4416 = N 3 0
+ 4512 = N 3 0
+ 4608 = N 0 0
+ 4752 = N 0 0
+ 4896 = N 1 0
+ 4992 = N 0 0
+ 5136 = N 0 0
+ 5280 = N 1 0
+ 5376 = N 2 0
+ 5376 = S 2 768
+ 5520 = N 1 0
+ 5664 = N 3 0
+ 5760 = N 3 0
+ 5856 = N 2 0
+ 5952 = N 3 0
+ 6048 = N 2 0
+ 6144 = N 0 0
+ 6288 = N 1 0
+ 6432 = N 2 0
+ 6528 = N 2 0
+ 6624 = N 1 0
+ 6720 = N 2 0
+ 6816 = N 3 0
+ 6912 = N 2 0
+ 7008 = N 1 0
+ 7104 = N 1 0
+ 7200 = N 0 0
+ 7296 = N 1 0
+ 7392 = N 3 0
+ 7488 = N 3 0
+ 7584 = N 3 0
+ 7680 = N 0 0
+ 7824 = N 0 0
+ 7968 = N 1 0
+ 8064 = N 0 0
+ 8208 = N 0 0
+ 8352 = N 1 0
+ 8448 = N 3 0
+ 8544 = N 3 0
+ 8640 = N 2 0
+ 8736 = N 2 0
+ 8832 = N 1 0
+ 8928 = N 1 0
+ 9024 = N 0 0
+ 9120 = N 0 0
+ 9216 = N 3 0
+ 9312 = N 3 0
+ 9408 = N 2 0
+ 9504 = N 2 0
+ 9600 = N 1 0
+ 9696 = N 1 0
+ 9792 = N 0 0
+ 9888 = N 0 0
+ 9984 = N 1 0
+ 10080 = N 0 0
+ 10176 = N 1 0
+ 10272 = N 1 144
+ 10464 = N 0 0
+ 10560 = N 1 0
+ 10656 = N 1 160
+ 10848 = N 0 0
+ 10944 = N 1 0
+ 11040 = N 1 0
+ 11136 = N 2 0
+ 11232 = N 2 0
+ 11328 = N 1 0
+ 11424 = N 0 0
+ 11520 = N 1 0
+ 11616 = N 1 160
+ 11808 = N 0 0
+ 11904 = N 1 0
+ 12000 = N 1 160
+ 12192 = N 0 0
+ 12288 = N 1 0
+ 12384 = N 1 0
+ 12480 = N 2 0
+ 12576 = N 2 0
+ 12672 = N 3 0
+ 12768 = N 3 0
+ 12864 = N 1 0
+ 12960 = N 0 0
+ 13056 = N 1 0
+ 13152 = N 1 144
+ 13344 = N 0 0
+ 13440 = N 1 0
+ 13536 = N 1 160
+ 13728 = N 0 0
+ 13824 = N 1 0
+ 13920 = N 1 0
+ 14016 = N 2 0
+ 14112 = N 2 0
+ 14208 = N 1 0
+ 14208 = S 2 768
+ 14304 = N 0 0
+ 14400 = N 1 0
+ 14496 = N 1 160
+ 14688 = N 0 0
+ 14784 = N 1 0
+ 14880 = N 1 160
+ 15072 = N 0 0
+ 15168 = N 1 0
+ 15264 = N 1 0
+ 15360 = N 2 0
+ 15456 = N 2 0
+ 15552 = N 3 0
+ 15648 = N 3 0
+ 15744 = N 1 0
+ 15840 = N 0 0
+ 15936 = N 1 0
+ 16032 = N 1 160
+ 16224 = N 0 0
+ 16320 = N 1 0
+ 16416 = N 1 160
+ 16608 = N 0 0
+ 16704 = N 1 0
+ 16800 = N 1 160
+ 16992 = N 0 0
+ 17088 = N 2 0
+ 17184 = N 0 0
+ 17280 = N 1 0
+ 17376 = N 0 0
+ 17472 = N 1 0
+ 17568 = N 1 160
+ 17760 = N 0 0
+ 17856 = N 1 0
+ 17952 = N 1 160
+ 18144 = N 0 0
+ 18240 = N 1 0
+ 18336 = N 1 160
+ 18528 = N 0 0
+ 18624 = N 2 0
+ 18720 = N 0 0
+ 18816 = N 1 0
+ 18912 = N 0 0
+ 19008 = N 1 0
+ 19104 = N 1 160
+ 19296 = N 0 0
+ 19392 = N 1 0
+ 19488 = N 1 160
+ 19680 = N 0 0
+ 19776 = N 1 0
+ 19872 = N 1 160
+ 20064 = N 0 0
+ 20160 = N 2 0
+ 20256 = N 0 0
+ 20352 = N 1 0
+ 20448 = N 0 0
+ 20544 = N 1 0
+ 20640 = N 1 160
+ 20832 = N 0 0
+ 20928 = N 1 0
+ 21024 = N 1 160
+ 21216 = N 0 0
+ 21312 = N 1 0
+ 21408 = N 1 0
+ 21504 = N 2 0
+ 21600 = N 2 256
+ 21600 = N 3 256
+ 21888 = N 1 0
+ 21984 = N 0 0
+ 22080 = N 1 0
+ 22176 = N 1 160
+ 22368 = N 0 0
+ 22464 = N 1 0
+ 22560 = N 1 160
+ 22752 = N 0 0
+ 22848 = N 1 0
+ 22944 = N 1 160
+ 23136 = N 0 0
+ 23232 = N 2 0
+ 23328 = N 0 0
+ 23424 = N 1 0
+ 23520 = N 0 0
+ 23616 = N 1 0
+ 23712 = N 1 160
+ 23904 = N 0 0
+ 24000 = N 1 0
+ 24096 = N 1 0
+ 24192 = N 1 0
+ 24192 = S 2 768
+ 24288 = N 3 0
+ 24384 = N 3 0
+ 24528 = N 2 0
+ 24672 = N 1 0
+ 24768 = N 0 0
+ 24864 = N 1 0
+ 24960 = N 1 0
+ 25056 = N 0 0
+ 25152 = N 1 0
+ 25248 = N 1 160
+ 25440 = N 0 0
+ 25536 = N 1 0
+ 25632 = N 1 160
+ 25824 = N 0 0
+ 25920 = N 1 0
+ 26016 = N 1 160
+ 26208 = N 0 0
+ 26304 = N 2 0
+ 26400 = N 0 0
+ 26496 = N 0 736
+ 26496 = N 2 736
+ 27264 = N 1 352
+ 27264 = N 2 352
+ 27744 = N 2 256
+ 27744 = N 3 256
+ 28032 = N 1 0
+ 28128 = N 0 0
+ 28224 = N 1 0
+ 28320 = N 1 160
+ 28512 = N 0 0
+ 28608 = N 1 0
+ 28704 = N 1 160
+ 28896 = N 0 0
+ 28992 = N 1 0
+ 29088 = N 1 160
+ 29280 = N 0 0
+ 29376 = N 2 0
+ 29472 = N 0 0
+ 29568 = N 1 0
+ 29664 = N 0 0
+ 29760 = N 1 0
+ 29856 = N 1 160
+ 30048 = N 0 0
+ 30144 = N 1 0
+ 30240 = N 1 0
+ 30336 = N 1 0
+ 30432 = N 3 0
+ 30528 = N 3 0
+ 30672 = N 2 0
+ 30816 = N 1 0
+ 30912 = N 0 0
+ 31008 = N 1 0
+ 31104 = N 1 0
+ 31200 = N 0 0
+ 31296 = N 1 0
+ 31392 = N 1 160
+ 31584 = N 0 0
+ 31680 = N 1 0
+ 31776 = N 1 160
+ 31968 = N 0 0
+ 32064 = N 1 0
+ 32160 = N 1 160
+ 32352 = N 0 0
+ 32448 = N 2 0
+ 32544 = N 0 0
+ 32640 = N 0 736
+ 32640 = N 2 736
+ 33408 = N 1 352
+ 33408 = N 2 352
+ 33888 = N 0 256
+ 33888 = N 1 256
+ 34176 = N 1 0
+ 34176 = S 2 1536
+ 34272 = N 0 0
+ 34368 = N 1 0
+ 34464 = N 1 160
+ 34656 = N 0 0
+ 34752 = N 1 0
+ 34848 = N 1 160
+ 35040 = N 0 0
+ 35136 = N 1 0
+ 35232 = N 1 160
+ 35424 = N 0 0
+ 35520 = N 2 0
+ 35616 = N 0 0
+ 35712 = N 1 0
+ 35808 = N 0 0
+ 35904 = N 1 0
+ 36000 = N 1 160
+ 36192 = N 0 0
+ 36288 = N 1 0
+ 36384 = N 1 0
+ 36480 = N 1 0
+ 36576 = N 3 0
+ 36672 = N 3 0
+ 36816 = N 2 0
+ 36960 = N 1 0
+ 37056 = N 0 0
+ 37152 = N 1 0
+ 37248 = N 1 0
+ 37344 = N 0 0
+ 37440 = N 1 0
+ 37536 = N 1 160
+ 37728 = N 0 0
+ 37824 = N 1 0
+ 37920 = N 1 160
+ 38112 = N 0 0
+ 38208 = N 1 0
+ 38304 = N 1 160
+ 38496 = N 0 0
+ 38592 = N 2 0
+ 38688 = N 0 0
+ 38784 = N 0 736
+ 38784 = N 2 736
+ 39552 = N 1 448
+ 39552 = N 2 448
+ 40032 = N 1 0
+ 40128 = N 2 0
+ 40320 = N 0 0
+ 40512 = N 1 0
+ 40704 = N 2 0
+ 40896 = N 0 0
+ 41088 = N 1 0
+ 41280 = N 3 0
+ 41472 = N 1 0
+ 41664 = N 0 0
+ 41856 = N 2 0
+ 42048 = N 0 0
+ 42240 = N 1 0
+ 42432 = N 1 0
+ 42624 = N 0 0
+ 42816 = N 1 0
+ 43008 = N 2 0
+ 43200 = N 0 0
+ 43392 = N 1 0
+ 43584 = N 3 0
+ 43776 = N 1 0
+ 43968 = N 0 0
+ 44160 = N 2 0
+ 44352 = N 1 0
+ 44544 = N 0 1120
+ 44544 = N 2 1120
+ 45696 = N 1 352
+ 45696 = N 2 352
+ 46080 = N 1 352
+ 46080 = N 3 352
+ 46464 = N 2 352
+ 46464 = N 3 352
+ 46848 = N 0 736
+ 46848 = N 2 736
+ 47616 = N 0 736
+ 47616 = N 1 736
+ 47616 = S 2 1536
+ 48384 = N 1 736
+ 48384 = N 3 736
+ 49152 = N 1 736
+ 49152 = N 2 736
+ 49920 = N 0 0
+ 49920 = N 1 0
+ 50112 = N 0 0
+ 50208 = N 0 0
+ 50208 = N 1 0
+ 50400 = N 0 0
+ 50496 = N 0 0
+ 50496 = N 1 0
+ 50688 = N 0 1120
+ 50688 = N 2 1120
+ 51840 = N 1 352
+ 51840 = N 2 352
+ 52224 = N 1 352
+ 52224 = N 3 352
+ 52608 = N 2 352
+ 52608 = N 3 352
+ 52992 = N 0 736
+ 52992 = N 2 736
+ 53760 = N 0 736
+ 53760 = N 1 736
+ 54528 = N 1 736
+ 54528 = N 3 736
+ 55296 = N 1 736
+ 55296 = N 2 736
+ 56064 = N 3 736
+ 56832 = N 2 0
+ 56976 = N 1 0
+ 57120 = N 3 0
+ 57216 = N 3 0
+ 57312 = N 2 0
+ 57408 = N 3 0
+ 57504 = N 2 0
+ 57600 = N 0 0
+ 57744 = N 1 0
+ 57888 = N 2 0
+ 57984 = N 2 0
+ 58080 = N 1 0
+ 58176 = N 2 0
+ 58272 = N 3 0
+ 58368 = N 2 0
+ 58464 = N 1 0
+ 58560 = N 1 0
+ 58656 = N 0 0
+ 58752 = N 1 0
+ 58848 = N 3 0
+ 58944 = N 3 0
+ 59040 = N 3 0
+ 59136 = N 0 0
+ 59136 = S 2 768
+ 59280 = N 0 0
+ 59424 = N 1 0
+ 59520 = N 0 0
+ 59664 = N 0 0
+ 59808 = N 1 0
+ 59904 = N 2 0
+ 60048 = N 1 0
+ 60192 = N 3 0
+ 60288 = N 3 0
+ 60384 = N 2 0
+ 60480 = N 3 0
+ 60576 = N 2 0
+ 60672 = N 0 0
+ 60816 = N 1 0
+ 60960 = N 2 0
+ 61056 = N 2 0
+ 61152 = N 1 0
+ 61248 = N 2 0
+ 61344 = N 3 0
+ 61440 = N 2 0
+ 61536 = N 1 0
+ 61632 = N 1 0
+ 61728 = N 0 0
+ 61824 = N 1 0
+ 61920 = N 3 0
+ 62016 = N 3 0
+ 62112 = N 3 0
+ 62208 = N 0 0
+ 62352 = N 0 0
+ 62496 = N 1 0
+ 62592 = N 0 0
+ 62736 = N 0 0
+ 62880 = N 1 0
+ 62976 = N 3 0
+ 63072 = N 3 0
+ 63168 = N 2 0
+ 63264 = N 2 0
+ 63360 = N 1 0
+ 63456 = N 1 0
+ 63552 = N 0 0
+ 63648 = N 0 0
+ 63744 = N 3 0
+ 63840 = N 3 0
+ 63936 = N 1 0
+ 64032 = N 2 0
+ 64128 = N 3 0
+ 64224 = N 3 0
+ 64320 = N 2 0
+ 64416 = N 2 0
+ 64512 = N 1 0
+ 64608 = N 0 0
+ 64704 = N 1 0
+ 64800 = N 1 160
+ 64992 = N 0 0
+ 65088 = N 1 0
+ 65184 = N 1 160
+ 65376 = N 0 0
+ 65472 = N 1 0
+ 65568 = N 1 160
+ 65760 = N 0 0
+ 65856 = N 2 0
+ 65952 = N 0 0
+ 66048 = N 1 0
+ 66144 = N 0 0
+ 66240 = N 1 0
+ 66336 = N 1 160
+ 66528 = N 0 0
+ 66624 = N 1 0
+ 66720 = N 1 0
+ 66816 = N 1 0
+ 66912 = N 3 0
+ 67008 = N 3 0
+ 67152 = N 2 0
+ 67296 = N 1 0
+ 67392 = N 0 0
+ 67488 = N 1 0
+ 67584 = N 1 0
+ 67680 = N 0 0
+ 67776 = N 1 0
+ 67872 = N 1 160
+ 68064 = N 0 0
+ 68160 = N 1 0
+ 68256 = N 1 160
+ 68448 = N 0 0
+ 68544 = N 1 0
+ 68640 = N 1 160
+ 68832 = N 0 0
+ 68928 = N 2 0
+ 69024 = N 0 0
+ 69120 = N 0 736
+ 69120 = N 2 736
+ 69120 = S 2 1536
+ 69888 = N 1 352
+ 69888 = N 2 352
+ 70368 = N 0 256
+ 70368 = N 1 256
+ 70656 = N 1 0
+ 70752 = N 0 0
+ 70848 = N 1 0
+ 70944 = N 1 160
+ 71136 = N 0 0
+ 71232 = N 1 0
+ 71328 = N 1 160
+ 71520 = N 0 0
+ 71616 = N 1 0
+ 71712 = N 1 160
+ 71904 = N 0 0
+ 72000 = N 2 0
+ 72096 = N 0 0
+ 72192 = N 0 0
+ 72288 = N 1 0
+ 72384 = N 0 0
+ 72480 = N 2 0
+ 72576 = N 1 0
+ 72672 = N 3 0
+ 72768 = N 2 0
+ 72864 = N 3 0
+ 72960 = N 0 0
+ 73056 = N 1 0
+ 73152 = N 0 0
+ 73248 = N 2 0
+ 73344 = N 3 0
+ 73440 = N 2 0
+ 73536 = N 3 160
+ 73728 = N 1 0
+ 73824 = N 0 0
+ 73920 = N 1 0
+ 74016 = N 1 160
+ 74208 = N 0 0
+ 74304 = N 1 0
+ 74400 = N 1 160
+ 74592 = N 0 0
+ 74688 = N 1 0
+ 74784 = N 1 160
+ 74976 = N 0 0
+ 75072 = N 1 0
+ 75168 = N 0 0
+ 75264 = N 0 736
+ 75264 = N 2 736
+ 76032 = N 1 0
+ 76032 = N 3 0
+ 76128 = N 1 0
+ 76224 = N 1 0
+ 76320 = N 1 0
+ 76320 = N 3 0
+ 76416 = N 1 0
+ 76512 = N 1 0
+ 76608 = N 2 0
+ 76800 = N 0 0
+ 76992 = N 1 0
+ 77184 = N 2 0
+ 77376 = N 0 0
+ 77568 = N 1 0
+ 77760 = N 3 0
+ 77952 = N 1 0
+ 78144 = N 0 0
+ 78336 = N 2 0
+ 78528 = N 0 0
+ 78720 = N 1 0
+ 78912 = N 1 0
+ 79104 = N 0 0
+ 79296 = N 1 0
+ 79488 = N 2 0
+ 79680 = N 0 0
+ 79872 = N 1 0
+ 80064 = N 3 0
+ 80256 = N 1 0
+ 80448 = N 0 0
+ 80640 = N 2 0
+ 80832 = N 1 0
+ 80928 = N 2 0
+ 81024 = N 0 1120
+ 81024 = N 2 1120
+ 81024 = S 2 1920
+ 82176 = N 1 352
+ 82176 = N 2 352
+ 82560 = N 1 352
+ 82560 = N 3 352
+ 82944 = N 2 352
+ 82944 = N 3 352
+ 83328 = N 0 736
+ 83328 = N 2 736
+ 84096 = N 0 736
+ 84096 = N 1 736
+ 84864 = N 1 736
+ 84864 = N 3 736
+ 85632 = N 1 736
+ 85632 = N 2 736
+ 86400 = N 0 0
+ 86400 = N 1 0
+ 86592 = N 0 0
+ 86688 = N 0 0
+ 86688 = N 1 0
+ 86880 = N 0 0
+ 86976 = N 0 0
+ 86976 = N 1 0
+ 87168 = N 0 1120
+ 87168 = N 2 1120
+ 88320 = N 1 352
+ 88320 = N 2 352
+ 88704 = N 1 352
+ 88704 = N 3 352
+ 89088 = N 2 352
+ 89088 = N 3 352
+ 89472 = N 0 736
+ 89472 = N 2 736
+ 90240 = N 0 736
+ 90240 = N 1 736
+ 91008 = N 1 736
+ 91008 = N 3 736
+ 91776 = N 1 736
+ 91776 = N 2 736
+ 92544 = N 0 0
+ 92544 = N 1 0
+ 92544 = S 2 768
+ 92736 = N 0 0
+ 92832 = N 0 0
+ 92832 = N 1 0
+ 93024 = N 0 0
+ 93120 = N 0 160
+ 93120 = N 1 160
+ 93312 = N 0 0
+ 93312 = N 6 0
+ 93312 = E solo
+ 93408 = N 1 0
+ 93408 = N 6 0
+ 93504 = N 2 0
+ 93504 = N 6 0
+ 93600 = N 1 0
+ 93600 = N 6 0
+ 93696 = N 0 0
+ 93696 = N 6 0
+ 93792 = N 1 0
+ 93792 = N 6 0
+ 93888 = N 2 0
+ 93888 = N 6 0
+ 93984 = N 1 0
+ 93984 = N 6 0
+ 94080 = N 0 0
+ 94080 = N 6 0
+ 94176 = N 1 0
+ 94176 = N 6 0
+ 94272 = N 1 0
+ 94272 = N 6 0
+ 94368 = N 0 0
+ 94368 = N 6 0
+ 94464 = N 2 0
+ 94464 = N 6 0
+ 94560 = N 1 0
+ 94560 = N 6 0
+ 94656 = N 3 0
+ 94656 = N 6 0
+ 94752 = N 2 0
+ 94752 = N 6 0
+ 94848 = N 0 0
+ 94848 = N 6 0
+ 94944 = N 1 0
+ 94944 = N 6 0
+ 95040 = N 2 0
+ 95040 = N 6 0
+ 95136 = N 1 0
+ 95136 = N 6 0
+ 95232 = N 0 0
+ 95232 = N 6 0
+ 95328 = N 1 0
+ 95328 = N 6 0
+ 95424 = N 2 0
+ 95424 = N 6 0
+ 95520 = N 1 0
+ 95520 = N 6 0
+ 95616 = N 0 0
+ 95616 = N 6 0
+ 95712 = N 1 0
+ 95712 = N 6 0
+ 95808 = N 2 0
+ 95808 = N 6 0
+ 95904 = N 3 0
+ 95904 = N 6 0
+ 96000 = N 3 0
+ 96000 = N 6 0
+ 96096 = N 2 0
+ 96096 = N 6 0
+ 96192 = N 1 0
+ 96192 = N 6 0
+ 96288 = N 1 0
+ 96288 = N 6 0
+ 96384 = N 0 0
+ 96384 = N 6 0
+ 96480 = N 1 0
+ 96480 = N 6 0
+ 96576 = N 2 0
+ 96576 = N 6 0
+ 96672 = N 1 0
+ 96672 = N 6 0
+ 96768 = N 0 0
+ 96768 = N 6 0
+ 96864 = N 1 0
+ 96864 = N 6 0
+ 96960 = N 2 0
+ 96960 = N 6 0
+ 97056 = N 1 0
+ 97056 = N 6 0
+ 97152 = N 0 0
+ 97152 = N 6 0
+ 97248 = N 1 0
+ 97248 = N 6 0
+ 97344 = N 1 0
+ 97344 = N 6 0
+ 97440 = N 0 0
+ 97440 = N 6 0
+ 97536 = N 2 0
+ 97536 = N 6 0
+ 97632 = N 1 0
+ 97632 = N 6 0
+ 97728 = N 3 0
+ 97728 = N 6 0
+ 97824 = N 2 0
+ 97824 = N 6 0
+ 97920 = N 0 0
+ 97920 = N 6 0
+ 98016 = N 1 0
+ 98016 = N 6 0
+ 98112 = N 2 0
+ 98112 = N 6 0
+ 98208 = N 1 0
+ 98208 = N 6 0
+ 98304 = N 0 0
+ 98304 = N 6 0
+ 98400 = N 1 0
+ 98400 = N 6 0
+ 98496 = N 2 0
+ 98496 = N 6 0
+ 98592 = N 1 0
+ 98592 = N 6 0
+ 98688 = N 0 0
+ 98688 = N 6 0
+ 98784 = N 1 0
+ 98784 = N 6 0
+ 98880 = N 2 0
+ 98880 = N 6 0
+ 98976 = N 3 0
+ 98976 = N 6 0
+ 99072 = N 3 0
+ 99072 = N 6 0
+ 99168 = N 2 0
+ 99168 = N 6 0
+ 99264 = N 1 0
+ 99264 = N 6 0
+ 99360 = N 1 0
+ 99360 = N 6 0
+ 99456 = N 0 0
+ 99456 = N 6 0
+ 99456 = S 2 384
+ 99552 = N 1 0
+ 99552 = N 6 0
+ 99648 = N 2 0
+ 99648 = N 6 0
+ 99744 = N 1 0
+ 99744 = N 6 0
+ 99840 = N 0 0
+ 99840 = N 6 0
+ 99936 = N 1 0
+ 99936 = N 6 0
+ 100032 = N 2 0
+ 100032 = N 6 0
+ 100128 = N 1 0
+ 100128 = N 6 0
+ 100224 = N 0 0
+ 100224 = N 6 0
+ 100320 = N 1 0
+ 100320 = N 6 0
+ 100416 = N 1 0
+ 100416 = N 6 0
+ 100512 = N 0 0
+ 100512 = N 6 0
+ 100608 = N 2 0
+ 100608 = N 6 0
+ 100704 = N 1 0
+ 100704 = N 6 0
+ 100800 = N 3 0
+ 100800 = N 6 0
+ 100896 = N 2 0
+ 100896 = N 6 0
+ 100992 = N 0 0
+ 100992 = N 6 0
+ 101088 = N 1 0
+ 101088 = N 6 0
+ 101184 = N 2 0
+ 101184 = N 6 0
+ 101280 = N 1 0
+ 101280 = N 6 0
+ 101376 = N 0 0
+ 101376 = N 6 0
+ 101472 = N 1 0
+ 101472 = N 6 0
+ 101568 = N 2 0
+ 101568 = N 6 0
+ 101664 = N 1 0
+ 101664 = N 6 0
+ 101760 = N 0 0
+ 101760 = N 6 0
+ 101856 = N 1 0
+ 101856 = N 6 0
+ 101952 = N 2 0
+ 101952 = N 6 0
+ 102048 = N 3 0
+ 102048 = N 6 0
+ 102144 = N 3 0
+ 102144 = N 6 0
+ 102240 = N 2 0
+ 102240 = N 6 0
+ 102336 = N 1 0
+ 102336 = N 6 0
+ 102432 = N 1 0
+ 102432 = N 6 0
+ 102528 = N 0 0
+ 102528 = N 6 0
+ 102624 = N 1 0
+ 102624 = N 6 0
+ 102720 = N 2 0
+ 102720 = N 6 0
+ 102816 = N 1 0
+ 102816 = N 6 0
+ 102912 = N 0 0
+ 102912 = N 6 0
+ 103008 = N 1 0
+ 103008 = N 6 0
+ 103104 = N 2 0
+ 103104 = N 6 0
+ 103200 = N 1 0
+ 103200 = N 6 0
+ 103296 = N 0 0
+ 103296 = N 6 0
+ 103392 = N 1 0
+ 103392 = N 6 0
+ 103488 = N 1 0
+ 103488 = N 6 0
+ 103584 = N 0 0
+ 103584 = N 6 0
+ 103680 = N 2 0
+ 103680 = N 6 0
+ 103776 = N 1 0
+ 103776 = N 6 0
+ 103872 = N 3 0
+ 103872 = N 6 0
+ 103968 = N 2 0
+ 103968 = N 6 0
+ 104064 = N 0 0
+ 104064 = N 6 0
+ 104160 = N 1 0
+ 104160 = N 6 0
+ 104256 = N 2 0
+ 104256 = N 6 0
+ 104352 = N 1 0
+ 104352 = N 6 0
+ 104448 = N 0 0
+ 104448 = N 6 0
+ 104544 = N 1 0
+ 104544 = N 6 0
+ 104640 = N 2 0
+ 104640 = N 6 0
+ 104736 = N 1 0
+ 104736 = N 6 0
+ 104832 = N 0 0
+ 104832 = N 6 0
+ 104928 = N 1 0
+ 104928 = N 6 0
+ 105024 = N 2 0
+ 105024 = N 6 0
+ 105120 = N 3 0
+ 105120 = N 6 0
+ 105216 = N 3 0
+ 105216 = N 6 0
+ 105312 = N 2 0
+ 105312 = N 6 0
+ 105408 = N 1 0
+ 105408 = N 6 0
+ 105504 = N 1 0
+ 105504 = N 6 0
+ 105600 = N 3 160
+ 105888 = N 2 0
+ 106080 = N 0 0
+ 106176 = N 1 256
+ 106464 = N 2 160
+ 106464 = N 5 0
+ 106656 = N 3 0
+ 106752 = N 0 352
+ 107136 = N 1 0
+ 107232 = N 0 0
+ 107328 = N 1 0
+ 107424 = N 0 0
+ 107520 = N 2 0
+ 107616 = N 1 0
+ 107712 = N 3 0
+ 107808 = N 2 0
+ 107904 = N 1 0
+ 108000 = N 0 0
+ 108096 = N 2 0
+ 108192 = N 1 0
+ 108288 = N 0 0
+ 108384 = N 1 0
+ 108480 = N 2 0
+ 108576 = N 1 0
+ 108672 = N 3 0
+ 108768 = N 1 0
+ 108864 = N 2 0
+ 108960 = N 1 0
+ 109056 = N 3 0
+ 109152 = N 1 0
+ 109248 = N 2 0
+ 109344 = N 1 0
+ 109440 = N 3 0
+ 109440 = S 2 1152
+ 109536 = N 1 0
+ 109632 = N 2 0
+ 109728 = N 2 352
+ 110112 = N 1 0
+ 110208 = N 1 352
+ 110656 = N 1 0
+ 110784 = N 2 0
+ 110976 = N 3 256
+ 111264 = N 2 0
+ 111360 = N 2 352
+ 111744 = N 1 160
+ 111936 = N 0 0
+ 112032 = N 3 160
+ 112224 = N 0 0
+ 112320 = N 3 0
+ 112416 = N 0 0
+ 112512 = N 3 0
+ 112704 = N 2 0
+ 112832 = N 3 0
+ 112960 = N 2 0
+ 113088 = N 3 0
+ 113088 = N 6 0
+ 113184 = N 3 0
+ 113184 = N 6 0
+ 113280 = N 2 0
+ 113280 = N 6 0
+ 113376 = N 1 0
+ 113376 = N 6 0
+ 113472 = N 2 0
+ 113472 = N 6 0
+ 113568 = N 1 0
+ 113568 = N 6 0
+ 113664 = N 0 0
+ 113664 = N 6 0
+ 113760 = N 1 0
+ 113760 = N 6 0
+ 113856 = N 0 0
+ 113856 = N 6 0
+ 113952 = N 1 0
+ 113952 = N 6 0
+ 114048 = N 1 0
+ 114048 = N 6 0
+ 114144 = N 2 0
+ 114144 = N 6 0
+ 114240 = N 1 0
+ 114240 = N 6 0
+ 114336 = N 2 0
+ 114336 = N 6 0
+ 114432 = N 3 0
+ 114432 = N 6 0
+ 114528 = N 2 0
+ 114528 = N 6 0
+ 114624 = N 1 0
+ 114624 = N 6 0
+ 114720 = N 0 0
+ 114720 = N 6 0
+ 114816 = N 0 0
+ 114816 = N 6 0
+ 114912 = N 1 0
+ 114912 = N 6 0
+ 115008 = N 2 0
+ 115008 = N 6 0
+ 115104 = N 1 0
+ 115104 = N 6 0
+ 115200 = N 0 0
+ 115200 = N 6 0
+ 115296 = N 1 0
+ 115296 = N 6 0
+ 115392 = N 2 0
+ 115392 = N 6 0
+ 115488 = N 1 0
+ 115488 = N 6 0
+ 115584 = N 2 0
+ 115584 = N 6 0
+ 115680 = N 3 0
+ 115680 = N 6 0
+ 115776 = N 2 0
+ 115776 = N 6 0
+ 115872 = N 1 0
+ 115872 = N 6 0
+ 115968 = N 2 0
+ 115968 = N 6 0
+ 116064 = N 1 0
+ 116064 = N 6 0
+ 116160 = N 0 0
+ 116160 = N 6 0
+ 116256 = N 3 0
+ 116256 = N 6 0
+ 116352 = N 2 0
+ 116352 = N 6 0
+ 116448 = N 1 0
+ 116448 = N 6 0
+ 116544 = N 0 0
+ 116544 = N 6 0
+ 116640 = N 0 352
+ 116640 = N 6 0
+ 117120 = N 0 352
+ 117120 = N 1 352
+ 117504 = N 1 352
+ 117504 = N 2 352
+ 117888 = N 3 1536
+ 119424 = E soloend
+ 120192 = N 0 736
+ 120192 = N 2 736
+ 120960 = N 0 736
+ 120960 = N 1 736
+ 121728 = N 1 736
+ 121728 = N 3 736
+ 122496 = N 1 736
+ 122496 = N 2 736
+ 122496 = S 2 1920
+ 123264 = N 0 0
+ 123264 = N 1 0
+ 123456 = N 0 0
+ 123552 = N 0 0
+ 123552 = N 1 0
+ 123744 = N 0 0
+ 123840 = N 0 0
+ 123840 = N 1 0
+ 124032 = N 0 1120
+ 124032 = N 2 1120
+ 125184 = N 1 352
+ 125184 = N 2 352
+ 125568 = N 1 352
+ 125568 = N 3 352
+ 125952 = N 2 352
+ 125952 = N 3 352
+ 126336 = N 0 736
+ 126336 = N 2 736
+ 127104 = N 0 736
+ 127104 = N 1 736
+ 127872 = N 1 736
+ 127872 = N 3 736
+ 128640 = N 1 736
+ 128640 = N 2 736
+ 129408 = N 1 736
+ 129408 = N 2 736
+ 130176 = N 2 0
+ 130320 = N 1 0
+ 130464 = N 3 0
+ 130560 = N 3 0
+ 130656 = N 2 0
+ 130752 = N 3 0
+ 130848 = N 2 0
+ 130944 = N 0 0
+ 131088 = N 1 0
+ 131232 = N 2 0
+ 131328 = N 2 0
+ 131424 = N 1 0
+ 131520 = N 2 0
+ 131616 = N 3 0
+ 131712 = N 2 0
+ 131808 = N 1 0
+ 131904 = N 1 0
+ 132000 = N 0 0
+ 132096 = N 1 0
+ 132192 = N 3 0
+ 132288 = N 3 0
+ 132384 = N 3 0
+ 132480 = N 0 0
+ 132624 = N 0 0
+ 132768 = N 1 0
+ 132864 = N 0 0
+ 133008 = N 0 0
+ 133152 = N 1 0
+ 133248 = N 2 0
+ 133392 = N 1 0
+ 133536 = N 3 0
+ 133632 = N 3 0
+ 133728 = N 2 0
+ 133824 = N 3 0
+ 133920 = N 2 0
+ 134016 = N 0 0
+ 134160 = N 1 0
+ 134304 = N 2 0
+ 134400 = N 2 0
+ 134496 = N 1 0
+ 134592 = N 2 0
+ 134688 = N 3 0
+ 134784 = N 2 0
+ 134880 = N 1 0
+ 134976 = N 1 0
+ 135072 = N 0 0
+ 135168 = N 1 0
+ 135264 = N 3 0
+ 135360 = N 3 0
+ 135456 = N 3 0
+ 135552 = N 0 0
+ 135696 = N 0 0
+ 135840 = N 1 0
+ 135936 = N 0 0
+ 136080 = N 0 0
+ 136224 = N 1 0
+ 136320 = N 0 0
+ 136464 = N 0 0
+ 136608 = N 1 0
+ 136704 = N 0 0
+ 136848 = N 0 0
+ 136992 = N 1 0
+ 137088 = N 0 0
+ 137232 = N 0 0
+ 137376 = N 1 0
+ 137472 = N 0 0
+ 137616 = N 0 0
+ 137760 = N 1 0
+}
+[EasySingle]
+{
+ 2304 = N 1 0
+ 2448 = N 0 0
+ 2688 = N 2 0
+ 2880 = N 1 0
+ 3072 = N 0 0
+ 3216 = N 1 0
+ 3456 = N 2 0
+ 3648 = N 1 0
+ 3840 = N 2 0
+ 4032 = N 0 0
+ 4224 = N 1 0
+ 4416 = N 2 0
+ 4608 = N 0 0
+ 4752 = N 0 0
+ 4992 = N 0 0
+ 5136 = N 0 0
+ 5376 = N 1 0
+ 5376 = S 2 768
+ 5520 = N 0 0
+ 5760 = N 2 0
+ 5952 = N 1 0
+ 6144 = N 0 0
+ 6288 = N 1 0
+ 6528 = N 2 0
+ 6720 = N 1 0
+ 6912 = N 2 0
+ 7104 = N 0 0
+ 7296 = N 1 0
+ 7488 = N 2 0
+ 7680 = N 0 0
+ 7824 = N 0 0
+ 8064 = N 0 0
+ 8208 = N 0 0
+ 8448 = N 2 0
+ 8640 = N 2 0
+ 8832 = N 1 0
+ 9024 = N 1 0
+ 9216 = N 2 0
+ 9408 = N 2 0
+ 9600 = N 1 0
+ 9792 = N 1 0
+ 9984 = N 0 0
+ 10176 = N 0 0
+ 10272 = N 0 144
+ 10560 = N 0 0
+ 10656 = N 0 160
+ 10944 = N 1 0
+ 11136 = N 2 0
+ 11328 = N 0 0
+ 11520 = N 0 0
+ 11616 = N 0 160
+ 11904 = N 0 0
+ 12000 = N 0 160
+ 12288 = N 0 0
+ 12480 = N 1 0
+ 12672 = N 2 0
+ 12864 = N 0 0
+ 13056 = N 0 0
+ 13152 = N 0 144
+ 13440 = N 0 0
+ 13536 = N 0 160
+ 13824 = N 1 0
+ 14016 = N 2 0
+ 14208 = N 0 0
+ 14208 = S 2 768
+ 14400 = N 0 0
+ 14496 = N 0 160
+ 14784 = N 0 0
+ 14880 = N 0 160
+ 15168 = N 0 0
+ 15360 = N 1 0
+ 15552 = N 2 0
+ 15744 = N 0 0
+ 15936 = N 0 0
+ 16032 = N 0 160
+ 16320 = N 0 0
+ 16416 = N 0 160
+ 16704 = N 0 0
+ 16800 = N 0 160
+ 17088 = N 1 0
+ 17280 = N 0 0
+ 17472 = N 0 0
+ 17568 = N 0 160
+ 17856 = N 0 0
+ 17952 = N 0 160
+ 18240 = N 0 0
+ 18336 = N 0 160
+ 18624 = N 1 0
+ 18816 = N 0 0
+ 19008 = N 0 0
+ 19104 = N 0 160
+ 19392 = N 0 0
+ 19488 = N 0 160
+ 19776 = N 0 0
+ 19872 = N 0 160
+ 20160 = N 1 0
+ 20352 = N 0 0
+ 20544 = N 0 0
+ 20640 = N 0 160
+ 20928 = N 0 0
+ 21024 = N 0 160
+ 21312 = N 0 0
+ 21600 = N 2 256
+ 21888 = N 0 0
+ 22080 = N 0 0
+ 22176 = N 0 160
+ 22464 = N 0 0
+ 22560 = N 0 160
+ 22848 = N 0 0
+ 22944 = N 0 160
+ 23232 = N 1 0
+ 23424 = N 0 0
+ 23616 = N 0 0
+ 23712 = N 0 160
+ 24000 = N 0 0
+ 24192 = N 0 0
+ 24192 = S 2 768
+ 24384 = N 2 0
+ 24528 = N 1 0
+ 24768 = N 0 0
+ 24960 = N 1 0
+ 25152 = N 1 0
+ 25248 = N 1 160
+ 25536 = N 1 0
+ 25632 = N 1 160
+ 25920 = N 1 0
+ 26016 = N 1 160
+ 26304 = N 2 0
+ 26496 = N 0 736
+ 27264 = N 1 352
+ 27744 = N 2 256
+ 28032 = N 0 0
+ 28224 = N 0 0
+ 28320 = N 0 160
+ 28608 = N 0 0
+ 28704 = N 0 160
+ 28992 = N 0 0
+ 29088 = N 0 160
+ 29376 = N 1 0
+ 29568 = N 0 0
+ 29760 = N 0 0
+ 29856 = N 0 160
+ 30144 = N 0 0
+ 30336 = N 0 0
+ 30528 = N 2 0
+ 30672 = N 1 0
+ 30912 = N 0 0
+ 31104 = N 0 0
+ 31296 = N 0 0
+ 31392 = N 0 160
+ 31776 = N 0 160
+ 32064 = N 0 0
+ 32160 = N 0 160
+ 32448 = N 1 0
+ 32640 = N 1 736
+ 33408 = N 2 352
+ 33888 = N 0 256
+ 34176 = N 0 0
+ 34176 = S 2 1536
+ 34368 = N 0 0
+ 34464 = N 0 160
+ 34752 = N 0 0
+ 34848 = N 0 160
+ 35136 = N 0 0
+ 35232 = N 0 160
+ 35520 = N 1 0
+ 35712 = N 0 0
+ 35904 = N 0 0
+ 36000 = N 0 160
+ 36288 = N 0 0
+ 36480 = N 0 0
+ 36672 = N 2 0
+ 36816 = N 1 0
+ 37056 = N 0 0
+ 37248 = N 0 0
+ 37440 = N 0 0
+ 37536 = N 0 160
+ 37824 = N 0 0
+ 37920 = N 0 160
+ 38208 = N 0 0
+ 38304 = N 0 160
+ 38592 = N 1 0
+ 38784 = N 0 736
+ 39552 = N 1 448
+ 40128 = N 2 0
+ 40320 = N 0 0
+ 40512 = N 1 0
+ 40704 = N 2 0
+ 40896 = N 0 0
+ 41088 = N 1 0
+ 41280 = N 2 0
+ 41472 = N 1 0
+ 41664 = N 0 0
+ 41856 = N 2 0
+ 42048 = N 0 0
+ 42240 = N 1 0
+ 42432 = N 1 0
+ 42624 = N 0 0
+ 42816 = N 1 0
+ 43008 = N 2 0
+ 43200 = N 0 0
+ 43392 = N 1 0
+ 43584 = N 2 0
+ 43776 = N 1 0
+ 43968 = N 0 0
+ 44160 = N 2 0
+ 44352 = N 1 0
+ 44544 = N 0 1120
+ 45696 = N 2 352
+ 46080 = N 1 352
+ 46464 = N 2 352
+ 46848 = N 1 736
+ 47616 = N 0 736
+ 47616 = S 2 1536
+ 48384 = N 2 736
+ 49152 = N 1 736
+ 49920 = N 0 0
+ 50208 = N 0 0
+ 50496 = N 0 0
+ 50688 = N 0 1120
+ 51840 = N 2 352
+ 52224 = N 1 352
+ 52608 = N 2 352
+ 52992 = N 1 736
+ 53760 = N 0 736
+ 54528 = N 2 736
+ 55296 = N 1 736
+ 56064 = N 2 736
+ 56832 = N 1 0
+ 56976 = N 0 0
+ 57216 = N 2 0
+ 57408 = N 1 0
+ 57600 = N 0 0
+ 57744 = N 1 0
+ 57984 = N 2 0
+ 58176 = N 1 0
+ 58368 = N 2 0
+ 58560 = N 0 0
+ 58752 = N 1 0
+ 58944 = N 2 0
+ 59136 = N 0 0
+ 59136 = S 2 768
+ 59280 = N 0 0
+ 59520 = N 0 0
+ 59664 = N 0 0
+ 59904 = N 1 0
+ 60048 = N 0 0
+ 60288 = N 2 0
+ 60480 = N 1 0
+ 60672 = N 0 0
+ 60816 = N 1 0
+ 61056 = N 2 0
+ 61248 = N 1 0
+ 61440 = N 2 0
+ 61632 = N 0 0
+ 61824 = N 1 0
+ 62016 = N 2 0
+ 62208 = N 0 0
+ 62352 = N 0 0
+ 62592 = N 0 0
+ 62736 = N 0 0
+ 62976 = N 2 0
+ 63168 = N 2 0
+ 63360 = N 1 0
+ 63552 = N 1 0
+ 63744 = N 0 0
+ 63936 = N 1 0
+ 64128 = N 2 0
+ 64320 = N 1 0
+ 64512 = N 0 0
+ 64704 = N 0 0
+ 64800 = N 0 160
+ 65088 = N 0 0
+ 65184 = N 0 160
+ 65472 = N 0 0
+ 65568 = N 0 160
+ 65856 = N 1 0
+ 66048 = N 0 0
+ 66240 = N 0 0
+ 66336 = N 0 160
+ 66624 = N 0 0
+ 66816 = N 0 0
+ 67008 = N 2 0
+ 67152 = N 1 0
+ 67392 = N 0 0
+ 67584 = N 0 0
+ 67776 = N 0 0
+ 67872 = N 0 160
+ 68256 = N 0 160
+ 68544 = N 0 0
+ 68640 = N 0 160
+ 68928 = N 1 0
+ 69120 = N 1 736
+ 69120 = S 2 1536
+ 69888 = N 2 352
+ 70368 = N 0 256
+ 70656 = N 0 0
+ 70848 = N 0 0
+ 70944 = N 0 160
+ 71232 = N 0 0
+ 71328 = N 0 160
+ 71616 = N 0 0
+ 71712 = N 0 160
+ 72000 = N 1 0
+ 72192 = N 0 0
+ 72288 = N 1 0
+ 72384 = N 0 0
+ 72576 = N 0 0
+ 72672 = N 2 0
+ 72768 = N 0 0
+ 72960 = N 1 0
+ 73056 = N 2 0
+ 73152 = N 1 0
+ 73344 = N 1 0
+ 73440 = N 0 0
+ 73536 = N 2 160
+ 73728 = N 0 0
+ 73920 = N 0 0
+ 74016 = N 0 160
+ 74304 = N 0 0
+ 74400 = N 0 160
+ 74688 = N 0 0
+ 74784 = N 0 160
+ 75072 = N 1 0
+ 75264 = N 0 736
+ 76032 = N 1 448
+ 76608 = N 2 0
+ 76800 = N 0 0
+ 76992 = N 1 0
+ 77184 = N 2 0
+ 77376 = N 0 0
+ 77568 = N 1 0
+ 77760 = N 2 0
+ 77952 = N 1 0
+ 78144 = N 0 0
+ 78336 = N 2 0
+ 78528 = N 0 0
+ 78720 = N 1 0
+ 78912 = N 1 0
+ 79104 = N 0 0
+ 79296 = N 1 0
+ 79488 = N 2 0
+ 79680 = N 0 0
+ 79872 = N 1 0
+ 80064 = N 2 0
+ 80256 = N 1 0
+ 80448 = N 0 0
+ 80640 = N 2 0
+ 80832 = N 1 0
+ 80928 = N 2 0
+ 81024 = N 0 1120
+ 81024 = S 2 1920
+ 82176 = N 2 352
+ 82560 = N 1 352
+ 82944 = N 2 352
+ 83328 = N 1 736
+ 84096 = N 0 736
+ 84864 = N 2 736
+ 85632 = N 1 736
+ 86400 = N 0 0
+ 86688 = N 0 0
+ 86976 = N 0 0
+ 87168 = N 0 1120
+ 88320 = N 2 352
+ 88704 = N 1 352
+ 89088 = N 2 352
+ 89472 = N 1 736
+ 90240 = N 0 736
+ 91008 = N 2 736
+ 91776 = N 1 736
+ 92544 = N 0 0
+ 92544 = S 2 768
+ 92832 = N 0 0
+ 93120 = N 0 160
+ 93312 = N 0 0
+ 93312 = N 6 0
+ 93312 = E solo
+ 93504 = N 1 0
+ 93504 = N 6 0
+ 93696 = N 0 0
+ 93696 = N 6 0
+ 93888 = N 1 0
+ 93888 = N 6 0
+ 94080 = N 0 0
+ 94080 = N 6 0
+ 94272 = N 0 0
+ 94272 = N 6 0
+ 94464 = N 1 0
+ 94464 = N 6 0
+ 94656 = N 2 0
+ 94656 = N 6 0
+ 94848 = N 0 0
+ 94848 = N 6 0
+ 95040 = N 1 0
+ 95040 = N 6 0
+ 95232 = N 0 0
+ 95232 = N 6 0
+ 95424 = N 1 0
+ 95424 = N 6 0
+ 95616 = N 0 0
+ 95616 = N 6 0
+ 95808 = N 1 0
+ 95808 = N 6 0
+ 96000 = N 2 0
+ 96000 = N 6 0
+ 96192 = N 1 0
+ 96192 = N 6 0
+ 96384 = N 0 0
+ 96384 = N 6 0
+ 96576 = N 1 0
+ 96576 = N 6 0
+ 96768 = N 0 0
+ 96768 = N 6 0
+ 96960 = N 1 0
+ 96960 = N 6 0
+ 97152 = N 0 0
+ 97152 = N 6 0
+ 97344 = N 0 0
+ 97344 = N 6 0
+ 97536 = N 1 0
+ 97536 = N 6 0
+ 97728 = N 2 0
+ 97728 = N 6 0
+ 97920 = N 0 0
+ 97920 = N 6 0
+ 98112 = N 1 0
+ 98112 = N 6 0
+ 98304 = N 0 0
+ 98304 = N 6 0
+ 98496 = N 1 0
+ 98496 = N 6 0
+ 98688 = N 0 0
+ 98688 = N 6 0
+ 98880 = N 1 0
+ 98880 = N 6 0
+ 99072 = N 2 0
+ 99072 = N 6 0
+ 99264 = N 1 0
+ 99264 = N 6 0
+ 99456 = N 0 0
+ 99456 = N 6 0
+ 99456 = S 2 384
+ 99648 = N 1 0
+ 99648 = N 6 0
+ 99840 = N 0 0
+ 99840 = N 6 0
+ 100032 = N 1 0
+ 100032 = N 6 0
+ 100224 = N 0 0
+ 100224 = N 6 0
+ 100416 = N 0 0
+ 100416 = N 6 0
+ 100608 = N 1 0
+ 100608 = N 6 0
+ 100800 = N 2 0
+ 100800 = N 6 0
+ 100992 = N 0 0
+ 100992 = N 6 0
+ 101184 = N 1 0
+ 101184 = N 6 0
+ 101376 = N 0 0
+ 101376 = N 6 0
+ 101568 = N 1 0
+ 101568 = N 6 0
+ 101760 = N 0 0
+ 101760 = N 6 0
+ 101952 = N 1 0
+ 101952 = N 6 0
+ 102144 = N 2 0
+ 102144 = N 6 0
+ 102336 = N 1 0
+ 102336 = N 6 0
+ 102528 = N 0 0
+ 102528 = N 6 0
+ 102720 = N 1 0
+ 102720 = N 6 0
+ 102912 = N 0 0
+ 102912 = N 6 0
+ 103104 = N 1 0
+ 103104 = N 6 0
+ 103296 = N 0 0
+ 103296 = N 6 0
+ 103488 = N 0 0
+ 103488 = N 6 0
+ 103680 = N 1 0
+ 103680 = N 6 0
+ 103872 = N 2 0
+ 103872 = N 6 0
+ 104064 = N 0 0
+ 104064 = N 6 0
+ 104256 = N 1 0
+ 104256 = N 6 0
+ 104448 = N 0 0
+ 104448 = N 6 0
+ 104640 = N 1 0
+ 104640 = N 6 0
+ 104832 = N 0 0
+ 104832 = N 6 0
+ 105024 = N 1 0
+ 105024 = N 6 0
+ 105216 = N 2 0
+ 105216 = N 6 0
+ 105408 = N 1 0
+ 105408 = N 6 0
+ 105600 = N 2 160
+ 105888 = N 0 0
+ 106176 = N 1 256
+ 106464 = N 2 160
+ 106464 = N 5 0
+ 106752 = N 0 352
+ 107136 = N 0 0
+ 107328 = N 0 0
+ 107520 = N 1 0
+ 107712 = N 2 0
+ 107904 = N 1 0
+ 108096 = N 2 0
+ 108288 = N 0 0
+ 108480 = N 1 0
+ 108672 = N 2 0
+ 108864 = N 1 0
+ 109056 = N 2 0
+ 109248 = N 1 0
+ 109440 = N 2 0
+ 109440 = S 2 1152
+ 109632 = N 1 0
+ 109728 = N 1 352
+ 110112 = N 0 0
+ 110208 = N 0 352
+ 110656 = N 1 0
+ 110976 = N 2 256
+ 111264 = N 1 0
+ 111360 = N 1 352
+ 111744 = N 0 160
+ 112032 = N 2 192
+ 112320 = N 2 0
+ 112512 = N 2 0
+ 112704 = N 0 0
+ 113088 = N 2 0
+ 113088 = N 6 0
+ 113280 = N 1 0
+ 113280 = N 6 0
+ 113472 = N 1 0
+ 113472 = N 6 0
+ 113664 = N 0 0
+ 113664 = N 6 0
+ 113856 = N 0 0
+ 113856 = N 6 0
+ 114048 = N 1 0
+ 114048 = N 6 0
+ 114240 = N 1 0
+ 114240 = N 6 0
+ 114432 = N 2 0
+ 114432 = N 6 0
+ 114624 = N 1 0
+ 114624 = N 6 0
+ 114816 = N 0 0
+ 114816 = N 6 0
+ 115008 = N 1 0
+ 115008 = N 6 0
+ 115200 = N 0 0
+ 115200 = N 6 0
+ 115392 = N 1 0
+ 115392 = N 6 0
+ 115584 = N 2 0
+ 115584 = N 6 0
+ 115776 = N 1 0
+ 115776 = N 6 0
+ 115968 = N 0 0
+ 115968 = N 6 0
+ 116160 = N 2 0
+ 116160 = N 6 0
+ 116352 = N 1 0
+ 116352 = N 6 0
+ 116544 = N 0 0
+ 116544 = N 6 0
+ 116640 = N 0 352
+ 116640 = N 6 0
+ 117120 = N 0 352
+ 117504 = N 1 352
+ 117888 = N 2 1536
+ 119424 = E soloend
+ 120192 = N 1 736
+ 120960 = N 0 736
+ 121728 = N 2 736
+ 122496 = N 1 736
+ 122496 = S 2 1920
+ 123264 = N 0 0
+ 123552 = N 0 0
+ 123840 = N 0 0
+ 124032 = N 0 1120
+ 125184 = N 2 352
+ 125568 = N 1 352
+ 125952 = N 2 352
+ 126336 = N 1 736
+ 127104 = N 0 736
+ 127872 = N 2 736
+ 128640 = N 1 736
+ 129408 = N 2 736
+ 130176 = N 1 0
+ 130320 = N 0 0
+ 130560 = N 2 0
+ 130752 = N 1 0
+ 130944 = N 0 0
+ 131088 = N 1 0
+ 131328 = N 2 0
+ 131520 = N 1 0
+ 131712 = N 2 0
+ 131904 = N 0 0
+ 132096 = N 1 0
+ 132288 = N 2 0
+ 132480 = N 0 0
+ 132624 = N 0 0
+ 132864 = N 0 0
+ 133008 = N 0 0
+ 133248 = N 1 0
+ 133392 = N 0 0
+ 133632 = N 2 0
+ 133824 = N 1 0
+ 134016 = N 0 0
+ 134160 = N 1 0
+ 134400 = N 2 0
+ 134592 = N 1 0
+ 134784 = N 2 0
+ 134976 = N 0 0
+ 135168 = N 1 0
+ 135360 = N 2 0
+ 135552 = N 0 0
+ 135696 = N 0 0
+ 135936 = N 0 0
+ 136080 = N 0 0
+ 136320 = N 0 0
+ 136464 = N 0 0
+ 136704 = N 0 0
+ 136848 = N 0 0
+ 137088 = N 0 0
+ 137232 = N 0 0
+ 137472 = N 0 0
+ 137616 = N 0 0
+ 137760 = N 1 0
+}
|