summaryrefslogtreecommitdiff
path: root/songs/Victor-Wooten-and-Steve-Bailey-A-Chick-from-Corea-(Live)/notes.chart
diff options
context:
space:
mode:
authorBenjamin Chausse <benjamin@chausse.xyz>2023-04-08 13:36:34 -0400
committerGitHub <noreply@github.com>2023-04-08 13:36:34 -0400
commitc3946e1a73aec0eb75ff4301dc42e1a2a71aab60 (patch)
tree9bfd6b6df4666491295b30088a6bf7bec6f61757 /songs/Victor-Wooten-and-Steve-Bailey-A-Chick-from-Corea-(Live)/notes.chart
parent0fd63dfa5dfcac42a45f0b247e8461b4b969d6f7 (diff)
parent3180cb7584c037463ee5c2047aea3e3ed0f0b364 (diff)
Merge pull request #1 from ChausseBenjamin/console-uiHEADmaster
Diffstat (limited to 'songs/Victor-Wooten-and-Steve-Bailey-A-Chick-from-Corea-(Live)/notes.chart')
-rw-r--r--songs/Victor-Wooten-and-Steve-Bailey-A-Chick-from-Corea-(Live)/notes.chart5141
1 files changed, 5141 insertions, 0 deletions
diff --git a/songs/Victor-Wooten-and-Steve-Bailey-A-Chick-from-Corea-(Live)/notes.chart b/songs/Victor-Wooten-and-Steve-Bailey-A-Chick-from-Corea-(Live)/notes.chart
new file mode 100644
index 0000000..2a8d08e
--- /dev/null
+++ b/songs/Victor-Wooten-and-Steve-Bailey-A-Chick-from-Corea-(Live)/notes.chart
@@ -0,0 +1,5141 @@
+[Song]
+{
+ Offset = 0
+ Name = "A Chick from Corea (Live)"
+ Artist = "Victor Wooten and Steve Bailey"
+ Album = "A Chick from Corea (Live) (Single)"
+ Year = ", 1993"
+ Charter = "GuitarZero132"
+ Genre = "Jazz Fusion"
+ Resolution = 192
+ Player2 = bass
+ Difficulty = 0
+ PreviewStart = 0
+ PreviewEnd = 0
+ Genre = "rock"
+ MediaType = "cd"
+ MusicStream = "song.ogg"
+}
+[SyncTrack]
+{
+ 0 = TS 4
+ 0 = B 124000
+ 1536 = B 130000
+ 2112 = B 135000
+ 3072 = B 126000
+ 3456 = B 136000
+ 3840 = B 124000
+ 4608 = B 126000
+ 5760 = B 134000
+ 6144 = B 130000
+ 6912 = B 133000
+ 8448 = B 130000
+ 9216 = B 131000
+ 10560 = B 134000
+ 11520 = B 131000
+ 12288 = B 130000
+ 13056 = B 132000
+ 13824 = B 133000
+ 15552 = B 129000
+ 16128 = B 132000
+ 16896 = B 131000
+ 17472 = B 131000
+ 18432 = B 126000
+ 20352 = B 128000
+ 22848 = B 128000
+ 23808 = B 128000
+ 24576 = B 131000
+ 27456 = B 131000
+ 28800 = B 133000
+ 29760 = B 131000
+ 30144 = B 129000
+ 30720 = B 132000
+ 31104 = B 135000
+ 32256 = B 133000
+ 33408 = B 137000
+ 34560 = B 135000
+ 35328 = B 135000
+ 37248 = B 137000
+ 38400 = B 135000
+ 39168 = B 135000
+ 40704 = B 135000
+ 41856 = B 136000
+ 42624 = B 134000
+ 44544 = B 136000
+ 45312 = B 135000
+ 46080 = B 135000
+ 46848 = B 136000
+ 49152 = B 132000
+ 50304 = B 134000
+ 51840 = B 133000
+ 52992 = B 135000
+ 55296 = B 129000
+ 56448 = B 131000
+ 57600 = B 130000
+ 59136 = B 130000
+ 61056 = B 127000
+ 61632 = B 129000
+ 62784 = B 130000
+ 65280 = B 131000
+ 67584 = B 128000
+ 69120 = B 129000
+ 71808 = B 128000
+ 73152 = B 129000
+ 74496 = B 129000
+ 75840 = B 130000
+ 76800 = B 130000
+ 77952 = B 131000
+ 79104 = B 131000
+ 79872 = B 129000
+ 81024 = B 128000
+ 82944 = B 130000
+ 83904 = B 128000
+ 84480 = B 129000
+ 86016 = B 130000
+ 87552 = B 134000
+ 88320 = B 127000
+ 89856 = B 132000
+ 91776 = B 134000
+ 92928 = B 133000
+ 94464 = B 127000
+ 95232 = B 129000
+ 96000 = B 134000
+ 96576 = B 131000
+ 97536 = B 131000
+ 98688 = B 133000
+ 99840 = B 132000
+ 100800 = B 126000
+ 101376 = B 130000
+ 102720 = B 132000
+ 103872 = B 133000
+ 105600 = B 130000
+ 107520 = B 132000
+ 108096 = B 134000
+ 109824 = B 131000
+ 110592 = B 133000
+ 112320 = B 135000
+ 113088 = B 128000
+ 113664 = B 126000
+ 114432 = B 128000
+ 119808 = B 130000
+ 121152 = B 132000
+ 122112 = B 130000
+ 122880 = B 131000
+ 123840 = B 136000
+ 124416 = B 132000
+ 125184 = B 130000
+ 125952 = B 133000
+ 127296 = B 131000
+}
+[Events]
+{
+ 1536 = E "section Intro"
+ 6144 = E "section Chorus 1"
+ 12288 = E "section Chorus 2"
+ 18432 = E "section Verse 1"
+ 24576 = E "section Chorus 3"
+ 30720 = E "section Victor Solo A"
+ 36864 = E "section Victor Solo B"
+ 43008 = E "section Victor Solo C"
+ 49152 = E "section Victor Solo D"
+ 55296 = E "section Verse 2"
+ 61440 = E "section Steve Solo A"
+ 67584 = E "section Steve Solo B"
+ 73728 = E "section Steve Solo C"
+ 79872 = E "section Steve Solo D"
+ 86016 = E "section Bridge A"
+ 89088 = E "section Bridge B"
+ 95232 = E "section Bridge C"
+ 101376 = E "section Bridge D"
+ 107520 = E "section Chorus 4"
+ 113664 = E "section Verse 3"
+ 119808 = E "section Chorus 5"
+ 125904 = E "section Ending"
+}
+[ExpertSingle]
+{
+ 1536 = N 7 0
+ 1584 = N 0 0
+ 1584 = N 5 0
+ 1680 = N 1 0
+ 1776 = N 2 0
+ 1872 = N 3 0
+ 1920 = N 4 0
+ 1968 = N 3 0
+ 2016 = N 2 0
+ 2064 = N 4 0
+ 2112 = N 3 112
+ 2256 = N 2 0
+ 2352 = N 0 0
+ 2448 = N 1 0
+ 2544 = N 2 0
+ 2592 = N 3 0
+ 2640 = N 2 0
+ 2688 = N 1 0
+ 2736 = N 3 0
+ 2784 = N 2 112
+ 2928 = N 1 0
+ 3072 = N 4 0
+ 3072 = S 2 768
+ 3104 = N 4 0
+ 3136 = N 3 0
+ 3168 = N 2 0
+ 3200 = N 3 0
+ 3232 = N 2 0
+ 3264 = N 1 0
+ 3296 = N 0 0
+ 3328 = N 0 0
+ 3360 = N 3 0
+ 3392 = N 2 0
+ 3424 = N 1 0
+ 3456 = N 0 192
+ 3840 = N 4 0
+ 3936 = N 3 0
+ 4032 = N 2 0
+ 4128 = N 1 0
+ 4224 = N 0 352
+ 4608 = N 1 640
+ 5280 = N 2 0
+ 5328 = N 3 0
+ 5376 = N 2 0
+ 5472 = N 2 0
+ 5520 = N 3 0
+ 5568 = N 2 384
+ 6144 = N 7 0
+ 6192 = N 0 0
+ 6192 = N 5 0
+ 6288 = N 1 0
+ 6384 = N 2 0
+ 6480 = N 3 0
+ 6528 = N 4 0
+ 6576 = N 3 0
+ 6624 = N 2 0
+ 6672 = N 4 0
+ 6720 = N 3 112
+ 6864 = N 2 0
+ 6960 = N 0 0
+ 7056 = N 1 0
+ 7152 = N 2 0
+ 7200 = N 3 0
+ 7248 = N 2 0
+ 7296 = N 1 0
+ 7344 = N 3 0
+ 7392 = N 2 112
+ 7536 = N 1 0
+ 7728 = N 4 0
+ 7824 = N 3 0
+ 7872 = N 2 0
+ 7920 = N 1 0
+ 8016 = N 3 0
+ 8112 = N 2 0
+ 8160 = N 1 0
+ 8208 = N 0 96
+ 8448 = N 3 0
+ 8480 = N 4 0
+ 8512 = N 3 0
+ 8544 = N 2 0
+ 8576 = N 3 0
+ 8608 = N 2 0
+ 8640 = N 1 0
+ 8672 = N 2 0
+ 8704 = N 1 0
+ 8736 = N 0 0
+ 9216 = N 7 0
+ 9264 = N 0 0
+ 9264 = N 5 0
+ 9360 = N 1 0
+ 9456 = N 2 0
+ 9552 = N 3 0
+ 9600 = N 4 0
+ 9648 = N 3 0
+ 9696 = N 2 0
+ 9744 = N 4 0
+ 9792 = N 3 112
+ 9936 = N 4 0
+ 9984 = S 2 768
+ 10032 = N 0 0
+ 10128 = N 1 0
+ 10224 = N 2 0
+ 10272 = N 3 0
+ 10320 = N 2 0
+ 10368 = N 1 0
+ 10416 = N 3 0
+ 10464 = N 2 0
+ 10560 = N 3 0
+ 10560 = N 5 0
+ 10608 = N 4 0
+ 10800 = N 3 0
+ 10848 = N 4 0
+ 10896 = N 3 0
+ 10944 = N 2 0
+ 10992 = N 1 0
+ 11088 = N 2 0
+ 11184 = N 3 0
+ 11232 = N 2 0
+ 11280 = N 0 0
+ 11328 = N 1 0
+ 11376 = N 0 0
+ 11472 = N 4 0
+ 11520 = N 4 0
+ 11568 = N 3 0
+ 11616 = N 2 0
+ 11664 = N 1 0
+ 11712 = N 3 0
+ 11760 = N 2 0
+ 11808 = N 1 256
+ 12096 = N 0 0
+ 12096 = N 5 0
+ 12192 = N 1 0
+ 12192 = N 5 0
+ 12240 = N 2 0
+ 12288 = N 7 0
+ 12288 = N 5 0
+ 12336 = N 0 0
+ 12336 = N 5 0
+ 12432 = N 1 0
+ 12528 = N 2 0
+ 12624 = N 3 0
+ 12672 = N 4 0
+ 12720 = N 3 0
+ 12768 = N 2 0
+ 12816 = N 4 0
+ 12864 = N 3 112
+ 13008 = N 2 0
+ 13104 = N 0 0
+ 13200 = N 1 0
+ 13296 = N 2 0
+ 13344 = N 3 0
+ 13392 = N 2 0
+ 13440 = N 1 0
+ 13488 = N 3 0
+ 13536 = N 2 0
+ 13680 = N 1 0
+ 13872 = N 4 0
+ 13968 = N 3 0
+ 14016 = N 2 0
+ 14064 = N 1 0
+ 14160 = N 3 0
+ 14256 = N 2 0
+ 14304 = N 1 0
+ 14352 = N 0 0
+ 14544 = N 7 0
+ 14592 = N 3 0
+ 14624 = N 4 0
+ 14656 = N 3 0
+ 14688 = N 2 0
+ 14720 = N 3 0
+ 14752 = N 2 0
+ 14784 = N 1 0
+ 14816 = N 2 0
+ 14848 = N 1 0
+ 14880 = N 0 0
+ 15360 = N 7 0
+ 15408 = N 0 0
+ 15408 = N 5 0
+ 15504 = N 1 0
+ 15600 = N 2 0
+ 15696 = N 3 0
+ 15744 = N 4 0
+ 15792 = N 3 0
+ 15840 = N 2 0
+ 15888 = N 4 0
+ 15936 = N 3 112
+ 16080 = N 4 0
+ 16176 = N 0 0
+ 16272 = N 1 0
+ 16368 = N 2 0
+ 16416 = N 3 0
+ 16464 = N 2 0
+ 16512 = N 1 0
+ 16560 = N 3 0
+ 16608 = N 2 112
+ 16752 = N 4 0
+ 16896 = S 2 1152
+ 16944 = N 3 0
+ 16992 = N 4 0
+ 17040 = N 3 0
+ 17088 = N 2 0
+ 17136 = N 1 0
+ 17232 = N 2 0
+ 17328 = N 3 0
+ 17376 = N 2 0
+ 17424 = N 0 0
+ 17472 = N 1 0
+ 17520 = N 0 0
+ 17616 = N 4 0
+ 17664 = N 3 0
+ 17712 = N 2 0
+ 17760 = N 1 0
+ 17808 = N 0 0
+ 17856 = N 1 0
+ 17904 = N 3 0
+ 17952 = N 0 0
+ 18144 = N 1 0
+ 18144 = N 6 0
+ 18192 = N 2 0
+ 18192 = N 6 0
+ 18240 = N 3 160
+ 18240 = N 6 0
+ 18432 = N 0 0
+ 18480 = N 1 0
+ 18528 = N 2 0
+ 18576 = N 1 0
+ 18624 = N 2 0
+ 18720 = N 2 0
+ 18768 = N 2 0
+ 18816 = N 3 0
+ 18864 = N 1 240
+ 19200 = N 3 0
+ 19248 = N 4 0
+ 19296 = N 3 0
+ 19392 = N 2 0
+ 19488 = N 0 0
+ 19536 = N 1 400
+ 19968 = N 0 0
+ 20016 = N 1 0
+ 20064 = N 2 0
+ 20160 = N 1 0
+ 20256 = N 2 0
+ 20352 = N 3 0
+ 20400 = N 1 240
+ 20832 = N 2 0
+ 20880 = N 3 0
+ 20928 = N 4 0
+ 20976 = N 1 0
+ 21024 = N 2 0
+ 21072 = N 2 0
+ 21120 = N 3 0
+ 21168 = N 0 240
+ 21504 = N 0 0
+ 21552 = N 1 0
+ 21600 = N 2 0
+ 21648 = N 1 0
+ 21696 = N 2 0
+ 21792 = N 2 0
+ 21840 = N 2 0
+ 21888 = N 3 0
+ 21936 = N 1 144
+ 22176 = N 7 0
+ 22272 = N 1 0
+ 22320 = N 2 0
+ 22368 = N 3 0
+ 22416 = N 2 0
+ 22464 = N 3 0
+ 22560 = N 3 0
+ 22608 = N 4 240
+ 23040 = N 0 0
+ 23088 = N 1 0
+ 23136 = N 2 0
+ 23184 = N 1 0
+ 23232 = N 2 0
+ 23280 = N 3 0
+ 23328 = N 0 0
+ 23376 = N 2 0
+ 23424 = N 3 0
+ 23472 = N 0 0
+ 23520 = N 1 0
+ 23568 = N 4 0
+ 23616 = N 0 0
+ 23664 = N 2 0
+ 23712 = N 4 0
+ 23760 = N 1 0
+ 23808 = N 2 0
+ 23856 = N 4 0
+ 23904 = N 1 0
+ 23952 = N 2 0
+ 24000 = N 3 0
+ 24096 = N 4 0
+ 24144 = N 3 240
+ 24144 = N 4 240
+ 24576 = N 7 0
+ 24576 = S 2 768
+ 24624 = N 0 0
+ 24624 = N 5 0
+ 24720 = N 1 0
+ 24816 = N 2 0
+ 24912 = N 3 0
+ 24960 = N 4 0
+ 25008 = N 3 0
+ 25056 = N 2 0
+ 25104 = N 4 0
+ 25152 = N 3 112
+ 25296 = N 2 0
+ 25392 = N 0 0
+ 25488 = N 1 0
+ 25584 = N 2 0
+ 25632 = N 3 0
+ 25680 = N 2 0
+ 25728 = N 1 0
+ 25776 = N 3 0
+ 25824 = N 2 112
+ 25968 = N 1 0
+ 26160 = N 3 0
+ 26208 = N 4 0
+ 26256 = N 3 0
+ 26304 = N 2 0
+ 26352 = N 1 0
+ 26448 = N 3 0
+ 26544 = N 2 0
+ 26592 = N 1 0
+ 26640 = N 0 96
+ 26832 = N 7 0
+ 26880 = N 3 0
+ 26912 = N 4 0
+ 26944 = N 3 0
+ 26976 = N 2 0
+ 27008 = N 3 0
+ 27040 = N 2 0
+ 27072 = N 1 0
+ 27104 = N 2 0
+ 27136 = N 1 0
+ 27168 = N 0 0
+ 27648 = N 7 0
+ 27696 = N 0 0
+ 27696 = N 5 0
+ 27792 = N 1 0
+ 27888 = N 2 0
+ 27984 = N 3 0
+ 28032 = N 4 0
+ 28080 = N 3 0
+ 28128 = N 2 0
+ 28176 = N 4 0
+ 28224 = N 3 112
+ 28368 = N 4 0
+ 28464 = N 0 0
+ 28560 = N 1 0
+ 28656 = N 2 0
+ 28704 = N 3 0
+ 28752 = N 2 0
+ 28800 = N 1 0
+ 28848 = N 3 0
+ 28896 = N 2 112
+ 29040 = N 4 0
+ 29232 = N 3 0
+ 29280 = N 4 0
+ 29328 = N 3 0
+ 29376 = N 2 0
+ 29424 = N 1 0
+ 29520 = N 2 0
+ 29616 = N 3 0
+ 29664 = N 2 0
+ 29712 = N 0 0
+ 29760 = N 1 0
+ 29808 = N 0 0
+ 29904 = N 4 0
+ 29952 = N 3 0
+ 30000 = N 2 0
+ 30048 = N 1 0
+ 30096 = N 0 0
+ 30144 = N 1 0
+ 30192 = N 3 0
+ 30240 = N 0 0
+ 30384 = N 1 0
+ 30384 = E solo
+ 30480 = N 2 0
+ 30576 = N 0 0
+ 30672 = N 1 0
+ 30775 = N 3 0
+ 30775 = N 6 0
+ 30802 = N 4 0
+ 30802 = N 6 0
+ 30830 = N 3 0
+ 30830 = N 6 0
+ 30857 = N 4 0
+ 30857 = N 6 0
+ 30885 = N 3 0
+ 30885 = N 6 0
+ 30912 = N 2 0
+ 30912 = N 6 0
+ 30939 = N 4 0
+ 30939 = N 6 0
+ 30967 = N 2 0
+ 30967 = N 6 0
+ 30994 = N 4 0
+ 30994 = N 6 0
+ 31022 = N 2 0
+ 31022 = N 6 0
+ 31049 = N 1 0
+ 31049 = N 6 0
+ 31077 = N 3 0
+ 31077 = N 6 0
+ 31104 = N 1 0
+ 31104 = N 6 0
+ 31131 = N 3 0
+ 31131 = N 6 0
+ 31159 = N 1 0
+ 31159 = N 6 0
+ 31186 = N 0 0
+ 31186 = N 6 0
+ 31214 = N 2 0
+ 31214 = N 6 0
+ 31241 = N 0 0
+ 31241 = N 6 0
+ 31269 = N 2 0
+ 31269 = N 6 0
+ 31296 = N 0 0
+ 31296 = N 6 0
+ 31344 = N 1 0
+ 31344 = N 6 0
+ 31440 = N 1 0
+ 31488 = N 2 0
+ 31488 = S 2 576
+ 31536 = N 3 0
+ 31584 = N 4 0
+ 31632 = N 3 0
+ 31680 = N 2 0
+ 31728 = N 1 0
+ 31776 = N 0 0
+ 31824 = N 2 0
+ 31872 = N 1 0
+ 31920 = N 0 0
+ 31968 = N 2 0
+ 32112 = N 2 0
+ 32160 = N 0 0
+ 32208 = N 1 0
+ 32256 = N 0 0
+ 32304 = N 2 0
+ 32352 = N 4 0
+ 32400 = N 4 0
+ 32448 = N 3 0
+ 32496 = N 1 0
+ 32544 = N 2 0
+ 32592 = N 0 0
+ 32640 = N 1 0
+ 32688 = N 2 0
+ 32736 = N 3 0
+ 32784 = N 4 0
+ 32832 = N 3 0
+ 32880 = N 1 0
+ 32928 = N 2 0
+ 32976 = N 0 0
+ 33024 = N 2 0
+ 33072 = N 0 0
+ 33120 = N 1 0
+ 33168 = N 2 0
+ 33216 = N 1 0
+ 33264 = N 2 0
+ 33312 = N 3 0
+ 33360 = N 4 0
+ 33408 = N 3 0
+ 33456 = N 1 0
+ 33504 = N 2 0
+ 33552 = N 3 0
+ 33576 = N 4 0
+ 33648 = N 3 0
+ 33696 = N 2 0
+ 33744 = N 1 0
+ 33792 = N 0 0
+ 33840 = N 3 0
+ 33888 = N 2 0
+ 33936 = N 1 0
+ 33984 = N 0 0
+ 34032 = N 3 0
+ 34080 = N 2 0
+ 34128 = N 0 0
+ 34176 = N 1 0
+ 34224 = N 2 0
+ 34320 = N 4 0
+ 34368 = N 1 0
+ 34400 = N 2 0
+ 34432 = N 3 0
+ 34464 = N 2 0
+ 34512 = N 4 0
+ 34560 = N 3 0
+ 34608 = N 0 0
+ 34656 = N 1 0
+ 34704 = N 3 0
+ 34752 = N 2 0
+ 34800 = N 1 0
+ 34848 = N 0 0
+ 34896 = N 2 0
+ 34944 = N 3 0
+ 34992 = N 1 0
+ 35040 = N 2 0
+ 35088 = N 3 0
+ 35232 = N 2 0
+ 35280 = N 3 0
+ 35360 = N 2 0
+ 35424 = N 3 0
+ 35488 = N 4 0
+ 35568 = N 2 0
+ 35592 = N 3 0
+ 35664 = N 2 0
+ 35712 = N 1 0
+ 35760 = N 0 0
+ 35856 = N 1 0
+ 35904 = N 2 0
+ 35952 = N 4 0
+ 36048 = N 3 0
+ 36144 = N 2 0
+ 36224 = N 0 0
+ 36288 = N 1 0
+ 36352 = N 2 0
+ 36416 = N 3 0
+ 36480 = N 4 0
+ 36544 = N 3 0
+ 36608 = N 2 0
+ 36704 = N 1 0
+ 36768 = N 0 0
+ 36864 = N 4 0
+ 36916 = N 3 0
+ 36969 = N 2 0
+ 37021 = N 1 0
+ 37073 = N 2 0
+ 37126 = N 0 0
+ 37178 = N 1 0
+ 37231 = N 3 0
+ 37283 = N 2 0
+ 37335 = N 1 0
+ 37388 = N 0 0
+ 37440 = N 3 0
+ 37488 = N 1 0
+ 37536 = N 2 0
+ 37584 = N 0 0
+ 37632 = N 1 0
+ 37680 = N 2 0
+ 37728 = N 2 0
+ 37776 = N 2 0
+ 37824 = N 3 0
+ 37872 = N 4 0
+ 37920 = N 3 0
+ 37968 = N 0 0
+ 38016 = N 1 0
+ 38064 = N 2 0
+ 38160 = N 3 0
+ 38208 = N 4 0
+ 38304 = N 4 0
+ 38352 = N 3 0
+ 38400 = S 2 1536
+ 38448 = N 3 0
+ 38496 = N 2 0
+ 38592 = N 2 0
+ 38640 = N 0 0
+ 38664 = N 1 0
+ 38736 = N 1 0
+ 38784 = N 0 0
+ 38880 = N 0 0
+ 38928 = N 4 0
+ 39024 = N 4 0
+ 39072 = N 3 0
+ 39168 = N 3 0
+ 39216 = N 2 0
+ 39312 = N 2 0
+ 39360 = N 3 0
+ 39408 = N 1 0
+ 39456 = N 2 0
+ 39552 = N 1 0
+ 40320 = N 0 0
+ 40368 = N 1 0
+ 40416 = N 2 0
+ 40464 = N 1 0
+ 40512 = N 2 0
+ 40560 = N 3 0
+ 40608 = N 1 0
+ 40656 = N 2 0
+ 40704 = N 3 0
+ 40752 = N 4 0
+ 40800 = N 0 0
+ 40848 = N 1 0
+ 40896 = N 1 0
+ 40944 = N 1 0
+ 40992 = N 2 0
+ 41040 = N 3 0
+ 41088 = N 4 0
+ 41136 = N 2 0
+ 41184 = N 3 0
+ 41232 = N 1 0
+ 41280 = N 2 0
+ 41328 = N 0 0
+ 41376 = N 1 0
+ 41424 = N 2 0
+ 41472 = N 3 0
+ 41520 = N 4 0
+ 41568 = N 3 0
+ 41616 = N 1 0
+ 41664 = N 2 0
+ 41712 = N 3 0
+ 41760 = N 2 0
+ 41808 = N 0 0
+ 41856 = N 1 0
+ 41904 = N 3 0
+ 41952 = N 2 0
+ 42000 = N 0 0
+ 42048 = N 1 0
+ 42096 = N 2 0
+ 42144 = N 3 0
+ 42192 = N 4 0
+ 42240 = N 1 0
+ 42240 = N 5 0
+ 42288 = N 1 0
+ 42336 = N 1 0
+ 42384 = N 1 0
+ 42432 = N 2 0
+ 42432 = N 5 0
+ 42480 = N 2 0
+ 42528 = N 2 0
+ 42576 = N 2 0
+ 42624 = N 3 0
+ 42624 = N 5 0
+ 42672 = N 3 0
+ 42720 = N 3 0
+ 42768 = N 3 0
+ 42816 = N 4 0
+ 42816 = N 5 0
+ 42898 = N 3 0
+ 42953 = N 2 0
+ 43008 = N 1 0
+ 43104 = N 0 0
+ 43152 = N 3 0
+ 43248 = N 2 0
+ 43344 = N 1 0
+ 43440 = N 4 0
+ 43536 = N 3 0
+ 43584 = N 2 0
+ 43680 = N 1 0
+ 43728 = N 0 0
+ 43808 = N 3 0
+ 43968 = N 1 0
+ 44040 = N 2 0
+ 44112 = N 4 0
+ 44192 = N 3 0
+ 44304 = N 0 0
+ 44352 = N 1 0
+ 44403 = N 2 0
+ 44454 = N 3 0
+ 44544 = N 2 0
+ 44592 = N 3 0
+ 44672 = N 4 0
+ 44736 = N 3 0
+ 44784 = N 2 0
+ 44832 = N 1 0
+ 44880 = N 0 0
+ 44928 = N 4 0
+ 44976 = N 2 0
+ 45024 = N 3 0
+ 45056 = N 4 0
+ 45088 = N 3 0
+ 45120 = N 2 0
+ 45168 = N 1 0
+ 45216 = N 0 0
+ 45264 = N 4 0
+ 45312 = N 0 0
+ 45360 = N 1 0
+ 45408 = N 3 0
+ 45456 = N 0 0
+ 45504 = N 1 0
+ 45552 = N 2 0
+ 45648 = N 3 0
+ 45696 = N 1 0
+ 45744 = N 2 0
+ 45792 = N 4 0
+ 45840 = N 1 0
+ 45888 = N 3 0
+ 45952 = N 1 0
+ 45995 = N 2 0
+ 46037 = N 0 0
+ 46080 = N 2 0
+ 46080 = S 2 1248
+ 46128 = N 0 0
+ 46176 = N 1 0
+ 46224 = N 3 0
+ 46272 = N 1 0
+ 46320 = N 0 0
+ 46368 = N 2 0
+ 46416 = N 0 0
+ 46464 = N 1 0
+ 46512 = N 3 0
+ 46560 = N 1 0
+ 46608 = N 2 0
+ 46656 = N 4 0
+ 46704 = N 2 0
+ 46800 = N 4 0
+ 46848 = N 2 0
+ 46896 = N 1 0
+ 46944 = N 3 0
+ 46992 = N 1 0
+ 47040 = N 2 0
+ 47088 = N 4 0
+ 47136 = N 2 0
+ 47184 = N 3 0
+ 47232 = N 4 0
+ 47280 = N 3 0
+ 47376 = N 4 0
+ 47424 = N 4 0
+ 47520 = N 4 0
+ 47568 = N 4 0
+ 47664 = N 3 0
+ 47712 = N 2 0
+ 47760 = N 4 0
+ 47808 = N 3 0
+ 47856 = N 2 0
+ 47904 = N 1 0
+ 47952 = N 0 0
+ 48000 = N 4 0
+ 48048 = N 3 0
+ 48096 = N 2 0
+ 48144 = N 1 0
+ 48192 = N 2 0
+ 48240 = N 0 0
+ 48288 = N 1 0
+ 48336 = N 0 0
+ 48384 = N 1 0
+ 48480 = N 3 0
+ 48528 = N 3 0
+ 48576 = N 4 0
+ 48960 = N 2 0
+ 48960 = N 3 0
+ 49056 = N 2 0
+ 49056 = N 4 0
+ 49152 = N 1 0
+ 49200 = N 1 0
+ 49248 = N 1 0
+ 49296 = N 0 0
+ 49392 = N 3 0
+ 49392 = N 4 0
+ 49488 = N 2 0
+ 49488 = N 4 0
+ 49584 = N 2 0
+ 49584 = N 4 0
+ 49728 = N 1 0
+ 49728 = N 4 0
+ 49824 = N 2 0
+ 49824 = N 4 0
+ 49920 = N 2 0
+ 49920 = N 4 0
+ 49968 = N 2 0
+ 49968 = N 4 0
+ 50064 = N 1 0
+ 50064 = N 4 0
+ 50160 = N 1 0
+ 50160 = N 4 0
+ 50256 = N 0 0
+ 50256 = N 2 0
+ 50352 = N 0 0
+ 50352 = N 2 0
+ 50448 = N 3 0
+ 50496 = N 2 0
+ 50592 = N 1 0
+ 50640 = N 0 0
+ 50736 = N 2 0
+ 50832 = N 1 0
+ 50928 = N 3 0
+ 51024 = N 2 0
+ 51072 = N 4 0
+ 51120 = N 3 0
+ 51168 = N 2 0
+ 51216 = N 0 0
+ 51264 = N 2 0
+ 51312 = N 0 0
+ 51360 = N 1 0
+ 51408 = N 2 0
+ 51456 = N 3 0
+ 51504 = N 1 0
+ 51552 = N 2 0
+ 51600 = N 4 0
+ 51648 = N 3 0
+ 51744 = N 2 0
+ 51792 = N 0 0
+ 51840 = N 1 0
+ 51936 = N 3 0
+ 51968 = N 4 0
+ 52032 = N 3 0
+ 52032 = N 5 0
+ 52064 = N 2 0
+ 52096 = N 1 0
+ 52128 = N 0 0
+ 52176 = N 3 0
+ 52224 = N 2 0
+ 52320 = N 3 0
+ 52368 = N 2 0
+ 52416 = N 1 0
+ 52480 = N 0 0
+ 52544 = N 1 0
+ 52632 = N 2 0
+ 52688 = N 3 0
+ 52744 = N 2 0
+ 52800 = N 3 0
+ 52864 = N 2 0
+ 52928 = N 3 0
+ 52992 = N 2 0
+ 53056 = N 1 0
+ 53120 = N 2 0
+ 53184 = N 3 0
+ 53248 = N 2 0
+ 53312 = N 3 0
+ 53376 = N 4 0
+ 53440 = N 3 0
+ 53504 = N 4 0
+ 53568 = N 2 0
+ 53632 = N 1 0
+ 53696 = N 2 0
+ 53760 = N 3 0
+ 53824 = N 2 0
+ 53888 = N 3 0
+ 53952 = N 4 0
+ 54016 = N 3 0
+ 54080 = N 4 0
+ 54192 = N 3 0
+ 54240 = N 4 0
+ 54288 = N 2 0
+ 54336 = N 3 0
+ 54432 = S 2 768
+ 54480 = N 4 0
+ 54528 = N 3 0
+ 54576 = N 2 0
+ 54624 = N 1 0
+ 54672 = N 0 0
+ 54720 = N 1 0
+ 54768 = N 3 0
+ 54816 = N 0 0
+ 55008 = N 1 0
+ 55008 = N 6 0
+ 55056 = N 2 0
+ 55056 = N 6 0
+ 55104 = N 3 160
+ 55104 = N 6 0
+ 55200 = E soloend
+ 55296 = N 0 0
+ 55344 = N 1 0
+ 55392 = N 2 0
+ 55440 = N 1 0
+ 55488 = N 2 0
+ 55584 = N 2 0
+ 55632 = N 2 0
+ 55680 = N 3 0
+ 55728 = N 1 240
+ 56064 = N 3 0
+ 56112 = N 4 0
+ 56160 = N 3 0
+ 56256 = N 2 0
+ 56352 = N 0 0
+ 56400 = N 1 336
+ 56832 = N 0 0
+ 56880 = N 1 0
+ 56928 = N 2 0
+ 57024 = N 2 0
+ 57120 = N 2 0
+ 57168 = N 2 0
+ 57216 = N 3 192
+ 57600 = N 4 0
+ 57648 = N 3 0
+ 57696 = N 2 0
+ 57744 = N 1 0
+ 57792 = N 2 0
+ 57840 = N 3 0
+ 57888 = N 1 0
+ 57936 = N 2 0
+ 57984 = N 1 0
+ 57984 = N 2 0
+ 57984 = N 5 0
+ 58032 = N 0 240
+ 58032 = N 1 240
+ 58032 = N 5 0
+ 58464 = N 0 0
+ 58512 = N 1 0
+ 58560 = N 2 0
+ 58608 = N 1 0
+ 58656 = N 2 0
+ 58704 = N 2 0
+ 58752 = N 3 0
+ 58800 = N 1 144
+ 59040 = N 1 0
+ 59088 = N 2 0
+ 59136 = N 3 0
+ 59184 = N 2 0
+ 59232 = N 3 0
+ 59328 = N 4 0
+ 59424 = N 3 0
+ 59472 = N 1 0
+ 59520 = N 2 0
+ 59568 = N 1 0
+ 59616 = N 2 0
+ 59904 = N 4 0
+ 59952 = N 4 0
+ 60000 = N 4 0
+ 60048 = N 3 0
+ 60096 = N 2 0
+ 60144 = N 0 0
+ 60192 = N 1 0
+ 60240 = N 3 0
+ 60288 = N 2 0
+ 60384 = N 2 0
+ 60432 = N 0 0
+ 60480 = N 1 0
+ 60528 = N 0 0
+ 60576 = N 4 0
+ 60624 = N 2 0
+ 60672 = N 3 0
+ 60720 = N 1 0
+ 60768 = N 2 0
+ 60816 = N 1 0
+ 60864 = N 0 0
+ 60912 = N 1 0
+ 60960 = N 2 0
+ 61008 = N 1 0
+ 61056 = N 2 0
+ 61104 = N 4 0
+ 61152 = N 3 0
+ 61200 = N 1 0
+ 61248 = N 2 0
+ 61296 = N 0 0
+ 61344 = N 1 0
+ 61440 = N 3 0
+ 61440 = S 2 1536
+ 61440 = E solo
+ 61464 = N 4 0
+ 61536 = N 4 0
+ 61632 = N 3 0
+ 61680 = N 2 0
+ 61728 = N 2 0
+ 61776 = N 1 0
+ 61824 = N 2 144
+ 62016 = N 0 0
+ 62112 = N 1 0
+ 62208 = N 1 0
+ 62304 = N 1 0
+ 62400 = N 2 0
+ 62496 = N 0 0
+ 62544 = N 1 0
+ 62568 = N 2 0
+ 62640 = N 3 0
+ 62688 = N 2 0
+ 62784 = N 3 0
+ 62880 = N 4 0
+ 63168 = N 4 0
+ 63216 = N 3 0
+ 63264 = N 2 0
+ 63312 = N 1 0
+ 63360 = N 2 0
+ 63408 = N 0 192
+ 63840 = N 0 0
+ 63936 = N 2 0
+ 63984 = N 0 0
+ 64032 = N 2 0
+ 64080 = N 3 0
+ 64176 = N 4 0
+ 64224 = N 4 0
+ 64272 = N 3 0
+ 64320 = N 2 0
+ 64368 = N 3 0
+ 64416 = N 2 0
+ 64448 = N 1 0
+ 64480 = N 0 0
+ 64512 = N 1 0
+ 64560 = N 0 0
+ 64608 = N 1 0
+ 64656 = N 4 0
+ 64704 = N 3 0
+ 64752 = N 1 0
+ 64800 = N 2 0
+ 64848 = N 0 0
+ 64896 = N 4 0
+ 64944 = N 2 0
+ 64992 = N 4 0
+ 65040 = N 3 0
+ 65088 = N 2 0
+ 65136 = N 0 0
+ 65184 = N 1 0
+ 65232 = N 0 0
+ 65280 = N 1 0
+ 65328 = N 2 0
+ 65376 = N 3 0
+ 65424 = N 4 0
+ 65472 = N 0 0
+ 65520 = N 1 0
+ 65568 = N 2 0
+ 65616 = N 3 0
+ 65712 = N 4 0
+ 65808 = N 7 0
+ 65856 = N 3 0
+ 65904 = N 1 0
+ 65952 = N 2 0
+ 66000 = N 0 0
+ 66048 = N 4 0
+ 66096 = N 2 0
+ 66144 = N 3 0
+ 66192 = N 1 0
+ 66240 = N 2 0
+ 66288 = N 0 0
+ 66336 = N 4 0
+ 66384 = N 2 0
+ 66432 = N 3 0
+ 66480 = N 1 208
+ 66720 = N 0 0
+ 66816 = N 0 0
+ 66816 = N 2 0
+ 66912 = N 0 0
+ 66912 = N 2 0
+ 66960 = N 1 0
+ 66960 = N 2 0
+ 66960 = N 5 0
+ 67008 = N 1 0
+ 67008 = N 2 0
+ 67104 = N 1 0
+ 67104 = N 3 0
+ 67136 = N 1 0
+ 67136 = N 3 0
+ 67168 = N 1 0
+ 67168 = N 3 0
+ 67200 = N 1 0
+ 67200 = N 3 0
+ 67296 = N 2 0
+ 67296 = N 3 0
+ 67328 = N 2 0
+ 67328 = N 3 0
+ 67360 = N 2 0
+ 67360 = N 3 0
+ 67392 = N 2 0
+ 67392 = N 3 0
+ 67488 = N 2 0
+ 67536 = N 3 0
+ 67584 = N 4 0
+ 67680 = N 3 0
+ 67728 = N 2 0
+ 67776 = N 2 0
+ 67808 = N 1 0
+ 67840 = N 0 0
+ 67872 = N 1 0
+ 67968 = N 0 160
+ 68160 = N 2 0
+ 68160 = N 4 0
+ 68256 = N 1 0
+ 68352 = N 0 0
+ 68448 = N 2 0
+ 68448 = N 3 0
+ 68544 = N 0 0
+ 68640 = N 2 0
+ 68640 = N 4 0
+ 68736 = N 1 0
+ 68832 = N 3 160
+ 69024 = N 4 0
+ 69216 = N 4 0
+ 69248 = N 3 0
+ 69280 = N 2 0
+ 69312 = N 3 112
+ 69456 = N 2 0
+ 69504 = N 1 160
+ 69696 = N 2 0
+ 69696 = N 4 0
+ 69792 = N 1 0
+ 69888 = N 0 0
+ 69888 = S 2 768
+ 69984 = N 2 0
+ 69984 = N 3 0
+ 70080 = N 0 160
+ 70176 = N 2 0
+ 70272 = N 1 160
+ 70368 = N 3 0
+ 70464 = N 2 160
+ 70560 = N 3 0
+ 70656 = N 4 0
+ 70688 = N 4 0
+ 70720 = N 3 0
+ 70752 = N 2 0
+ 70784 = N 1 0
+ 70816 = N 2 0
+ 70848 = N 1 160
+ 71040 = N 4 0
+ 71072 = N 4 0
+ 71104 = N 2 0
+ 71136 = N 1 0
+ 71168 = N 2 0
+ 71200 = N 1 0
+ 71232 = N 0 160
+ 71424 = N 3 0
+ 71456 = N 3 0
+ 71488 = N 2 0
+ 71520 = N 1 0
+ 71552 = N 2 0
+ 71584 = N 1 0
+ 71616 = N 0 160
+ 71808 = N 4 0
+ 71904 = N 3 0
+ 71936 = N 2 0
+ 71968 = N 1 0
+ 72000 = N 0 160
+ 72192 = N 1 256
+ 72288 = N 3 0
+ 72288 = N 4 0
+ 72480 = N 0 160
+ 72672 = N 2 0
+ 72672 = N 3 0
+ 72864 = N 1 352
+ 73056 = N 3 0
+ 73056 = N 4 0
+ 73248 = N 2 0
+ 73344 = N 2 160
+ 73536 = N 3 0
+ 73536 = N 5 0
+ 73728 = N 4 0
+ 73760 = N 3 0
+ 73792 = N 2 0
+ 73824 = N 3 0
+ 73856 = N 2 0
+ 73888 = N 1 0
+ 73920 = N 2 0
+ 73952 = N 1 0
+ 73984 = N 0 0
+ 74016 = N 3 0
+ 74048 = N 2 0
+ 74080 = N 1 0
+ 74112 = N 0 0
+ 74160 = N 0 0
+ 74208 = N 0 0
+ 74256 = N 1 0
+ 74304 = N 2 0
+ 74400 = N 3 0
+ 74496 = N 2 0
+ 74592 = N 3 0
+ 74688 = N 4 0
+ 74784 = N 2 0
+ 74880 = N 3 0
+ 74928 = N 4 0
+ 74976 = N 3 0
+ 75024 = N 4 0
+ 75072 = N 3 0
+ 75264 = N 4 0
+ 75296 = N 3 0
+ 75328 = N 2 0
+ 75360 = N 3 0
+ 75392 = N 2 0
+ 75424 = N 1 0
+ 75456 = N 3 0
+ 75488 = N 2 0
+ 75520 = N 1 0
+ 75552 = N 0 0
+ 75600 = N 4 0
+ 75648 = N 3 0
+ 75696 = N 2 0
+ 75744 = N 3 0
+ 75776 = N 2 0
+ 75808 = N 2 0
+ 75840 = N 1 0
+ 75872 = N 0 0
+ 75936 = N 1 160
+ 75936 = N 5 0
+ 76128 = N 0 0
+ 76224 = N 1 0
+ 76320 = N 2 0
+ 76416 = N 3 0
+ 76448 = N 4 128
+ 76608 = N 3 256
+ 76896 = N 2 0
+ 76928 = N 4 0
+ 76960 = N 2 0
+ 76992 = N 2 0
+ 77040 = N 3 0
+ 77088 = N 4 0
+ 77136 = N 2 0
+ 77184 = N 3 0
+ 77232 = N 2 0
+ 77280 = N 1 0
+ 77328 = N 0 0
+ 77376 = N 1 0
+ 77424 = N 2 0
+ 77472 = N 1 0
+ 77520 = N 0 0
+ 77568 = N 3 0
+ 77568 = S 2 768
+ 77616 = N 4 0
+ 77664 = N 3 0
+ 77712 = N 2 0
+ 77760 = N 3 0
+ 77808 = N 1 0
+ 77856 = N 3 0
+ 77904 = N 2 0
+ 77952 = N 3 0
+ 77984 = N 2 0
+ 78016 = N 3 0
+ 78048 = N 2 0
+ 78096 = N 2 0
+ 78144 = N 2 160
+ 78336 = N 1 0
+ 78368 = N 1 0
+ 78400 = N 1 0
+ 78432 = N 1 0
+ 78464 = N 1 0
+ 78496 = N 1 0
+ 78528 = N 0 0
+ 78528 = N 5 0
+ 78560 = N 0 0
+ 78592 = N 0 0
+ 78624 = N 0 0
+ 78656 = N 0 0
+ 78688 = N 0 0
+ 78720 = N 1 0
+ 78720 = N 5 0
+ 78752 = N 1 0
+ 78784 = N 1 0
+ 78816 = N 1 0
+ 78848 = N 1 0
+ 78880 = N 1 0
+ 78912 = N 2 0
+ 78912 = N 5 0
+ 78944 = N 2 0
+ 78976 = N 2 0
+ 79008 = N 2 0
+ 79040 = N 2 0
+ 79072 = N 2 0
+ 79104 = N 3 0
+ 79104 = N 5 0
+ 79136 = N 3 0
+ 79168 = N 3 0
+ 79200 = N 3 0
+ 79232 = N 3 0
+ 79264 = N 3 0
+ 79296 = N 2 0
+ 79296 = N 5 0
+ 79328 = N 2 0
+ 79360 = N 2 0
+ 79392 = N 2 0
+ 79424 = N 2 0
+ 79456 = N 2 0
+ 79488 = N 3 0
+ 79488 = N 5 0
+ 79523 = N 3 0
+ 79584 = N 3 0
+ 79872 = N 4 0
+ 79920 = N 3 0
+ 79968 = N 0 0
+ 80016 = N 3 0
+ 80064 = N 1 0
+ 80112 = N 3 0
+ 80160 = N 2 0
+ 80208 = N 0 0
+ 80256 = N 4 0
+ 80304 = N 1 0
+ 80352 = N 3 0
+ 80400 = N 2 0
+ 80448 = N 0 0
+ 80496 = N 3 0
+ 80544 = N 0 0
+ 80592 = N 1 0
+ 80640 = N 2 0
+ 80688 = N 0 0
+ 80736 = N 1 0
+ 80784 = N 0 0
+ 80832 = N 3 0
+ 80880 = N 1 0
+ 80928 = N 2 0
+ 80976 = N 1 0
+ 81024 = N 2 0
+ 81120 = N 3 0
+ 81216 = N 4 0
+ 81312 = N 2 0
+ 81408 = N 2 0
+ 81456 = N 3 112
+ 81600 = N 2 0
+ 81648 = N 1 0
+ 81696 = N 0 0
+ 81744 = N 1 0
+ 81792 = N 4 160
+ 81984 = N 3 0
+ 82032 = N 2 0
+ 82080 = N 1 0
+ 82128 = N 0 0
+ 82176 = N 1 0
+ 82224 = N 2 112
+ 82368 = N 3 0
+ 82416 = N 2 0
+ 82464 = N 1 0
+ 82512 = N 0 0
+ 82560 = N 2 0
+ 82608 = N 3 112
+ 82752 = N 4 0
+ 82800 = N 2 0
+ 82848 = N 1 0
+ 82896 = N 0 0
+ 82944 = N 3 0
+ 82992 = N 4 112
+ 83136 = N 3 0
+ 83184 = N 2 0
+ 83232 = N 1 0
+ 83280 = N 0 0
+ 83328 = N 2 0
+ 83376 = N 3 112
+ 83520 = N 4 0
+ 83568 = N 3 0
+ 83616 = N 2 0
+ 83664 = N 0 0
+ 83712 = N 1 0
+ 83760 = N 2 112
+ 83904 = N 4 0
+ 83952 = N 3 0
+ 84000 = N 2 0
+ 84048 = N 1 0
+ 84096 = N 3 0
+ 84144 = N 4 0
+ 84192 = N 3 0
+ 84240 = N 4 0
+ 84288 = N 3 0
+ 84384 = N 7 0
+ 84480 = N 3 0
+ 84480 = N 4 0
+ 84576 = N 2 0
+ 84576 = N 4 0
+ 84576 = N 5 0
+ 84672 = N 2 0
+ 84672 = N 4 0
+ 84768 = N 2 0
+ 84768 = N 3 0
+ 84768 = N 5 0
+ 84864 = N 2 0
+ 84864 = N 3 0
+ 84960 = N 1 0
+ 84960 = N 3 0
+ 84960 = N 5 0
+ 85056 = N 1 0
+ 85056 = N 3 0
+ 85152 = N 1 0
+ 85152 = N 2 0
+ 85152 = N 5 0
+ 85248 = N 1 0
+ 85248 = N 2 0
+ 85344 = N 0 0
+ 85344 = N 2 0
+ 85344 = N 5 0
+ 85440 = N 0 160
+ 85440 = N 2 160
+ 85632 = N 2 0
+ 85632 = N 3 0
+ 85632 = N 5 0
+ 85680 = N 3 0
+ 85680 = N 4 0
+ 85680 = N 5 0
+ 85824 = E soloend
+ 86016 = N 1 0
+ 86016 = S 2 1536
+ 86112 = N 3 0
+ 86208 = N 0 0
+ 86304 = N 2 0
+ 86304 = N 4 0
+ 86400 = N 1 0
+ 86496 = N 2 0
+ 86496 = N 4 0
+ 86592 = N 0 0
+ 86688 = N 4 0
+ 86784 = N 1 0
+ 86880 = N 2 0
+ 86880 = N 3 0
+ 86976 = N 0 0
+ 87072 = N 2 0
+ 87072 = N 3 0
+ 87168 = N 1 0
+ 87264 = N 2 0
+ 87264 = N 3 0
+ 87360 = N 0 0
+ 87456 = N 1 0
+ 87456 = N 5 0
+ 87552 = N 1 0
+ 87648 = N 2 0
+ 87648 = N 4 0
+ 87744 = N 0 0
+ 87840 = N 3 0
+ 87936 = N 1 0
+ 88032 = N 2 0
+ 88032 = N 4 0
+ 88320 = N 2 0
+ 88320 = N 4 0
+ 88512 = N 2 160
+ 88512 = N 4 160
+ 88704 = N 1 160
+ 88896 = N 2 160
+ 88896 = N 3 160
+ 89088 = N 0 0
+ 89232 = N 1 0
+ 89280 = N 2 0
+ 89328 = N 3 0
+ 89376 = N 2 0
+ 89472 = N 4 0
+ 89520 = N 2 0
+ 89568 = N 3 0
+ 89664 = N 3 0
+ 89712 = N 1 0
+ 89760 = N 3 0
+ 89808 = N 1 0
+ 89856 = N 2 0
+ 89904 = N 0 0
+ 89952 = N 4 0
+ 90000 = N 2 0
+ 90048 = N 3 0
+ 90096 = N 2 0
+ 90144 = N 3 0
+ 90192 = N 1 0
+ 90240 = N 2 0
+ 90288 = N 3 0
+ 90336 = N 0 0
+ 90384 = N 1 0
+ 90432 = N 2 0
+ 90480 = N 3 0
+ 90576 = N 1 0
+ 90624 = N 0 0
+ 90672 = N 1 0
+ 90720 = N 2 0
+ 90768 = N 1 0
+ 90816 = N 2 0
+ 90864 = N 3 0
+ 90912 = N 1 0
+ 90960 = N 2 0
+ 91008 = N 1 0
+ 91056 = N 2 0
+ 91104 = N 3 0
+ 91152 = N 4 0
+ 91200 = N 3 0
+ 91248 = N 0 0
+ 91296 = N 2 0
+ 91344 = N 3 0
+ 91392 = N 2 0
+ 91440 = N 1 0
+ 91488 = N 0 0
+ 91536 = N 3 0
+ 91584 = N 2 0
+ 91632 = N 4 0
+ 91680 = N 3 0
+ 91728 = N 1 0
+ 91776 = N 2 0
+ 91824 = N 0 0
+ 91872 = N 3 0
+ 91920 = N 1 0
+ 91968 = N 2 0
+ 92016 = N 0 0
+ 92112 = N 2 0
+ 92208 = N 1 0
+ 92304 = N 0 0
+ 92352 = N 1 0
+ 92400 = N 2 0
+ 92448 = N 3 0
+ 92496 = N 4 0
+ 92544 = N 1 0
+ 92592 = N 2 0
+ 92640 = N 4 0
+ 92688 = N 2 0
+ 92736 = N 1 0
+ 92784 = N 4 0
+ 92832 = N 1 0
+ 92928 = N 4 0
+ 92976 = N 3 0
+ 93072 = N 4 0
+ 93120 = N 2 0
+ 93264 = N 3 0
+ 93360 = N 4 0
+ 93408 = N 1 0
+ 93504 = N 0 0
+ 93552 = N 1 0
+ 93600 = N 2 0
+ 93648 = N 1 0
+ 93696 = N 2 0
+ 93696 = S 2 960
+ 93792 = N 1 0
+ 93840 = N 2 0
+ 93888 = N 3 0
+ 93984 = N 4 0
+ 94080 = N 0 0
+ 94176 = N 1 0
+ 94224 = N 2 0
+ 94272 = N 3 0
+ 94368 = N 4 0
+ 94464 = N 2 192
+ 94992 = N 1 0
+ 95040 = N 2 0
+ 95088 = N 1 0
+ 95136 = N 2 0
+ 95184 = N 3 0
+ 95232 = N 4 0
+ 95280 = N 2 0
+ 95328 = N 4 0
+ 95376 = N 4 0
+ 95424 = N 3 0
+ 95472 = N 2 0
+ 95520 = N 1 0
+ 95568 = N 1 0
+ 95616 = N 2 0
+ 95664 = N 1 0
+ 95712 = N 3 0
+ 95760 = N 3 0
+ 95808 = N 2 0
+ 95856 = N 1 0
+ 95904 = N 2 0
+ 95952 = N 0 0
+ 96000 = N 1 0
+ 96096 = N 0 0
+ 96144 = N 1 0
+ 96192 = N 2 0
+ 96240 = N 3 0
+ 96288 = N 2 0
+ 96384 = N 3 0
+ 96672 = N 3 0
+ 96720 = N 3 0
+ 96768 = N 4 0
+ 96816 = N 7 0
+ 96864 = N 4 0
+ 96912 = N 4 0
+ 96960 = N 3 0
+ 97008 = N 2 0
+ 97056 = N 1 0
+ 97104 = N 1 0
+ 97152 = N 2 0
+ 97200 = N 1 0
+ 97248 = N 3 0
+ 97296 = N 3 0
+ 97344 = N 2 0
+ 97392 = N 1 0
+ 97440 = N 2 0
+ 97488 = N 0 0
+ 97536 = N 1 0
+ 97632 = N 1 0
+ 97680 = N 2 0
+ 97728 = N 3 0
+ 97776 = N 2 0
+ 97824 = N 3 0
+ 97920 = N 4 0
+ 98160 = N 2 0
+ 98208 = N 1 0
+ 98256 = N 1 0
+ 98304 = N 2 0
+ 98352 = N 3 0
+ 98400 = N 4 0
+ 98496 = N 1 0
+ 98544 = N 3 0
+ 98592 = N 4 0
+ 98640 = N 3 0
+ 98688 = N 1 0
+ 98736 = N 2 0
+ 98784 = N 4 0
+ 98832 = N 2 0
+ 98880 = N 1 0
+ 98928 = N 2 0
+ 98976 = N 3 0
+ 99072 = N 0 0
+ 99120 = N 2 0
+ 99168 = N 3 0
+ 99216 = N 2 0
+ 99264 = N 0 0
+ 99312 = N 1 0
+ 99360 = N 3 0
+ 99408 = N 1 0
+ 99456 = N 3 0
+ 99504 = N 1 0
+ 99552 = N 3 0
+ 99648 = N 0 192
+ 99888 = N 0 0
+ 99936 = N 1 0
+ 100032 = N 2 0
+ 100128 = N 3 0
+ 100224 = N 3 0
+ 100320 = N 4 0
+ 100320 = N 5 0
+ 100416 = N 2 0
+ 100512 = N 1 0
+ 100608 = N 2 0
+ 101376 = N 1 0
+ 101376 = S 2 768
+ 101424 = N 2 0
+ 101472 = N 3 0
+ 101520 = N 2 0
+ 101568 = N 3 0
+ 101616 = N 3 0
+ 101664 = N 1 0
+ 101712 = N 2 0
+ 101760 = N 3 0
+ 101808 = N 2 0
+ 101856 = N 3 0
+ 101904 = N 3 0
+ 101952 = N 1 0
+ 102000 = N 2 0
+ 102048 = N 3 0
+ 102096 = N 2 0
+ 102144 = N 3 0
+ 102192 = N 3 0
+ 102240 = N 1 0
+ 102288 = N 2 0
+ 102336 = N 3 0
+ 102384 = N 2 0
+ 102432 = N 3 0
+ 102480 = N 3 0
+ 102528 = N 1 0
+ 102576 = N 2 0
+ 102624 = N 3 0
+ 102672 = N 2 0
+ 102720 = N 3 0
+ 102768 = N 4 0
+ 102816 = N 3 0
+ 102864 = N 2 0
+ 102912 = N 0 0
+ 102960 = N 2 0
+ 103008 = N 3 0
+ 103056 = N 2 0
+ 103104 = N 3 0
+ 103152 = N 3 0
+ 103200 = N 0 0
+ 103248 = N 2 0
+ 103296 = N 3 0
+ 103344 = N 2 0
+ 103392 = N 3 0
+ 103440 = N 3 0
+ 103488 = N 0 0
+ 103536 = N 1 0
+ 103584 = N 2 0
+ 103632 = N 1 0
+ 103680 = N 2 0
+ 103728 = N 3 0
+ 103776 = N 0 0
+ 103824 = N 2 0
+ 103872 = N 3 0
+ 103920 = N 2 0
+ 103968 = N 3 0
+ 104016 = N 3 0
+ 104064 = N 0 0
+ 104112 = N 2 0
+ 104160 = N 3 0
+ 104208 = N 2 0
+ 104256 = N 3 0
+ 104304 = N 4 0
+ 104352 = N 3 0
+ 104400 = N 2 0
+ 104448 = N 0 0
+ 104496 = N 1 0
+ 104544 = N 3 0
+ 104592 = N 1 0
+ 104640 = N 3 0
+ 104688 = N 3 0
+ 104736 = N 0 0
+ 104784 = N 1 0
+ 104832 = N 3 0
+ 104880 = N 1 0
+ 104928 = N 3 0
+ 104976 = N 3 0
+ 105024 = N 0 0
+ 105072 = N 1 0
+ 105120 = N 3 0
+ 105168 = N 1 0
+ 105216 = N 3 0
+ 105264 = N 3 0
+ 105312 = N 0 0
+ 105360 = N 1 0
+ 105408 = N 3 0
+ 105456 = N 1 0
+ 105504 = N 3 0
+ 105552 = N 3 0
+ 105600 = N 0 0
+ 105648 = N 1 0
+ 105696 = N 3 0
+ 105744 = N 1 0
+ 105792 = N 3 0
+ 105840 = N 4 0
+ 105888 = N 3 0
+ 105936 = N 2 0
+ 105984 = N 1 0
+ 106032 = N 2 208
+ 106272 = N 1 0
+ 106272 = N 5 0
+ 106368 = N 0 192
+ 106368 = N 5 0
+ 107520 = N 7 0
+ 107568 = N 0 0
+ 107568 = N 5 0
+ 107664 = N 1 0
+ 107760 = N 2 0
+ 107856 = N 3 0
+ 107904 = N 4 0
+ 107952 = N 3 0
+ 108000 = N 2 0
+ 108048 = N 4 0
+ 108096 = N 3 112
+ 108240 = N 2 0
+ 108288 = S 2 768
+ 108336 = N 0 0
+ 108432 = N 1 0
+ 108528 = N 2 0
+ 108624 = N 3 0
+ 108672 = N 2 0
+ 108720 = N 4 0
+ 108768 = N 3 112
+ 108912 = N 1 0
+ 109104 = N 4 0
+ 109200 = N 3 0
+ 109248 = N 1 0
+ 109296 = N 0 0
+ 109392 = N 4 0
+ 109488 = N 3 0
+ 109536 = N 2 0
+ 109584 = N 0 0
+ 109680 = N 4 0
+ 109776 = N 3 0
+ 109824 = N 2 0
+ 109872 = N 1 0
+ 109968 = N 4 0
+ 110016 = N 3 0
+ 110064 = N 2 0
+ 110112 = N 1 0
+ 110160 = N 2 0
+ 110208 = N 1 0
+ 110256 = N 3 0
+ 110304 = N 1 0
+ 110640 = N 0 0
+ 110736 = N 1 0
+ 110832 = N 2 0
+ 110928 = N 3 0
+ 110976 = N 4 0
+ 111024 = N 3 0
+ 111072 = N 2 0
+ 111120 = N 4 0
+ 111168 = N 3 112
+ 111312 = N 4 0
+ 111408 = N 0 0
+ 111504 = N 1 0
+ 111600 = N 2 0
+ 111648 = N 3 0
+ 111696 = N 2 0
+ 111744 = N 1 0
+ 111792 = N 3 0
+ 111840 = N 2 112
+ 111984 = N 4 0
+ 112176 = N 3 0
+ 112224 = N 4 0
+ 112272 = N 3 0
+ 112320 = N 2 0
+ 112368 = N 1 0
+ 112464 = N 2 0
+ 112560 = N 3 0
+ 112608 = N 2 0
+ 112656 = N 0 0
+ 112704 = N 1 0
+ 112752 = N 0 0
+ 112848 = N 4 0
+ 112896 = N 3 0
+ 112944 = N 2 0
+ 112992 = N 1 0
+ 113040 = N 0 0
+ 113088 = N 1 0
+ 113136 = N 3 0
+ 113184 = N 0 0
+ 113424 = N 1 0
+ 113424 = N 6 0
+ 113472 = N 2 0
+ 113472 = N 6 0
+ 113664 = N 0 0
+ 113712 = N 1 0
+ 113760 = N 2 0
+ 113856 = N 2 0
+ 113952 = N 2 0
+ 114000 = N 2 0
+ 114048 = N 3 0
+ 114096 = N 1 240
+ 114432 = N 4 0
+ 114528 = N 3 0
+ 114624 = N 2 0
+ 114720 = N 0 0
+ 114768 = N 1 336
+ 115200 = N 0 0
+ 115248 = N 1 0
+ 115296 = N 2 0
+ 115344 = N 1 0
+ 115392 = N 2 0
+ 115488 = N 2 0
+ 115584 = N 3 0
+ 115632 = N 1 240
+ 116016 = N 2 0
+ 116112 = N 3 0
+ 116160 = N 4 0
+ 116256 = N 1 0
+ 116320 = N 2 0
+ 116384 = N 3 0
+ 116448 = N 0 240
+ 116736 = N 0 0
+ 116736 = S 2 1536
+ 116784 = N 1 0
+ 116832 = N 2 0
+ 116928 = N 2 0
+ 117024 = N 2 0
+ 117072 = N 2 0
+ 117120 = N 3 0
+ 117168 = N 1 144
+ 117408 = N 7 0
+ 117504 = N 1 0
+ 117552 = N 2 0
+ 117600 = N 3 0
+ 117648 = N 2 0
+ 117696 = N 3 0
+ 117792 = N 3 0
+ 117840 = N 4 192
+ 118272 = N 0 0
+ 118336 = N 1 0
+ 118400 = N 2 0
+ 118496 = N 1 0
+ 118560 = N 2 0
+ 118624 = N 3 0
+ 118688 = N 0 0
+ 118752 = N 2 0
+ 118816 = N 3 0
+ 118880 = N 0 0
+ 118944 = N 1 0
+ 118992 = N 4 0
+ 119040 = N 1 0
+ 119088 = N 2 0
+ 119136 = N 3 0
+ 119184 = N 1 0
+ 119232 = N 2 0
+ 119280 = N 3 0
+ 119328 = N 2 0
+ 119376 = N 4 240
+ 119808 = N 7 0
+ 119856 = N 0 0
+ 119856 = N 5 0
+ 119952 = N 1 0
+ 120048 = N 2 0
+ 120144 = N 3 0
+ 120192 = N 4 0
+ 120240 = N 3 0
+ 120288 = N 2 0
+ 120336 = N 4 0
+ 120384 = N 3 112
+ 120528 = N 2 0
+ 120624 = N 0 0
+ 120720 = N 1 0
+ 120816 = N 2 0
+ 120864 = N 3 0
+ 120912 = N 2 0
+ 120960 = N 1 0
+ 121008 = N 3 0
+ 121056 = N 2 112
+ 121200 = N 1 0
+ 121392 = N 4 0
+ 121488 = N 3 0
+ 121536 = N 2 0
+ 121584 = N 1 0
+ 121680 = N 3 0
+ 121776 = N 2 0
+ 121824 = N 1 0
+ 121872 = N 0 0
+ 122064 = N 2 0
+ 122112 = N 3 0
+ 122144 = N 4 0
+ 122176 = N 3 0
+ 122208 = N 2 0
+ 122240 = N 3 0
+ 122272 = N 2 0
+ 122304 = N 1 0
+ 122336 = N 2 0
+ 122368 = N 1 0
+ 122400 = N 0 0
+ 122880 = N 7 0
+ 122928 = N 0 0
+ 122928 = N 5 0
+ 123024 = N 1 0
+ 123120 = N 2 0
+ 123216 = N 3 0
+ 123264 = N 4 0
+ 123312 = N 3 0
+ 123360 = N 2 0
+ 123408 = N 4 0
+ 123456 = N 3 112
+ 123600 = N 4 0
+ 123696 = N 0 0
+ 123792 = N 1 0
+ 123888 = N 2 0
+ 123936 = N 3 0
+ 123984 = N 2 0
+ 124032 = N 1 0
+ 124080 = N 3 0
+ 124128 = N 2 112
+ 124272 = N 4 0
+ 124464 = N 3 0
+ 124512 = N 4 0
+ 124560 = N 3 0
+ 124608 = N 2 0
+ 124656 = N 1 0
+ 124752 = N 2 0
+ 124848 = N 3 0
+ 124896 = N 2 0
+ 124944 = N 0 0
+ 124992 = N 1 0
+ 125040 = N 0 0
+ 125136 = N 4 0
+ 125184 = N 3 0
+ 125232 = N 2 0
+ 125280 = N 1 0
+ 125328 = N 0 0
+ 125376 = N 1 0
+ 125424 = N 3 0
+ 125472 = N 0 0
+ 125904 = N 4 0
+ 125952 = N 3 0
+ 126000 = N 2 0
+ 126048 = N 1 0
+ 126096 = N 0 0
+ 126144 = N 1 0
+ 126192 = N 3 0
+ 126240 = N 0 0
+ 126672 = N 3 0
+ 126720 = N 2 0
+ 126768 = N 1 0
+ 126912 = N 2 0
+ 126960 = N 3 0
+ 127008 = N 0 0
+ 127440 = N 4 0
+ 127488 = N 3 0
+ 127536 = N 2 0
+ 127584 = N 1 0
+ 127632 = N 0 0
+ 127680 = N 1 0
+ 127728 = N 3 0
+ 127968 = N 4 1824
+ 127968 = N 6 0
+}
+[HardSingle]
+{
+ 1584 = N 0 0
+ 1680 = N 1 0
+ 1776 = N 2 0
+ 1872 = N 3 0
+ 1920 = N 4 0
+ 1968 = N 3 0
+ 2016 = N 2 0
+ 2064 = N 4 0
+ 2112 = N 3 112
+ 2256 = N 2 0
+ 2352 = N 0 0
+ 2448 = N 1 0
+ 2544 = N 2 0
+ 2592 = N 3 0
+ 2640 = N 2 0
+ 2688 = N 1 0
+ 2736 = N 3 0
+ 2784 = N 2 112
+ 2928 = N 1 0
+ 3072 = N 4 0
+ 3072 = S 2 768
+ 3120 = N 3 0
+ 3168 = N 2 0
+ 3216 = N 3 0
+ 3264 = N 2 0
+ 3312 = N 1 0
+ 3360 = N 2 0
+ 3408 = N 1 0
+ 3456 = N 0 192
+ 3840 = N 4 0
+ 3936 = N 3 0
+ 4032 = N 2 0
+ 4128 = N 1 0
+ 4224 = N 0 352
+ 4608 = N 1 640
+ 5280 = N 2 0
+ 5328 = N 3 0
+ 5376 = N 2 0
+ 5472 = N 2 0
+ 5520 = N 3 0
+ 5568 = N 2 384
+ 6192 = N 0 0
+ 6288 = N 1 0
+ 6384 = N 2 0
+ 6480 = N 3 0
+ 6528 = N 4 0
+ 6576 = N 3 0
+ 6624 = N 2 0
+ 6672 = N 4 0
+ 6720 = N 3 112
+ 6864 = N 2 0
+ 6960 = N 0 0
+ 7056 = N 1 0
+ 7152 = N 2 0
+ 7200 = N 3 0
+ 7248 = N 2 0
+ 7296 = N 1 0
+ 7344 = N 3 0
+ 7392 = N 2 112
+ 7536 = N 1 0
+ 7728 = N 4 0
+ 7824 = N 3 0
+ 7872 = N 2 0
+ 7920 = N 1 0
+ 8016 = N 3 0
+ 8112 = N 2 0
+ 8160 = N 1 0
+ 8208 = N 0 96
+ 8448 = N 4 0
+ 8496 = N 3 0
+ 8544 = N 2 0
+ 8592 = N 3 0
+ 8640 = N 2 0
+ 8688 = N 1 0
+ 8736 = N 0 0
+ 9264 = N 0 0
+ 9360 = N 1 0
+ 9456 = N 2 0
+ 9552 = N 3 0
+ 9600 = N 4 0
+ 9648 = N 3 0
+ 9696 = N 2 0
+ 9744 = N 4 0
+ 9792 = N 3 112
+ 9936 = N 4 0
+ 9984 = S 2 768
+ 10032 = N 0 0
+ 10128 = N 1 0
+ 10224 = N 2 0
+ 10272 = N 3 0
+ 10320 = N 2 0
+ 10368 = N 1 0
+ 10416 = N 3 0
+ 10464 = N 2 112
+ 10608 = N 4 0
+ 10608 = N 5 0
+ 10800 = N 3 0
+ 10848 = N 4 0
+ 10896 = N 3 0
+ 10944 = N 2 0
+ 11088 = N 1 0
+ 11184 = N 2 0
+ 11232 = N 1 0
+ 11280 = N 0 0
+ 11328 = N 1 0
+ 11472 = N 4 0
+ 11520 = N 4 0
+ 11568 = N 3 0
+ 11616 = N 2 0
+ 11664 = N 1 0
+ 11712 = N 3 0
+ 11760 = N 2 0
+ 11808 = N 1 256
+ 12096 = N 0 160
+ 12096 = N 5 0
+ 12336 = N 0 0
+ 12432 = N 1 0
+ 12528 = N 2 0
+ 12624 = N 3 0
+ 12672 = N 4 0
+ 12720 = N 3 0
+ 12768 = N 2 0
+ 12816 = N 4 0
+ 12864 = N 3 112
+ 13008 = N 2 0
+ 13104 = N 0 0
+ 13200 = N 1 0
+ 13296 = N 2 0
+ 13344 = N 3 0
+ 13392 = N 2 0
+ 13440 = N 1 0
+ 13488 = N 3 0
+ 13536 = N 2 0
+ 13680 = N 1 0
+ 13872 = N 4 0
+ 13968 = N 3 0
+ 14016 = N 2 0
+ 14064 = N 1 0
+ 14160 = N 3 0
+ 14256 = N 2 0
+ 14304 = N 1 0
+ 14352 = N 0 0
+ 14592 = N 4 0
+ 14640 = N 3 0
+ 14688 = N 2 0
+ 14736 = N 3 0
+ 14784 = N 2 0
+ 14832 = N 1 0
+ 14880 = N 0 0
+ 15408 = N 0 0
+ 15504 = N 1 0
+ 15600 = N 2 0
+ 15696 = N 3 0
+ 15744 = N 4 0
+ 15792 = N 3 0
+ 15840 = N 2 0
+ 15888 = N 4 0
+ 15936 = N 3 112
+ 16080 = N 4 0
+ 16176 = N 0 0
+ 16272 = N 1 0
+ 16368 = N 2 0
+ 16416 = N 3 0
+ 16464 = N 2 0
+ 16512 = N 1 0
+ 16560 = N 3 0
+ 16608 = N 2 112
+ 16752 = N 4 0
+ 16896 = S 2 1152
+ 16944 = N 3 0
+ 16992 = N 4 0
+ 17040 = N 3 0
+ 17088 = N 2 0
+ 17232 = N 1 0
+ 17328 = N 2 0
+ 17376 = N 1 0
+ 17424 = N 0 0
+ 17472 = N 1 0
+ 17616 = N 4 0
+ 17664 = N 3 0
+ 17712 = N 2 0
+ 17760 = N 1 0
+ 17856 = N 1 0
+ 17904 = N 2 0
+ 17952 = N 0 0
+ 18432 = N 0 0
+ 18480 = N 1 0
+ 18528 = N 2 0
+ 18624 = N 2 0
+ 18720 = N 2 0
+ 18816 = N 3 0
+ 18864 = N 1 240
+ 19200 = N 3 0
+ 19248 = N 4 0
+ 19296 = N 3 0
+ 19392 = N 2 0
+ 19488 = N 0 0
+ 19536 = N 1 400
+ 19968 = N 0 0
+ 20016 = N 1 0
+ 20064 = N 2 0
+ 20160 = N 1 0
+ 20256 = N 2 0
+ 20352 = N 3 0
+ 20400 = N 1 240
+ 20832 = N 2 0
+ 20880 = N 3 0
+ 20928 = N 4 0
+ 21024 = N 2 0
+ 21120 = N 3 0
+ 21168 = N 0 240
+ 21504 = N 0 0
+ 21552 = N 1 0
+ 21600 = N 2 0
+ 21696 = N 2 0
+ 21792 = N 2 0
+ 21888 = N 3 0
+ 21936 = N 1 144
+ 22272 = N 1 0
+ 22320 = N 2 0
+ 22368 = N 3 0
+ 22464 = N 3 0
+ 22560 = N 3 0
+ 22608 = N 4 240
+ 23040 = N 0 0
+ 23136 = N 2 0
+ 23184 = N 0 0
+ 23280 = N 2 0
+ 23328 = N 1 0
+ 23424 = N 3 0
+ 23472 = N 1 0
+ 23568 = N 3 0
+ 23616 = N 2 0
+ 23712 = N 4 0
+ 23760 = N 2 0
+ 23856 = N 4 0
+ 23904 = N 3 0
+ 24000 = N 3 0
+ 24096 = N 4 0
+ 24144 = N 3 240
+ 24144 = N 4 240
+ 24576 = S 2 768
+ 24624 = N 0 0
+ 24720 = N 1 0
+ 24816 = N 2 0
+ 24912 = N 3 0
+ 24960 = N 4 0
+ 25008 = N 3 0
+ 25056 = N 2 0
+ 25104 = N 4 0
+ 25152 = N 3 112
+ 25296 = N 2 0
+ 25392 = N 0 0
+ 25488 = N 1 0
+ 25584 = N 2 0
+ 25632 = N 3 0
+ 25680 = N 2 0
+ 25728 = N 1 0
+ 25776 = N 3 0
+ 25824 = N 2 112
+ 25968 = N 1 0
+ 26160 = N 3 0
+ 26208 = N 4 0
+ 26256 = N 3 0
+ 26304 = N 2 0
+ 26352 = N 1 0
+ 26448 = N 3 0
+ 26544 = N 2 0
+ 26592 = N 1 0
+ 26640 = N 0 96
+ 26880 = N 4 0
+ 26928 = N 3 0
+ 26976 = N 2 0
+ 27024 = N 3 0
+ 27072 = N 2 0
+ 27120 = N 1 0
+ 27168 = N 0 0
+ 27696 = N 0 0
+ 27792 = N 1 0
+ 27888 = N 2 0
+ 27984 = N 3 0
+ 28032 = N 4 0
+ 28080 = N 3 0
+ 28128 = N 2 0
+ 28176 = N 4 0
+ 28224 = N 3 112
+ 28368 = N 4 0
+ 28464 = N 0 0
+ 28560 = N 1 0
+ 28656 = N 2 0
+ 28704 = N 3 0
+ 28752 = N 2 0
+ 28800 = N 1 0
+ 28848 = N 3 0
+ 28896 = N 2 112
+ 29040 = N 4 0
+ 29232 = N 3 0
+ 29280 = N 4 0
+ 29328 = N 3 0
+ 29376 = N 2 0
+ 29520 = N 1 0
+ 29616 = N 2 0
+ 29664 = N 1 0
+ 29712 = N 0 0
+ 29760 = N 1 0
+ 29904 = N 4 0
+ 29952 = N 3 0
+ 30000 = N 2 0
+ 30048 = N 1 0
+ 30144 = N 1 0
+ 30192 = N 2 0
+ 30240 = N 0 0
+ 30384 = N 1 0
+ 30384 = E solo
+ 30480 = N 2 0
+ 30576 = N 0 0
+ 30672 = N 1 0
+ 30768 = N 3 0
+ 30768 = N 6 0
+ 30816 = N 4 0
+ 30816 = N 6 0
+ 30864 = N 3 0
+ 30864 = N 6 0
+ 30912 = N 2 0
+ 30912 = N 6 0
+ 30960 = N 3 0
+ 30960 = N 6 0
+ 31008 = N 2 0
+ 31008 = N 6 0
+ 31056 = N 1 0
+ 31056 = N 6 0
+ 31104 = N 2 0
+ 31104 = N 6 0
+ 31152 = N 1 0
+ 31152 = N 6 0
+ 31200 = N 0 0
+ 31200 = N 6 0
+ 31248 = N 1 0
+ 31248 = N 6 0
+ 31296 = N 0 0
+ 31296 = N 6 0
+ 31440 = N 3 0
+ 31488 = N 2 0
+ 31488 = S 2 576
+ 31536 = N 3 0
+ 31584 = N 4 0
+ 31632 = N 3 0
+ 31680 = N 2 0
+ 31728 = N 1 0
+ 31776 = N 0 0
+ 31872 = N 1 0
+ 31920 = N 0 0
+ 32160 = N 0 0
+ 32208 = N 1 0
+ 32256 = N 0 0
+ 32352 = N 3 0
+ 32400 = N 3 0
+ 32448 = N 2 0
+ 32544 = N 1 0
+ 32640 = N 1 0
+ 32688 = N 2 0
+ 32736 = N 3 0
+ 32784 = N 4 0
+ 32832 = N 3 0
+ 32880 = N 1 0
+ 32928 = N 2 0
+ 33024 = N 1 0
+ 33120 = N 0 0
+ 33168 = N 1 0
+ 33216 = N 2 0
+ 33264 = N 1 0
+ 33312 = N 2 0
+ 33360 = N 3 0
+ 33408 = N 2 0
+ 33504 = N 1 0
+ 33552 = N 4 0
+ 33648 = N 3 0
+ 33696 = N 2 0
+ 33744 = N 1 0
+ 33792 = N 0 0
+ 33840 = N 3 0
+ 33888 = N 2 0
+ 33936 = N 1 0
+ 33984 = N 0 0
+ 34032 = N 2 0
+ 34080 = N 1 0
+ 34128 = N 0 0
+ 34176 = N 1 0
+ 34224 = N 2 0
+ 34320 = N 4 0
+ 34368 = N 1 0
+ 34416 = N 2 0
+ 34464 = N 3 0
+ 34512 = N 4 0
+ 34560 = N 3 0
+ 34656 = N 1 0
+ 34704 = N 3 0
+ 34752 = N 2 0
+ 34800 = N 1 0
+ 34896 = N 2 0
+ 34944 = N 3 0
+ 35040 = N 2 0
+ 35088 = N 3 0
+ 35232 = N 2 0
+ 35280 = N 3 0
+ 35360 = N 2 0
+ 35424 = N 3 0
+ 35488 = N 4 0
+ 35664 = N 2 0
+ 35712 = N 1 0
+ 35904 = N 2 0
+ 35952 = N 4 0
+ 36048 = N 3 0
+ 36144 = N 2 0
+ 36224 = N 0 0
+ 36288 = N 1 0
+ 36352 = N 2 0
+ 36416 = N 3 0
+ 36480 = N 4 0
+ 36544 = N 3 0
+ 36608 = N 2 0
+ 36704 = N 1 0
+ 36768 = N 0 0
+ 36864 = N 4 0
+ 36928 = N 3 0
+ 36992 = N 2 0
+ 37056 = N 3 0
+ 37120 = N 1 0
+ 37184 = N 2 0
+ 37248 = N 3 0
+ 37312 = N 2 0
+ 37376 = N 1 0
+ 37440 = N 2 0
+ 37488 = N 0 0
+ 37536 = N 1 0
+ 37632 = N 2 0
+ 37728 = N 3 0
+ 37824 = N 4 0
+ 37920 = N 3 0
+ 38016 = N 1 0
+ 38064 = N 2 0
+ 38160 = N 3 0
+ 38208 = N 4 0
+ 38304 = N 4 0
+ 38352 = N 3 0
+ 38400 = S 2 1536
+ 38448 = N 3 0
+ 38496 = N 2 0
+ 38592 = N 2 0
+ 38640 = N 1 0
+ 38736 = N 1 0
+ 38784 = N 0 0
+ 38928 = N 4 0
+ 39024 = N 4 0
+ 39072 = N 3 0
+ 39168 = N 3 0
+ 39216 = N 2 0
+ 39312 = N 2 0
+ 39360 = N 3 0
+ 39456 = N 2 0
+ 39552 = N 1 0
+ 40320 = N 0 0
+ 40368 = N 1 0
+ 40416 = N 2 0
+ 40512 = N 1 0
+ 40560 = N 2 0
+ 40608 = N 3 0
+ 40704 = N 2 0
+ 40752 = N 3 0
+ 40800 = N 4 0
+ 40896 = N 1 0
+ 40992 = N 2 0
+ 41040 = N 3 0
+ 41088 = N 4 0
+ 41184 = N 3 0
+ 41280 = N 2 0
+ 41376 = N 1 0
+ 41472 = N 3 0
+ 41520 = N 4 0
+ 41568 = N 3 0
+ 41664 = N 2 0
+ 41712 = N 3 0
+ 41760 = N 2 0
+ 41856 = N 1 0
+ 41904 = N 3 0
+ 41952 = N 2 0
+ 42048 = N 1 0
+ 42096 = N 2 0
+ 42144 = N 3 0
+ 42192 = N 4 0
+ 42240 = N 1 0
+ 42336 = N 1 0
+ 42432 = N 2 0
+ 42528 = N 2 0
+ 42624 = N 3 0
+ 42720 = N 3 0
+ 42816 = N 4 0
+ 42898 = N 3 0
+ 42953 = N 2 0
+ 43008 = N 1 0
+ 43152 = N 3 0
+ 43248 = N 2 0
+ 43344 = N 1 0
+ 43440 = N 4 0
+ 43536 = N 3 0
+ 43584 = N 2 0
+ 43680 = N 1 0
+ 43728 = N 0 0
+ 43808 = N 3 0
+ 43968 = N 1 0
+ 44040 = N 2 0
+ 44112 = N 4 0
+ 44192 = N 3 0
+ 44352 = N 1 0
+ 44403 = N 2 0
+ 44454 = N 3 0
+ 44544 = N 2 0
+ 44592 = N 3 0
+ 44672 = N 4 0
+ 44736 = N 3 0
+ 44784 = N 2 0
+ 44832 = N 1 0
+ 44928 = N 4 0
+ 44976 = N 3 0
+ 45024 = N 4 0
+ 45072 = N 3 0
+ 45120 = N 2 0
+ 45216 = N 1 0
+ 45264 = N 2 0
+ 45312 = N 0 0
+ 45408 = N 2 0
+ 45456 = N 0 0
+ 45504 = N 1 0
+ 45552 = N 2 0
+ 45648 = N 3 0
+ 45696 = N 1 0
+ 45792 = N 3 0
+ 45840 = N 2 0
+ 45936 = N 4 0
+ 45984 = N 3 0
+ 46080 = N 1 0
+ 46080 = S 2 1248
+ 46176 = N 1 0
+ 46224 = N 2 0
+ 46272 = N 1 0
+ 46368 = N 2 0
+ 46464 = N 1 0
+ 46512 = N 3 0
+ 46608 = N 2 0
+ 46656 = N 3 0
+ 46704 = N 2 0
+ 46800 = N 3 0
+ 46848 = N 1 0
+ 46944 = N 2 0
+ 46992 = N 1 0
+ 47088 = N 3 0
+ 47136 = N 2 0
+ 47232 = N 4 0
+ 47280 = N 3 0
+ 47376 = N 4 0
+ 47520 = N 4 0
+ 47664 = N 3 0
+ 47712 = N 2 0
+ 47760 = N 4 0
+ 47808 = N 3 0
+ 47856 = N 2 0
+ 47904 = N 1 0
+ 48000 = N 3 0
+ 48048 = N 2 0
+ 48096 = N 1 0
+ 48192 = N 1 0
+ 48288 = N 0 0
+ 48384 = N 1 0
+ 48480 = N 3 0
+ 48528 = N 3 0
+ 48576 = N 4 0
+ 48960 = N 2 0
+ 48960 = N 3 0
+ 49056 = N 2 0
+ 49056 = N 4 0
+ 49152 = N 1 0
+ 49296 = N 0 0
+ 49392 = N 3 0
+ 49392 = N 4 0
+ 49488 = N 2 0
+ 49488 = N 4 0
+ 49584 = N 2 0
+ 49584 = N 4 0
+ 49728 = N 1 0
+ 49728 = N 4 0
+ 49824 = N 3 0
+ 49824 = N 4 0
+ 49920 = N 3 0
+ 49920 = N 4 0
+ 49968 = N 3 0
+ 49968 = N 4 0
+ 50064 = N 2 0
+ 50064 = N 4 0
+ 50160 = N 2 0
+ 50160 = N 4 0
+ 50256 = N 1 0
+ 50256 = N 3 0
+ 50352 = N 1 0
+ 50352 = N 3 0
+ 50496 = N 2 0
+ 50640 = N 0 0
+ 50736 = N 2 0
+ 50832 = N 1 0
+ 50928 = N 3 0
+ 51024 = N 2 0
+ 51072 = N 4 0
+ 51120 = N 3 0
+ 51168 = N 2 0
+ 51264 = N 1 0
+ 51360 = N 0 0
+ 51408 = N 1 0
+ 51456 = N 2 0
+ 51552 = N 2 0
+ 51648 = N 3 0
+ 51744 = N 2 0
+ 51840 = N 1 0
+ 51936 = N 4 0
+ 52032 = N 2 0
+ 52080 = N 1 0
+ 52128 = N 0 0
+ 52176 = N 3 0
+ 52224 = N 2 0
+ 52320 = N 3 0
+ 52368 = N 2 0
+ 52416 = N 1 0
+ 52480 = N 0 0
+ 52544 = N 1 0
+ 52632 = N 2 0
+ 52688 = N 3 0
+ 52744 = N 2 0
+ 52800 = N 3 0
+ 52864 = N 2 0
+ 52928 = N 3 0
+ 52992 = N 2 0
+ 53056 = N 1 0
+ 53120 = N 2 0
+ 53184 = N 3 0
+ 53248 = N 2 0
+ 53312 = N 3 0
+ 53376 = N 4 0
+ 53440 = N 3 0
+ 53504 = N 4 0
+ 53568 = N 2 0
+ 53632 = N 1 0
+ 53696 = N 2 0
+ 53760 = N 3 0
+ 53824 = N 2 0
+ 53888 = N 3 0
+ 53952 = N 4 0
+ 54016 = N 3 0
+ 54080 = N 4 0
+ 54192 = N 3 0
+ 54240 = N 4 0
+ 54336 = N 3 0
+ 54432 = S 2 768
+ 54480 = N 4 0
+ 54528 = N 3 0
+ 54576 = N 2 0
+ 54624 = N 1 0
+ 54720 = N 1 0
+ 54768 = N 2 0
+ 54816 = N 0 0
+ 55200 = E soloend
+ 55296 = N 0 0
+ 55344 = N 1 0
+ 55392 = N 2 0
+ 55488 = N 2 0
+ 55584 = N 2 0
+ 55680 = N 3 0
+ 55728 = N 1 240
+ 56064 = N 3 0
+ 56112 = N 4 0
+ 56160 = N 3 0
+ 56256 = N 2 0
+ 56352 = N 0 0
+ 56400 = N 1 336
+ 56832 = N 0 0
+ 56880 = N 1 0
+ 56928 = N 2 0
+ 57024 = N 2 0
+ 57120 = N 2 0
+ 57216 = N 3 192
+ 57600 = N 4 0
+ 57648 = N 3 0
+ 57696 = N 2 0
+ 57744 = N 1 0
+ 57792 = N 2 0
+ 57840 = N 3 0
+ 57888 = N 1 0
+ 57936 = N 2 0
+ 57984 = N 1 0
+ 58032 = N 0 240
+ 58464 = N 0 0
+ 58512 = N 1 0
+ 58560 = N 2 0
+ 58656 = N 2 0
+ 58752 = N 3 0
+ 58800 = N 1 144
+ 59040 = N 1 0
+ 59088 = N 2 0
+ 59136 = N 3 0
+ 59232 = N 3 0
+ 59328 = N 4 0
+ 59424 = N 3 0
+ 59472 = N 1 144
+ 59904 = N 4 0
+ 59952 = N 4 0
+ 60000 = N 4 0
+ 60048 = N 3 0
+ 60096 = N 2 0
+ 60192 = N 1 0
+ 60240 = N 3 0
+ 60384 = N 3 0
+ 60432 = N 0 0
+ 60480 = N 1 0
+ 60576 = N 4 0
+ 60672 = N 3 0
+ 60768 = N 2 0
+ 60864 = N 0 0
+ 60912 = N 1 0
+ 60960 = N 2 0
+ 61056 = N 2 0
+ 61152 = N 3 0
+ 61248 = N 2 0
+ 61344 = N 1 0
+ 61440 = N 4 0
+ 61440 = S 2 1536
+ 61440 = E solo
+ 61536 = N 4 0
+ 61632 = N 3 0
+ 61728 = N 2 0
+ 61776 = N 1 0
+ 61824 = N 2 144
+ 62016 = N 0 0
+ 62112 = N 1 0
+ 62208 = N 1 0
+ 62304 = N 1 0
+ 62400 = N 2 0
+ 62496 = N 1 0
+ 62544 = N 2 0
+ 62640 = N 3 0
+ 62688 = N 2 0
+ 62784 = N 3 0
+ 62880 = N 4 0
+ 63168 = N 4 0
+ 63216 = N 3 0
+ 63264 = N 2 0
+ 63360 = N 2 0
+ 63456 = N 1 192
+ 63840 = N 1 0
+ 63936 = N 2 0
+ 64032 = N 2 0
+ 64080 = N 3 0
+ 64176 = N 4 0
+ 64224 = N 4 0
+ 64272 = N 3 0
+ 64320 = N 2 0
+ 64368 = N 3 0
+ 64416 = N 2 0
+ 64512 = N 1 0
+ 64560 = N 0 0
+ 64608 = N 1 0
+ 64656 = N 3 0
+ 64704 = N 2 0
+ 64800 = N 1 0
+ 64896 = N 3 0
+ 64992 = N 3 0
+ 65088 = N 2 0
+ 65184 = N 1 0
+ 65280 = N 0 0
+ 65328 = N 1 0
+ 65376 = N 2 0
+ 65472 = N 1 0
+ 65520 = N 2 0
+ 65568 = N 3 0
+ 65712 = N 4 0
+ 65856 = N 4 0
+ 65952 = N 3 0
+ 66048 = N 2 0
+ 66144 = N 1 0
+ 66240 = N 3 0
+ 66336 = N 2 0
+ 66432 = N 1 0
+ 66480 = N 0 208
+ 66720 = N 1 0
+ 66816 = N 0 0
+ 66912 = N 0 0
+ 66960 = N 1 0
+ 67008 = N 1 0
+ 67104 = N 1 0
+ 67136 = N 1 0
+ 67168 = N 1 0
+ 67200 = N 1 0
+ 67296 = N 2 0
+ 67328 = N 2 0
+ 67360 = N 2 0
+ 67392 = N 2 0
+ 67488 = N 2 0
+ 67536 = N 3 0
+ 67584 = N 4 0
+ 67680 = N 3 0
+ 67776 = N 2 0
+ 67824 = N 0 0
+ 67872 = N 1 0
+ 67968 = N 0 160
+ 68160 = N 3 0
+ 68256 = N 1 0
+ 68352 = N 0 0
+ 68448 = N 2 0
+ 68544 = N 0 0
+ 68640 = N 3 0
+ 68736 = N 1 0
+ 68832 = N 3 160
+ 69024 = N 4 0
+ 69216 = N 4 0
+ 69264 = N 2 0
+ 69312 = N 3 112
+ 69456 = N 2 0
+ 69504 = N 1 160
+ 69696 = N 2 0
+ 69792 = N 1 0
+ 69888 = N 0 0
+ 69888 = S 2 768
+ 69984 = N 2 0
+ 70080 = N 0 0
+ 70176 = N 2 0
+ 70272 = N 1 0
+ 70368 = N 3 0
+ 70464 = N 2 0
+ 70560 = N 3 0
+ 70656 = N 4 0
+ 70704 = N 4 0
+ 70752 = N 3 0
+ 70800 = N 2 0
+ 70848 = N 1 160
+ 71040 = N 4 0
+ 71088 = N 4 0
+ 71136 = N 2 0
+ 71184 = N 1 0
+ 71232 = N 0 160
+ 71424 = N 3 0
+ 71472 = N 3 0
+ 71520 = N 2 0
+ 71568 = N 1 0
+ 71616 = N 0 160
+ 71808 = N 3 0
+ 71904 = N 2 0
+ 71952 = N 1 0
+ 72000 = N 0 160
+ 72192 = N 1 0
+ 72288 = N 3 0
+ 72288 = N 4 0
+ 72480 = N 0 160
+ 72672 = N 2 0
+ 72672 = N 3 0
+ 72864 = N 1 160
+ 73056 = N 3 0
+ 73056 = N 4 0
+ 73248 = N 2 0
+ 73344 = N 2 160
+ 73536 = N 3 0
+ 73536 = N 5 0
+ 73728 = N 4 0
+ 73776 = N 2 0
+ 73824 = N 3 0
+ 73872 = N 2 0
+ 73920 = N 1 0
+ 73968 = N 0 0
+ 74016 = N 2 0
+ 74064 = N 1 0
+ 74112 = N 0 0
+ 74160 = N 0 0
+ 74208 = N 0 0
+ 74256 = N 1 0
+ 74304 = N 2 0
+ 74400 = N 3 0
+ 74496 = N 2 0
+ 74592 = N 3 0
+ 74688 = N 4 0
+ 74784 = N 2 0
+ 74880 = N 3 192
+ 75264 = N 4 0
+ 75312 = N 3 0
+ 75360 = N 2 0
+ 75408 = N 3 0
+ 75456 = N 2 0
+ 75504 = N 1 0
+ 75552 = N 0 0
+ 75600 = N 4 0
+ 75648 = N 3 0
+ 75696 = N 2 0
+ 75744 = N 3 0
+ 75792 = N 2 0
+ 75840 = N 1 0
+ 75936 = N 2 160
+ 76128 = N 0 0
+ 76224 = N 1 0
+ 76320 = N 2 0
+ 76416 = N 4 160
+ 76608 = N 3 256
+ 76896 = N 4 0
+ 76992 = N 2 0
+ 77040 = N 3 0
+ 77088 = N 4 0
+ 77184 = N 3 0
+ 77280 = N 2 0
+ 77328 = N 1 0
+ 77376 = N 2 0
+ 77424 = N 3 0
+ 77472 = N 2 0
+ 77520 = N 1 0
+ 77568 = N 3 0
+ 77568 = S 2 768
+ 77616 = N 4 0
+ 77664 = N 3 0
+ 77712 = N 2 0
+ 77760 = N 3 0
+ 77856 = N 3 0
+ 77904 = N 2 0
+ 77952 = N 3 112
+ 78096 = N 2 0
+ 78144 = N 2 160
+ 78336 = N 1 0
+ 78384 = N 1 0
+ 78432 = N 1 0
+ 78480 = N 1 0
+ 78528 = N 0 0
+ 78528 = N 5 0
+ 78576 = N 0 0
+ 78624 = N 0 0
+ 78672 = N 0 0
+ 78720 = N 1 0
+ 78720 = N 5 0
+ 78768 = N 1 0
+ 78816 = N 1 0
+ 78864 = N 1 0
+ 78912 = N 2 0
+ 78912 = N 5 0
+ 78960 = N 2 0
+ 79008 = N 2 0
+ 79056 = N 2 0
+ 79104 = N 3 0
+ 79104 = N 5 0
+ 79152 = N 3 0
+ 79200 = N 3 0
+ 79248 = N 3 0
+ 79296 = N 2 0
+ 79296 = N 5 0
+ 79344 = N 2 0
+ 79392 = N 2 0
+ 79440 = N 2 0
+ 79488 = N 3 0
+ 79488 = N 5 0
+ 79584 = N 3 0
+ 79872 = N 4 0
+ 79920 = N 3 0
+ 80016 = N 3 0
+ 80064 = N 1 0
+ 80160 = N 2 0
+ 80256 = N 4 0
+ 80352 = N 3 0
+ 80400 = N 2 0
+ 80496 = N 1 0
+ 80592 = N 0 0
+ 80640 = N 1 0
+ 80736 = N 0 0
+ 80832 = N 3 0
+ 80928 = N 2 0
+ 81024 = N 2 0
+ 81120 = N 3 0
+ 81216 = N 4 0
+ 81312 = N 2 0
+ 81408 = N 1 160
+ 81600 = N 2 0
+ 81648 = N 1 0
+ 81696 = N 0 0
+ 81792 = N 2 160
+ 81984 = N 2 0
+ 82032 = N 1 0
+ 82080 = N 0 0
+ 82176 = N 3 160
+ 82368 = N 2 0
+ 82416 = N 1 0
+ 82464 = N 0 0
+ 82560 = N 3 160
+ 82752 = N 2 0
+ 82800 = N 1 0
+ 82848 = N 0 0
+ 82944 = N 4 160
+ 83136 = N 2 0
+ 83184 = N 1 0
+ 83232 = N 0 0
+ 83328 = N 2 160
+ 83520 = N 3 0
+ 83568 = N 2 0
+ 83616 = N 1 0
+ 83712 = N 3 160
+ 83904 = N 4 0
+ 83952 = N 3 0
+ 84000 = N 2 0
+ 84096 = N 4 192
+ 84480 = N 3 160
+ 84480 = N 4 160
+ 84672 = N 2 160
+ 84672 = N 4 160
+ 84864 = N 2 160
+ 84864 = N 3 160
+ 85056 = N 1 160
+ 85056 = N 3 160
+ 85248 = N 1 160
+ 85248 = N 2 160
+ 85440 = N 0 160
+ 85440 = N 2 160
+ 85632 = N 2 0
+ 85632 = N 3 0
+ 85632 = N 5 0
+ 85824 = E soloend
+ 86016 = N 1 0
+ 86016 = S 2 1536
+ 86112 = N 3 0
+ 86208 = N 0 0
+ 86304 = N 4 0
+ 86400 = N 1 0
+ 86496 = N 4 0
+ 86592 = N 0 0
+ 86688 = N 4 0
+ 86784 = N 1 0
+ 86880 = N 3 0
+ 86976 = N 0 0
+ 87072 = N 3 0
+ 87168 = N 1 0
+ 87264 = N 3 0
+ 87360 = N 0 160
+ 87552 = N 1 0
+ 87648 = N 4 0
+ 87744 = N 0 0
+ 87840 = N 3 0
+ 87936 = N 1 0
+ 88032 = N 4 0
+ 88320 = N 2 0
+ 88320 = N 4 0
+ 88512 = N 2 160
+ 88512 = N 4 160
+ 88704 = N 1 160
+ 88896 = N 2 160
+ 88896 = N 3 160
+ 89088 = N 0 0
+ 89232 = N 1 0
+ 89280 = N 2 0
+ 89376 = N 3 0
+ 89472 = N 4 0
+ 89568 = N 3 0
+ 89664 = N 3 0
+ 89760 = N 3 0
+ 89856 = N 2 0
+ 89952 = N 1 0
+ 90048 = N 0 0
+ 90144 = N 0 0
+ 90240 = N 1 0
+ 90336 = N 0 0
+ 90384 = N 1 0
+ 90432 = N 2 0
+ 90480 = N 3 0
+ 90624 = N 0 0
+ 90672 = N 1 0
+ 90720 = N 2 0
+ 90816 = N 0 0
+ 90864 = N 1 0
+ 90912 = N 2 0
+ 91008 = N 1 0
+ 91056 = N 2 0
+ 91104 = N 3 0
+ 91152 = N 4 0
+ 91248 = N 1 0
+ 91296 = N 2 0
+ 91344 = N 3 0
+ 91392 = N 2 0
+ 91440 = N 1 0
+ 91488 = N 0 0
+ 91584 = N 2 0
+ 91632 = N 4 0
+ 91728 = N 2 0
+ 91776 = N 3 0
+ 91872 = N 1 0
+ 91968 = N 0 0
+ 92112 = N 2 0
+ 92208 = N 1 0
+ 92304 = N 0 0
+ 92352 = N 1 0
+ 92448 = N 2 0
+ 92544 = N 2 0
+ 92592 = N 3 0
+ 92688 = N 3 0
+ 92736 = N 2 0
+ 92832 = N 2 0
+ 92928 = N 4 0
+ 92976 = N 3 0
+ 93072 = N 4 0
+ 93120 = N 2 0
+ 93264 = N 3 0
+ 93360 = N 4 0
+ 93408 = N 1 0
+ 93504 = N 0 0
+ 93552 = N 1 0
+ 93600 = N 2 0
+ 93696 = N 2 0
+ 93696 = S 2 960
+ 93792 = N 1 0
+ 93840 = N 2 0
+ 93888 = N 3 0
+ 93984 = N 4 0
+ 94080 = N 0 0
+ 94176 = N 1 0
+ 94224 = N 2 0
+ 94272 = N 3 0
+ 94368 = N 4 0
+ 94464 = N 2 192
+ 94992 = N 1 0
+ 95040 = N 2 0
+ 95136 = N 2 0
+ 95184 = N 3 0
+ 95232 = N 4 0
+ 95328 = N 4 0
+ 95424 = N 3 0
+ 95472 = N 2 0
+ 95520 = N 1 0
+ 95616 = N 2 0
+ 95712 = N 3 0
+ 95808 = N 2 0
+ 95856 = N 1 0
+ 95904 = N 0 0
+ 96000 = N 1 0
+ 96096 = N 0 0
+ 96144 = N 1 0
+ 96192 = N 2 0
+ 96288 = N 3 0
+ 96384 = N 4 0
+ 96672 = N 3 0
+ 96720 = N 3 0
+ 96768 = N 4 0
+ 96864 = N 4 0
+ 96960 = N 3 0
+ 97008 = N 2 0
+ 97056 = N 1 0
+ 97152 = N 2 0
+ 97248 = N 3 0
+ 97344 = N 2 0
+ 97392 = N 1 0
+ 97440 = N 0 0
+ 97536 = N 0 0
+ 97632 = N 0 0
+ 97680 = N 1 0
+ 97728 = N 2 0
+ 97824 = N 3 0
+ 97920 = N 4 0
+ 98208 = N 1 0
+ 98304 = N 2 0
+ 98352 = N 3 0
+ 98400 = N 4 0
+ 98496 = N 1 0
+ 98544 = N 3 0
+ 98592 = N 4 0
+ 98688 = N 1 0
+ 98736 = N 2 0
+ 98784 = N 4 0
+ 98880 = N 1 0
+ 98928 = N 2 0
+ 98976 = N 3 0
+ 99072 = N 0 0
+ 99120 = N 2 0
+ 99168 = N 3 0
+ 99264 = N 0 0
+ 99312 = N 1 0
+ 99360 = N 3 0
+ 99456 = N 3 0
+ 99552 = N 3 0
+ 99648 = N 0 192
+ 99888 = N 0 0
+ 99936 = N 1 0
+ 100032 = N 2 0
+ 100128 = N 3 0
+ 100224 = N 4 160
+ 100416 = N 2 0
+ 100512 = N 1 0
+ 100608 = N 2 0
+ 101376 = N 1 0
+ 101376 = S 2 768
+ 101424 = N 2 0
+ 101472 = N 3 0
+ 101568 = N 3 0
+ 101664 = N 1 0
+ 101712 = N 2 0
+ 101760 = N 3 0
+ 101856 = N 3 0
+ 101952 = N 1 0
+ 102000 = N 2 0
+ 102048 = N 3 0
+ 102144 = N 3 0
+ 102240 = N 1 0
+ 102288 = N 2 0
+ 102336 = N 3 0
+ 102432 = N 3 0
+ 102528 = N 1 0
+ 102576 = N 2 0
+ 102624 = N 3 0
+ 102720 = N 3 0
+ 102816 = N 3 0
+ 102912 = N 0 0
+ 102960 = N 2 0
+ 103008 = N 3 0
+ 103104 = N 3 0
+ 103200 = N 0 0
+ 103248 = N 2 0
+ 103296 = N 3 0
+ 103392 = N 3 0
+ 103488 = N 0 0
+ 103584 = N 2 0
+ 103680 = N 2 0
+ 103776 = N 0 0
+ 103824 = N 2 0
+ 103872 = N 3 0
+ 103968 = N 3 0
+ 104064 = N 0 0
+ 104112 = N 2 0
+ 104160 = N 3 0
+ 104256 = N 3 0
+ 104352 = N 3 0
+ 104448 = N 0 0
+ 104496 = N 1 0
+ 104544 = N 3 0
+ 104640 = N 3 0
+ 104736 = N 0 0
+ 104784 = N 1 0
+ 104832 = N 3 0
+ 104928 = N 3 0
+ 105024 = N 0 0
+ 105072 = N 1 0
+ 105120 = N 3 0
+ 105216 = N 3 0
+ 105312 = N 0 0
+ 105360 = N 1 0
+ 105408 = N 3 0
+ 105504 = N 3 0
+ 105600 = N 0 0
+ 105648 = N 1 0
+ 105696 = N 3 0
+ 105792 = N 3 0
+ 105888 = N 3 0
+ 105984 = N 2 256
+ 106272 = N 1 0
+ 106272 = N 5 0
+ 106368 = N 0 192
+ 106368 = N 5 0
+ 107568 = N 0 0
+ 107664 = N 1 0
+ 107760 = N 2 0
+ 107856 = N 3 0
+ 107904 = N 4 0
+ 107952 = N 3 0
+ 108000 = N 2 0
+ 108048 = N 4 0
+ 108096 = N 3 112
+ 108240 = N 2 0
+ 108288 = S 2 768
+ 108336 = N 0 0
+ 108432 = N 1 0
+ 108528 = N 2 0
+ 108624 = N 3 0
+ 108672 = N 2 0
+ 108720 = N 4 0
+ 108768 = N 3 112
+ 108912 = N 1 0
+ 109104 = N 4 0
+ 109200 = N 3 0
+ 109248 = N 2 0
+ 109296 = N 1 0
+ 109392 = N 4 0
+ 109488 = N 3 0
+ 109536 = N 2 0
+ 109584 = N 1 0
+ 109680 = N 4 0
+ 109776 = N 3 0
+ 109824 = N 2 0
+ 109872 = N 1 0
+ 109968 = N 4 0
+ 110016 = N 3 0
+ 110064 = N 2 0
+ 110112 = N 1 192
+ 110640 = N 0 0
+ 110736 = N 1 0
+ 110832 = N 2 0
+ 110928 = N 3 0
+ 110976 = N 4 0
+ 111024 = N 3 0
+ 111072 = N 2 0
+ 111120 = N 4 0
+ 111168 = N 3 112
+ 111312 = N 4 0
+ 111408 = N 0 0
+ 111504 = N 1 0
+ 111600 = N 2 0
+ 111648 = N 3 0
+ 111696 = N 2 0
+ 111744 = N 1 0
+ 111792 = N 3 0
+ 111840 = N 2 112
+ 111984 = N 4 0
+ 112176 = N 3 0
+ 112224 = N 4 0
+ 112272 = N 3 0
+ 112320 = N 2 0
+ 112464 = N 1 0
+ 112560 = N 2 0
+ 112608 = N 1 0
+ 112656 = N 0 0
+ 112704 = N 1 0
+ 112848 = N 4 0
+ 112896 = N 3 0
+ 112944 = N 2 0
+ 112992 = N 1 0
+ 113088 = N 1 0
+ 113136 = N 2 0
+ 113184 = N 0 0
+ 113664 = N 0 0
+ 113712 = N 1 0
+ 113760 = N 2 0
+ 113856 = N 2 0
+ 113952 = N 2 0
+ 114048 = N 3 0
+ 114096 = N 1 240
+ 114432 = N 4 0
+ 114528 = N 3 0
+ 114624 = N 2 0
+ 114720 = N 0 0
+ 114768 = N 1 336
+ 115200 = N 0 0
+ 115248 = N 1 0
+ 115296 = N 2 0
+ 115392 = N 2 0
+ 115488 = N 2 0
+ 115584 = N 3 0
+ 115632 = N 1 240
+ 116016 = N 2 0
+ 116112 = N 3 0
+ 116160 = N 4 0
+ 116256 = N 1 0
+ 116384 = N 2 0
+ 116448 = N 0 240
+ 116736 = N 0 0
+ 116736 = S 2 1536
+ 116784 = N 1 0
+ 116832 = N 2 0
+ 116928 = N 2 0
+ 117024 = N 2 0
+ 117120 = N 3 0
+ 117168 = N 1 144
+ 117504 = N 1 0
+ 117552 = N 2 0
+ 117600 = N 3 0
+ 117696 = N 3 0
+ 117792 = N 3 0
+ 117840 = N 4 192
+ 118272 = N 0 0
+ 118336 = N 1 0
+ 118400 = N 2 0
+ 118496 = N 1 0
+ 118560 = N 2 0
+ 118624 = N 3 0
+ 118688 = N 0 0
+ 118752 = N 1 0
+ 118816 = N 2 0
+ 118880 = N 0 0
+ 118944 = N 1 0
+ 118992 = N 2 0
+ 119040 = N 1 0
+ 119136 = N 3 0
+ 119184 = N 2 0
+ 119280 = N 3 0
+ 119376 = N 4 240
+ 119856 = N 0 0
+ 119952 = N 1 0
+ 120048 = N 2 0
+ 120144 = N 3 0
+ 120192 = N 4 0
+ 120240 = N 3 0
+ 120288 = N 2 0
+ 120336 = N 4 0
+ 120384 = N 3 112
+ 120528 = N 2 0
+ 120624 = N 0 0
+ 120720 = N 1 0
+ 120816 = N 2 0
+ 120864 = N 3 0
+ 120912 = N 2 0
+ 120960 = N 1 0
+ 121008 = N 3 0
+ 121056 = N 2 112
+ 121200 = N 1 0
+ 121392 = N 4 0
+ 121488 = N 3 0
+ 121536 = N 2 0
+ 121584 = N 1 0
+ 121680 = N 3 0
+ 121776 = N 2 0
+ 121824 = N 1 0
+ 121872 = N 0 0
+ 122112 = N 4 0
+ 122160 = N 3 0
+ 122208 = N 2 0
+ 122256 = N 3 0
+ 122304 = N 2 0
+ 122352 = N 1 0
+ 122400 = N 0 0
+ 122928 = N 0 0
+ 123024 = N 1 0
+ 123120 = N 2 0
+ 123216 = N 3 0
+ 123264 = N 4 0
+ 123312 = N 3 0
+ 123360 = N 2 0
+ 123408 = N 4 0
+ 123456 = N 3 112
+ 123600 = N 4 0
+ 123696 = N 0 0
+ 123792 = N 1 0
+ 123888 = N 2 0
+ 123936 = N 3 0
+ 123984 = N 2 0
+ 124032 = N 1 0
+ 124080 = N 3 0
+ 124128 = N 2 112
+ 124272 = N 4 0
+ 124464 = N 3 0
+ 124512 = N 4 0
+ 124560 = N 3 0
+ 124608 = N 2 0
+ 124752 = N 1 0
+ 124848 = N 2 0
+ 124896 = N 1 0
+ 124944 = N 0 0
+ 124992 = N 1 0
+ 125136 = N 4 0
+ 125184 = N 3 0
+ 125232 = N 2 0
+ 125280 = N 1 0
+ 125376 = N 1 0
+ 125424 = N 2 0
+ 125472 = N 0 0
+ 125904 = N 4 0
+ 125952 = N 3 0
+ 126000 = N 2 0
+ 126048 = N 1 0
+ 126144 = N 1 0
+ 126192 = N 2 0
+ 126240 = N 0 0
+ 126672 = N 3 0
+ 126720 = N 2 0
+ 126768 = N 1 0
+ 126912 = N 1 0
+ 126960 = N 2 0
+ 127008 = N 0 0
+ 127440 = N 4 0
+ 127488 = N 3 0
+ 127536 = N 2 0
+ 127584 = N 1 0
+ 127680 = N 1 0
+ 127728 = N 2 0
+ 127968 = N 4 1824
+ 127968 = N 6 0
+}
+[MediumSingle]
+{
+ 1584 = N 0 0
+ 1680 = N 1 0
+ 1776 = N 2 0
+ 1920 = N 3 0
+ 2016 = N 2 0
+ 2112 = N 3 112
+ 2256 = N 2 0
+ 2352 = N 0 0
+ 2448 = N 1 0
+ 2592 = N 2 0
+ 2688 = N 1 0
+ 2784 = N 2 112
+ 2928 = N 1 0
+ 3072 = N 3 0
+ 3072 = S 2 768
+ 3168 = N 2 0
+ 3264 = N 1 0
+ 3360 = N 1 0
+ 3456 = N 0 192
+ 3840 = N 3 0
+ 3936 = N 2 0
+ 4032 = N 1 0
+ 4128 = N 1 0
+ 4224 = N 0 352
+ 4608 = N 1 640
+ 5280 = N 2 0
+ 5376 = N 2 0
+ 5472 = N 2 0
+ 5568 = N 2 384
+ 6192 = N 0 0
+ 6288 = N 1 0
+ 6384 = N 2 0
+ 6528 = N 3 0
+ 6624 = N 2 0
+ 6720 = N 3 112
+ 6864 = N 2 0
+ 6960 = N 0 0
+ 7056 = N 1 0
+ 7200 = N 2 0
+ 7296 = N 1 0
+ 7392 = N 2 112
+ 7536 = N 1 0
+ 7728 = N 3 0
+ 7872 = N 2 0
+ 8016 = N 1 0
+ 8160 = N 0 0
+ 8448 = N 3 0
+ 8544 = N 2 0
+ 8640 = N 1 0
+ 8736 = N 0 0
+ 9264 = N 0 0
+ 9360 = N 1 0
+ 9456 = N 2 0
+ 9600 = N 3 0
+ 9696 = N 2 0
+ 9792 = N 2 112
+ 9936 = N 3 0
+ 9984 = S 2 768
+ 10032 = N 0 0
+ 10128 = N 1 0
+ 10272 = N 2 0
+ 10368 = N 1 0
+ 10464 = N 2 112
+ 10608 = N 3 0
+ 10608 = N 5 0
+ 10848 = N 3 0
+ 10944 = N 2 0
+ 11088 = N 1 0
+ 11232 = N 0 0
+ 11328 = N 0 0
+ 11520 = N 3 0
+ 11616 = N 2 0
+ 11712 = N 1 0
+ 11808 = N 1 256
+ 12096 = N 0 160
+ 12096 = N 5 0
+ 12336 = N 0 0
+ 12432 = N 1 0
+ 12528 = N 2 0
+ 12672 = N 3 0
+ 12768 = N 2 0
+ 12864 = N 3 112
+ 13008 = N 2 0
+ 13104 = N 0 0
+ 13200 = N 1 0
+ 13344 = N 2 0
+ 13440 = N 1 0
+ 13536 = N 2 0
+ 13680 = N 1 0
+ 13872 = N 3 0
+ 14016 = N 2 0
+ 14160 = N 1 0
+ 14304 = N 0 0
+ 14592 = N 3 0
+ 14688 = N 2 0
+ 14784 = N 1 0
+ 14880 = N 0 0
+ 15408 = N 0 0
+ 15504 = N 1 0
+ 15600 = N 2 0
+ 15744 = N 3 0
+ 15840 = N 2 0
+ 15936 = N 2 112
+ 16080 = N 3 0
+ 16176 = N 0 0
+ 16272 = N 1 0
+ 16416 = N 2 0
+ 16512 = N 1 0
+ 16608 = N 2 112
+ 16752 = N 3 0
+ 16896 = S 2 1152
+ 16992 = N 3 0
+ 17088 = N 2 0
+ 17232 = N 1 0
+ 17376 = N 0 0
+ 17472 = N 0 0
+ 17664 = N 2 0
+ 17760 = N 1 0
+ 17856 = N 1 0
+ 17952 = N 0 0
+ 18432 = N 0 0
+ 18528 = N 2 0
+ 18624 = N 2 0
+ 18720 = N 2 0
+ 18864 = N 1 240
+ 19200 = N 3 0
+ 19296 = N 3 0
+ 19392 = N 2 0
+ 19536 = N 1 400
+ 19968 = N 0 0
+ 20064 = N 2 0
+ 20160 = N 1 0
+ 20256 = N 2 0
+ 20400 = N 1 240
+ 20832 = N 2 0
+ 20928 = N 3 0
+ 21024 = N 2 0
+ 21168 = N 0 240
+ 21504 = N 0 0
+ 21600 = N 2 0
+ 21696 = N 2 0
+ 21792 = N 2 0
+ 21936 = N 1 144
+ 22272 = N 1 0
+ 22368 = N 2 0
+ 22464 = N 2 0
+ 22608 = N 3 240
+ 23040 = N 0 0
+ 23184 = N 1 0
+ 23328 = N 0 0
+ 23472 = N 1 0
+ 23616 = N 2 0
+ 23760 = N 3 0
+ 23904 = N 2 0
+ 24000 = N 2 0
+ 24144 = N 2 240
+ 24144 = N 3 240
+ 24576 = S 2 768
+ 24624 = N 0 0
+ 24720 = N 1 0
+ 24816 = N 2 0
+ 24960 = N 3 0
+ 25056 = N 2 0
+ 25152 = N 3 112
+ 25296 = N 2 0
+ 25392 = N 0 0
+ 25488 = N 1 0
+ 25632 = N 2 0
+ 25728 = N 1 0
+ 25824 = N 2 112
+ 25968 = N 1 0
+ 26208 = N 3 0
+ 26304 = N 2 0
+ 26448 = N 1 0
+ 26592 = N 0 0
+ 26880 = N 3 0
+ 26976 = N 2 0
+ 27072 = N 1 0
+ 27168 = N 0 0
+ 27696 = N 0 0
+ 27792 = N 1 0
+ 27888 = N 2 0
+ 28032 = N 3 0
+ 28128 = N 2 0
+ 28224 = N 2 112
+ 28368 = N 3 0
+ 28464 = N 0 0
+ 28560 = N 1 0
+ 28704 = N 2 0
+ 28800 = N 1 0
+ 28896 = N 2 112
+ 29040 = N 3 0
+ 29280 = N 3 0
+ 29376 = N 2 0
+ 29520 = N 1 0
+ 29664 = N 0 0
+ 29760 = N 0 0
+ 29952 = N 2 0
+ 30048 = N 1 0
+ 30144 = N 1 0
+ 30240 = N 0 0
+ 30384 = N 1 0
+ 30384 = E solo
+ 30480 = N 2 0
+ 30576 = N 0 0
+ 30672 = N 1 0
+ 30768 = N 3 0
+ 30768 = N 6 0
+ 30912 = N 2 0
+ 30912 = N 6 0
+ 31056 = N 1 0
+ 31056 = N 6 0
+ 31200 = N 0 0
+ 31200 = N 6 0
+ 31344 = N 3 0
+ 31488 = N 2 0
+ 31488 = S 2 576
+ 31584 = N 3 16
+ 31680 = N 2 0
+ 31776 = N 1 0
+ 31920 = N 0 0
+ 32160 = N 0 0
+ 32256 = N 0 0
+ 32352 = N 3 0
+ 32448 = N 2 0
+ 32544 = N 1 0
+ 32640 = N 1 0
+ 32736 = N 3 0
+ 32832 = N 3 0
+ 32928 = N 2 0
+ 33024 = N 1 0
+ 33120 = N 0 0
+ 33216 = N 1 0
+ 33312 = N 2 0
+ 33408 = N 2 0
+ 33504 = N 3 0
+ 33696 = N 2 0
+ 33792 = N 1 0
+ 33888 = N 2 0
+ 33984 = N 1 0
+ 34080 = N 0 0
+ 34176 = N 0 0
+ 34368 = N 1 0
+ 34464 = N 2 0
+ 34560 = N 2 0
+ 34656 = N 0 0
+ 34752 = N 1 0
+ 34944 = N 1 0
+ 35088 = N 1 0
+ 35280 = N 2 0
+ 35360 = N 1 0
+ 35488 = N 3 0
+ 35712 = N 1 0
+ 35904 = N 2 0
+ 36048 = N 3 0
+ 36144 = N 2 0
+ 36288 = N 1 0
+ 36480 = N 3 0
+ 36608 = N 1 0
+ 36768 = N 0 0
+ 36864 = N 3 0
+ 37056 = N 3 0
+ 37152 = N 2 0
+ 37248 = N 1 0
+ 37344 = N 0 0
+ 37440 = N 1 0
+ 37536 = N 0 0
+ 37632 = N 1 0
+ 37728 = N 2 0
+ 37824 = N 3 0
+ 37920 = N 2 0
+ 38016 = N 1 0
+ 38208 = N 3 0
+ 38352 = N 2 0
+ 38400 = S 2 1536
+ 38496 = N 1 0
+ 38640 = N 0 0
+ 38784 = N 3 0
+ 38928 = N 2 0
+ 39072 = N 1 0
+ 39216 = N 0 0
+ 39360 = N 2 0
+ 39456 = N 1 0
+ 39552 = N 0 0
+ 40320 = N 0 0
+ 40416 = N 0 0
+ 40512 = N 1 0
+ 40608 = N 1 0
+ 40704 = N 2 0
+ 40800 = N 2 0
+ 40896 = N 1 0
+ 40992 = N 1 0
+ 41088 = N 3 0
+ 41184 = N 2 0
+ 41280 = N 1 0
+ 41376 = N 0 0
+ 41472 = N 3 0
+ 41568 = N 3 0
+ 41664 = N 2 0
+ 41760 = N 2 0
+ 41856 = N 1 0
+ 41952 = N 2 0
+ 42048 = N 1 0
+ 42144 = N 2 0
+ 42240 = N 0 0
+ 42336 = N 0 0
+ 42432 = N 1 0
+ 42528 = N 1 0
+ 42624 = N 2 0
+ 42720 = N 2 0
+ 42816 = N 3 0
+ 42912 = N 2 0
+ 43008 = N 1 0
+ 43152 = N 2 0
+ 43248 = N 1 0
+ 43344 = N 0 0
+ 43440 = N 3 0
+ 43584 = N 2 0
+ 43680 = N 1 0
+ 43808 = N 2 0
+ 43968 = N 1 0
+ 44112 = N 3 0
+ 44352 = N 0 0
+ 44448 = N 1 0
+ 44544 = N 2 0
+ 44672 = N 3 0
+ 44832 = N 2 0
+ 44928 = N 3 0
+ 45024 = N 3 0
+ 45120 = N 2 0
+ 45216 = N 1 0
+ 45312 = N 0 0
+ 45408 = N 1 0
+ 45504 = N 0 0
+ 45648 = N 1 0
+ 45792 = N 2 0
+ 45936 = N 3 0
+ 46080 = N 0 0
+ 46080 = S 2 1248
+ 46224 = N 1 0
+ 46368 = N 0 0
+ 46512 = N 1 0
+ 46656 = N 2 0
+ 46800 = N 2 0
+ 46944 = N 1 0
+ 47088 = N 2 0
+ 47232 = N 3 0
+ 47376 = N 3 0
+ 47520 = N 3 0
+ 47712 = N 2 0
+ 47808 = N 3 0
+ 47904 = N 2 0
+ 48000 = N 3 0
+ 48096 = N 1 0
+ 48192 = N 1 0
+ 48288 = N 0 0
+ 48384 = N 1 0
+ 48480 = N 2 0
+ 48576 = N 3 0
+ 48960 = N 1 0
+ 48960 = N 3 0
+ 49056 = N 2 0
+ 49056 = N 3 0
+ 49392 = N 3 0
+ 49488 = N 2 0
+ 49584 = N 2 0
+ 49728 = N 1 0
+ 49824 = N 2 0
+ 49968 = N 2 0
+ 50064 = N 1 0
+ 50160 = N 1 0
+ 50256 = N 0 0
+ 50352 = N 0 0
+ 50496 = N 1 0
+ 50640 = N 0 0
+ 50736 = N 2 0
+ 50832 = N 1 0
+ 50928 = N 3 0
+ 51072 = N 3 0
+ 51168 = N 2 0
+ 51264 = N 1 0
+ 51360 = N 0 0
+ 51456 = N 1 0
+ 51552 = N 3 0
+ 51648 = N 2 0
+ 51744 = N 1 0
+ 51840 = N 0 0
+ 51936 = N 3 0
+ 52032 = N 2 0
+ 52128 = N 1 0
+ 52224 = N 2 0
+ 52320 = N 1 0
+ 52416 = N 0 0
+ 52632 = N 0 0
+ 52744 = N 0 0
+ 52864 = N 0 0
+ 52992 = N 0 0
+ 53184 = N 1 0
+ 53376 = N 2 0
+ 53568 = N 3 0
+ 53760 = N 2 0
+ 53952 = N 3 0
+ 54080 = N 3 0
+ 54240 = N 3 0
+ 54336 = N 2 0
+ 54432 = S 2 768
+ 54528 = N 2 0
+ 54624 = N 1 0
+ 54720 = N 1 0
+ 54816 = N 0 0
+ 55200 = E soloend
+ 55296 = N 0 0
+ 55392 = N 2 0
+ 55488 = N 2 0
+ 55584 = N 2 0
+ 55728 = N 1 240
+ 56064 = N 3 0
+ 56160 = N 3 0
+ 56256 = N 2 0
+ 56400 = N 1 336
+ 56832 = N 0 0
+ 56928 = N 1 0
+ 57024 = N 1 0
+ 57120 = N 1 0
+ 57216 = N 2 192
+ 57600 = N 3 0
+ 57696 = N 2 0
+ 57792 = N 2 0
+ 57888 = N 1 0
+ 57984 = N 0 288
+ 58464 = N 0 0
+ 58560 = N 2 0
+ 58656 = N 2 0
+ 58800 = N 1 144
+ 59040 = N 1 0
+ 59136 = N 2 0
+ 59232 = N 2 0
+ 59328 = N 3 0
+ 59472 = N 1 144
+ 59904 = N 3 0
+ 60000 = N 3 0
+ 60096 = N 2 0
+ 60240 = N 3 0
+ 60384 = N 2 0
+ 60480 = N 1 0
+ 60576 = N 3 0
+ 60672 = N 2 0
+ 60768 = N 1 0
+ 60864 = N 0 0
+ 60960 = N 1 0
+ 61056 = N 1 0
+ 61152 = N 2 0
+ 61248 = N 1 0
+ 61344 = N 0 0
+ 61440 = N 3 0
+ 61440 = S 2 1536
+ 61440 = E solo
+ 61536 = N 3 0
+ 61632 = N 2 0
+ 61728 = N 1 0
+ 61824 = N 1 144
+ 62016 = N 0 0
+ 62112 = N 1 0
+ 62208 = N 1 0
+ 62304 = N 1 0
+ 62400 = N 2 0
+ 62544 = N 1 0
+ 62688 = N 1 0
+ 62784 = N 2 0
+ 62880 = N 3 0
+ 63168 = N 3 0
+ 63264 = N 2 0
+ 63360 = N 2 0
+ 63456 = N 1 192
+ 63840 = N 0 0
+ 63936 = N 1 0
+ 64080 = N 2 0
+ 64224 = N 3 0
+ 64320 = N 2 0
+ 64416 = N 2 0
+ 64512 = N 0 0
+ 64608 = N 0 0
+ 64704 = N 1 0
+ 64800 = N 0 0
+ 64896 = N 3 0
+ 64992 = N 3 0
+ 65088 = N 2 0
+ 65184 = N 1 0
+ 65280 = N 0 0
+ 65376 = N 1 0
+ 65472 = N 1 0
+ 65568 = N 2 0
+ 65712 = N 3 0
+ 65856 = N 3 0
+ 65952 = N 2 0
+ 66048 = N 1 0
+ 66144 = N 0 0
+ 66240 = N 2 0
+ 66336 = N 1 0
+ 66432 = N 1 256
+ 66720 = N 1 0
+ 66816 = N 0 0
+ 66912 = N 0 0
+ 67104 = N 1 0
+ 67200 = N 1 0
+ 67296 = N 2 0
+ 67392 = N 2 0
+ 67584 = N 2 0
+ 67776 = N 1 0
+ 67968 = N 0 160
+ 68160 = N 1 0
+ 68352 = N 0 0
+ 68544 = N 1 0
+ 68832 = N 1 160
+ 69024 = N 2 0
+ 69216 = N 2 0
+ 69312 = N 1 112
+ 69504 = N 0 160
+ 69696 = N 1 0
+ 69888 = N 0 0
+ 69888 = S 2 768
+ 70080 = N 0 0
+ 70272 = N 1 0
+ 70464 = N 1 0
+ 70656 = N 2 0
+ 70848 = N 1 160
+ 71040 = N 2 64
+ 71232 = N 0 160
+ 71424 = N 2 0
+ 71616 = N 0 160
+ 71808 = N 1 0
+ 72000 = N 0 160
+ 72192 = N 1 0
+ 72288 = N 2 0
+ 72480 = N 0 160
+ 72672 = N 2 0
+ 72864 = N 1 160
+ 73056 = N 2 0
+ 73248 = N 2 0
+ 73344 = N 2 192
+ 73728 = N 2 0
+ 73920 = N 1 0
+ 74112 = N 0 0
+ 74304 = N 1 0
+ 74496 = N 0 0
+ 74592 = N 1 0
+ 74688 = N 2 0
+ 74880 = N 1 192
+ 75264 = N 2 0
+ 75360 = N 2 0
+ 75456 = N 1 0
+ 75552 = N 1 0
+ 75648 = N 0 0
+ 75744 = N 0 0
+ 75840 = N 1 0
+ 75936 = N 2 160
+ 76128 = N 0 0
+ 76224 = N 1 0
+ 76416 = N 2 160
+ 76608 = N 1 256
+ 76896 = N 3 0
+ 76992 = N 2 0
+ 77088 = N 3 0
+ 77184 = N 2 0
+ 77280 = N 1 0
+ 77376 = N 1 0
+ 77472 = N 1 0
+ 77568 = N 3 0
+ 77568 = S 2 768
+ 77664 = N 3 0
+ 77760 = N 3 0
+ 77856 = N 3 0
+ 77952 = N 3 112
+ 78144 = N 2 160
+ 78336 = N 0 0
+ 78432 = N 0 0
+ 78528 = N 1 0
+ 78624 = N 1 0
+ 78720 = N 2 0
+ 78816 = N 2 0
+ 78912 = N 3 0
+ 79008 = N 3 0
+ 79104 = N 0 0
+ 79200 = N 0 0
+ 79296 = N 1 0
+ 79392 = N 1 0
+ 79488 = N 2 0
+ 79584 = N 2 0
+ 79872 = N 3 0
+ 80064 = N 1 0
+ 80160 = N 2 0
+ 80256 = N 3 0
+ 80352 = N 2 0
+ 80496 = N 1 0
+ 80640 = N 1 0
+ 80736 = N 0 0
+ 80832 = N 2 0
+ 80928 = N 1 0
+ 81024 = N 1 0
+ 81120 = N 2 0
+ 81216 = N 3 0
+ 81312 = N 2 0
+ 81408 = N 1 160
+ 81600 = N 1 0
+ 81696 = N 0 0
+ 81792 = N 2 160
+ 81984 = N 1 0
+ 82080 = N 0 0
+ 82176 = N 3 160
+ 82368 = N 1 0
+ 82464 = N 0 0
+ 82560 = N 3 160
+ 82752 = N 2 0
+ 82848 = N 0 0
+ 82944 = N 3 160
+ 83136 = N 2 0
+ 83232 = N 1 0
+ 83328 = N 2 160
+ 83520 = N 1 0
+ 83616 = N 0 0
+ 83712 = N 3 160
+ 83904 = N 2 0
+ 84000 = N 1 0
+ 84096 = N 3 192
+ 84480 = N 2 160
+ 84480 = N 3 160
+ 84672 = N 1 160
+ 84672 = N 3 160
+ 84864 = N 1 160
+ 84864 = N 2 160
+ 85056 = N 0 160
+ 85056 = N 2 160
+ 85248 = N 0 160
+ 85248 = N 1 160
+ 85440 = N 0 288
+ 85440 = N 1 288
+ 85824 = E soloend
+ 86016 = N 1 0
+ 86016 = S 2 1536
+ 86208 = N 0 0
+ 86304 = N 3 0
+ 86400 = N 1 0
+ 86496 = N 3 0
+ 86688 = N 3 0
+ 86784 = N 1 0
+ 86880 = N 2 0
+ 86976 = N 0 0
+ 87072 = N 2 0
+ 87168 = N 1 0
+ 87264 = N 2 0
+ 87360 = N 0 160
+ 87552 = N 1 0
+ 87648 = N 3 0
+ 87744 = N 0 0
+ 87840 = N 2 0
+ 87936 = N 1 0
+ 88032 = N 3 0
+ 88320 = N 1 0
+ 88320 = N 3 0
+ 88512 = N 1 160
+ 88512 = N 3 160
+ 88704 = N 1 160
+ 88896 = N 1 160
+ 88896 = N 2 160
+ 89088 = N 0 0
+ 89280 = N 1 0
+ 89376 = N 2 0
+ 89472 = N 3 0
+ 89568 = N 2 0
+ 89664 = N 2 0
+ 89760 = N 2 0
+ 89856 = N 1 0
+ 90048 = N 0 0
+ 90144 = N 0 0
+ 90240 = N 1 0
+ 90336 = N 0 0
+ 90432 = N 1 0
+ 90624 = N 0 0
+ 90720 = N 1 0
+ 90816 = N 1 0
+ 90912 = N 2 0
+ 91008 = N 2 0
+ 91104 = N 3 0
+ 91296 = N 2 0
+ 91392 = N 2 0
+ 91488 = N 1 0
+ 91584 = N 0 0
+ 91776 = N 2 0
+ 91872 = N 1 0
+ 91968 = N 0 0
+ 92112 = N 1 0
+ 92208 = N 0 0
+ 92352 = N 1 0
+ 92448 = N 2 0
+ 92544 = N 2 0
+ 92688 = N 3 0
+ 92832 = N 2 0
+ 92976 = N 1 0
+ 93120 = N 0 0
+ 93264 = N 2 0
+ 93408 = N 1 0
+ 93504 = N 0 0
+ 93600 = N 1 0
+ 93696 = N 2 0
+ 93696 = S 2 960
+ 93792 = N 1 0
+ 93888 = N 2 0
+ 93984 = N 3 0
+ 94080 = N 0 0
+ 94176 = N 1 0
+ 94272 = N 2 0
+ 94368 = N 3 0
+ 94464 = N 2 192
+ 95040 = N 2 0
+ 95136 = N 2 0
+ 95232 = N 3 0
+ 95328 = N 3 0
+ 95424 = N 2 0
+ 95520 = N 1 0
+ 95616 = N 2 0
+ 95712 = N 3 0
+ 95808 = N 2 0
+ 95904 = N 1 0
+ 96000 = N 0 0
+ 96096 = N 0 0
+ 96192 = N 1 0
+ 96288 = N 2 0
+ 96384 = N 3 0
+ 96672 = N 2 0
+ 96768 = N 3 0
+ 96864 = N 3 0
+ 96960 = N 2 0
+ 97056 = N 1 0
+ 97152 = N 2 0
+ 97248 = N 3 0
+ 97344 = N 2 0
+ 97440 = N 1 0
+ 97536 = N 0 0
+ 97632 = N 0 0
+ 97728 = N 1 0
+ 97824 = N 2 0
+ 97920 = N 3 0
+ 98208 = N 1 0
+ 98304 = N 2 0
+ 98400 = N 3 0
+ 98496 = N 1 0
+ 98592 = N 3 0
+ 98688 = N 1 0
+ 98784 = N 2 0
+ 98880 = N 0 0
+ 98976 = N 3 0
+ 99072 = N 0 0
+ 99168 = N 2 0
+ 99264 = N 0 0
+ 99360 = N 1 0
+ 99456 = N 1 0
+ 99552 = N 1 0
+ 99648 = N 0 192
+ 99936 = N 0 0
+ 100032 = N 1 0
+ 100128 = N 2 0
+ 100224 = N 3 160
+ 100416 = N 1 0
+ 100512 = N 0 0
+ 100608 = N 1 0
+ 101376 = N 2 0
+ 101376 = S 2 768
+ 101472 = N 3 0
+ 101568 = N 3 0
+ 101664 = N 2 0
+ 101760 = N 3 0
+ 101856 = N 3 0
+ 101952 = N 2 0
+ 102048 = N 3 0
+ 102144 = N 3 0
+ 102240 = N 2 0
+ 102336 = N 3 0
+ 102432 = N 3 0
+ 102528 = N 2 0
+ 102624 = N 3 0
+ 102720 = N 3 0
+ 102816 = N 3 0
+ 102912 = N 1 0
+ 103008 = N 3 0
+ 103104 = N 3 0
+ 103200 = N 1 0
+ 103296 = N 3 0
+ 103392 = N 3 0
+ 103488 = N 1 0
+ 103584 = N 2 0
+ 103680 = N 2 0
+ 103776 = N 1 0
+ 103872 = N 3 0
+ 103968 = N 3 0
+ 104064 = N 1 0
+ 104160 = N 3 0
+ 104256 = N 3 0
+ 104352 = N 3 0
+ 104448 = N 0 0
+ 104544 = N 1 0
+ 104640 = N 1 0
+ 104736 = N 0 0
+ 104832 = N 1 0
+ 104928 = N 1 0
+ 105024 = N 0 0
+ 105120 = N 1 0
+ 105216 = N 1 0
+ 105312 = N 0 0
+ 105408 = N 1 0
+ 105504 = N 1 0
+ 105600 = N 0 0
+ 105696 = N 1 0
+ 105792 = N 1 0
+ 105888 = N 1 0
+ 105984 = N 2 256
+ 106272 = N 1 0
+ 106272 = N 5 0
+ 106368 = N 0 192
+ 106368 = N 5 0
+ 107568 = N 0 0
+ 107664 = N 1 0
+ 107760 = N 2 0
+ 107904 = N 3 0
+ 108000 = N 2 0
+ 108096 = N 3 112
+ 108240 = N 2 0
+ 108288 = S 2 768
+ 108336 = N 0 0
+ 108432 = N 1 0
+ 108528 = N 2 0
+ 108624 = N 3 0
+ 108768 = N 3 112
+ 108912 = N 1 0
+ 109104 = N 3 0
+ 109248 = N 0 0
+ 109392 = N 3 0
+ 109536 = N 1 0
+ 109680 = N 3 0
+ 109824 = N 2 0
+ 110016 = N 2 0
+ 110112 = N 1 192
+ 110640 = N 0 0
+ 110736 = N 1 0
+ 110832 = N 2 0
+ 110976 = N 3 0
+ 111072 = N 2 0
+ 111168 = N 2 112
+ 111312 = N 3 0
+ 111408 = N 0 0
+ 111504 = N 1 0
+ 111648 = N 2 0
+ 111744 = N 1 0
+ 111840 = N 2 112
+ 111984 = N 3 0
+ 112224 = N 3 0
+ 112320 = N 2 0
+ 112464 = N 1 0
+ 112608 = N 0 0
+ 112704 = N 0 0
+ 112896 = N 2 0
+ 112992 = N 1 0
+ 113088 = N 1 0
+ 113184 = N 0 0
+ 113664 = N 0 0
+ 113760 = N 2 0
+ 113856 = N 2 0
+ 113952 = N 2 0
+ 114096 = N 1 240
+ 114432 = N 3 0
+ 114528 = N 2 0
+ 114624 = N 1 0
+ 114768 = N 1 336
+ 115200 = N 0 0
+ 115296 = N 2 0
+ 115392 = N 2 0
+ 115488 = N 2 0
+ 115632 = N 1 240
+ 116016 = N 2 0
+ 116160 = N 3 0
+ 116256 = N 1 0
+ 116448 = N 0 240
+ 116736 = N 0 0
+ 116736 = S 2 1536
+ 116832 = N 2 0
+ 116928 = N 2 0
+ 117024 = N 2 0
+ 117168 = N 1 144
+ 117504 = N 1 0
+ 117600 = N 2 0
+ 117696 = N 2 0
+ 117840 = N 3 192
+ 118272 = N 0 0
+ 118400 = N 2 0
+ 118496 = N 1 0
+ 118608 = N 3 0
+ 118752 = N 1 0
+ 118896 = N 0 0
+ 119040 = N 0 0
+ 119184 = N 1 0
+ 119280 = N 2 0
+ 119376 = N 3 240
+ 119856 = N 0 0
+ 119952 = N 1 0
+ 120048 = N 2 0
+ 120192 = N 3 0
+ 120288 = N 2 0
+ 120384 = N 3 112
+ 120528 = N 2 0
+ 120624 = N 0 0
+ 120720 = N 1 0
+ 120864 = N 2 0
+ 120960 = N 1 0
+ 121056 = N 2 112
+ 121200 = N 1 0
+ 121392 = N 3 0
+ 121536 = N 2 0
+ 121680 = N 1 0
+ 121824 = N 0 0
+ 122112 = N 3 0
+ 122208 = N 2 0
+ 122304 = N 1 0
+ 122400 = N 0 0
+ 122928 = N 0 0
+ 123024 = N 1 0
+ 123120 = N 2 0
+ 123264 = N 3 0
+ 123360 = N 2 0
+ 123456 = N 2 112
+ 123600 = N 3 0
+ 123696 = N 0 0
+ 123792 = N 1 0
+ 123936 = N 2 0
+ 124032 = N 1 0
+ 124128 = N 2 112
+ 124272 = N 3 0
+ 124512 = N 3 0
+ 124608 = N 2 0
+ 124752 = N 1 0
+ 124896 = N 0 0
+ 124992 = N 0 0
+ 125184 = N 2 0
+ 125280 = N 1 0
+ 125376 = N 1 0
+ 125472 = N 0 0
+ 125952 = N 2 0
+ 126048 = N 1 0
+ 126144 = N 1 0
+ 126240 = N 0 0
+ 126720 = N 1 0
+ 126912 = N 1 0
+ 127008 = N 0 0
+ 127488 = N 2 0
+ 127584 = N 1 0
+ 127680 = N 1 0
+ 127968 = N 3 1824
+ 127968 = N 6 0
+}
+[EasySingle]
+{
+ 1584 = N 0 0
+ 1776 = N 1 0
+ 1920 = N 2 0
+ 2112 = N 2 112
+ 2352 = N 0 0
+ 2592 = N 1 0
+ 2784 = N 1 112
+ 3072 = N 2 0
+ 3072 = S 2 768
+ 3264 = N 1 0
+ 3456 = N 0 192
+ 3840 = N 2 0
+ 4032 = N 1 0
+ 4224 = N 0 352
+ 4608 = N 1 640
+ 5376 = N 2 0
+ 5568 = N 2 384
+ 6192 = N 0 0
+ 6384 = N 1 0
+ 6528 = N 2 0
+ 6720 = N 2 112
+ 6960 = N 0 0
+ 7200 = N 1 0
+ 7392 = N 1 112
+ 7728 = N 2 0
+ 7872 = N 1 0
+ 8016 = N 0 0
+ 8448 = N 2 0
+ 8640 = N 1 0
+ 8736 = N 0 0
+ 9264 = N 0 0
+ 9456 = N 1 0
+ 9600 = N 2 0
+ 9792 = N 1 112
+ 9984 = S 2 768
+ 10032 = N 0 0
+ 10272 = N 1 0
+ 10464 = N 1 144
+ 10944 = N 2 0
+ 11088 = N 1 0
+ 11328 = N 0 0
+ 11520 = N 2 0
+ 11712 = N 1 0
+ 11808 = N 1 256
+ 12096 = N 0 160
+ 12096 = N 5 0
+ 12336 = N 0 0
+ 12528 = N 1 0
+ 12672 = N 2 0
+ 12864 = N 2 112
+ 13104 = N 0 0
+ 13344 = N 1 0
+ 13536 = N 1 0
+ 13872 = N 2 0
+ 14016 = N 1 0
+ 14160 = N 0 0
+ 14592 = N 2 0
+ 14784 = N 1 0
+ 14880 = N 0 0
+ 15408 = N 0 0
+ 15600 = N 1 0
+ 15744 = N 2 0
+ 15936 = N 1 112
+ 16176 = N 0 0
+ 16416 = N 1 0
+ 16608 = N 1 112
+ 16896 = S 2 1152
+ 17088 = N 2 0
+ 17232 = N 1 0
+ 17472 = N 0 0
+ 17664 = N 2 0
+ 17856 = N 1 0
+ 17952 = N 0 0
+ 18432 = N 0 0
+ 18624 = N 2 0
+ 18864 = N 1 240
+ 19200 = N 2 0
+ 19392 = N 1 0
+ 19536 = N 0 400
+ 19968 = N 0 0
+ 20160 = N 1 0
+ 20400 = N 1 240
+ 20928 = N 2 0
+ 21168 = N 0 240
+ 21504 = N 0 0
+ 21696 = N 2 0
+ 21936 = N 1 144
+ 22272 = N 0 0
+ 22464 = N 1 0
+ 22608 = N 2 240
+ 23040 = N 0 0
+ 23184 = N 1 0
+ 23328 = N 0 0
+ 23472 = N 2 0
+ 23616 = N 1 0
+ 23760 = N 2 0
+ 24000 = N 1 0
+ 24144 = N 2 240
+ 24576 = S 2 768
+ 24624 = N 0 0
+ 24816 = N 1 0
+ 24960 = N 2 0
+ 25152 = N 2 112
+ 25392 = N 0 0
+ 25632 = N 1 0
+ 25824 = N 1 112
+ 26208 = N 2 0
+ 26448 = N 1 0
+ 26592 = N 0 0
+ 26880 = N 2 0
+ 27072 = N 1 0
+ 27168 = N 0 0
+ 27696 = N 0 0
+ 27888 = N 1 0
+ 28032 = N 2 0
+ 28224 = N 1 112
+ 28464 = N 0 0
+ 28704 = N 1 0
+ 28896 = N 1 112
+ 29376 = N 2 0
+ 29520 = N 1 0
+ 29760 = N 0 0
+ 29952 = N 2 0
+ 30144 = N 1 0
+ 30240 = N 0 0
+ 30384 = N 0 0
+ 30384 = E solo
+ 30576 = N 1 0
+ 30768 = N 2 0
+ 30768 = N 6 0
+ 30912 = N 2 0
+ 30912 = N 6 0
+ 31056 = N 1 0
+ 31056 = N 6 0
+ 31200 = N 1 0
+ 31200 = N 6 0
+ 31344 = N 0 0
+ 31488 = N 2 0
+ 31488 = S 2 576
+ 31680 = N 1 0
+ 31776 = N 0 0
+ 32256 = N 0 0
+ 32448 = N 2 0
+ 32640 = N 1 0
+ 32832 = N 2 0
+ 33024 = N 0 0
+ 33216 = N 1 0
+ 33408 = N 2 0
+ 33696 = N 1 0
+ 33840 = N 2 0
+ 33984 = N 1 0
+ 34176 = N 0 0
+ 34368 = N 1 0
+ 34560 = N 2 0
+ 34752 = N 1 0
+ 34944 = N 0 0
+ 35088 = N 0 0
+ 35280 = N 1 0
+ 35488 = N 2 0
+ 35712 = N 0 0
+ 35904 = N 2 0
+ 36048 = N 1 0
+ 36288 = N 1 0
+ 36480 = N 2 0
+ 36768 = N 0 0
+ 36864 = N 2 0
+ 37056 = N 2 0
+ 37248 = N 1 0
+ 37440 = N 0 0
+ 37632 = N 1 0
+ 37824 = N 2 0
+ 38016 = N 1 0
+ 38208 = N 2 0
+ 38352 = N 2 0
+ 38400 = S 2 1536
+ 38496 = N 1 0
+ 38640 = N 1 0
+ 38784 = N 2 0
+ 38928 = N 2 0
+ 39072 = N 1 0
+ 39216 = N 1 0
+ 39360 = N 0 0
+ 39552 = N 0 0
+ 40320 = N 0 0
+ 40512 = N 1 0
+ 40704 = N 2 0
+ 40896 = N 1 0
+ 41088 = N 2 0
+ 41280 = N 1 0
+ 41472 = N 2 0
+ 41664 = N 1 0
+ 41856 = N 0 0
+ 42048 = N 0 0
+ 42240 = N 0 0
+ 42432 = N 2 0
+ 42624 = N 1 0
+ 42816 = N 2 0
+ 43008 = N 1 0
+ 43248 = N 0 0
+ 43440 = N 2 0
+ 43584 = N 1 0
+ 43808 = N 1 0
+ 43968 = N 0 0
+ 44112 = N 2 0
+ 44352 = N 0 0
+ 44544 = N 1 0
+ 44672 = N 2 0
+ 44928 = N 2 0
+ 45120 = N 1 0
+ 45312 = N 0 0
+ 45504 = N 0 0
+ 45792 = N 1 0
+ 46080 = N 0 0
+ 46080 = S 2 1248
+ 46368 = N 0 0
+ 46656 = N 1 0
+ 46944 = N 0 0
+ 47232 = N 2 0
+ 47520 = N 2 0
+ 47808 = N 2 0
+ 48000 = N 2 0
+ 48192 = N 1 0
+ 48384 = N 0 0
+ 48576 = N 1 0
+ 48960 = N 1 0
+ 49056 = N 2 0
+ 49392 = N 2 0
+ 49488 = N 1 0
+ 49728 = N 0 0
+ 49824 = N 2 0
+ 50064 = N 1 0
+ 50256 = N 0 0
+ 50496 = N 1 0
+ 50640 = N 0 0
+ 50832 = N 1 0
+ 51072 = N 2 0
+ 51264 = N 0 0
+ 51456 = N 1 0
+ 51648 = N 2 0
+ 51840 = N 1 0
+ 52032 = N 2 0
+ 52224 = N 1 0
+ 52416 = N 0 0
+ 52632 = N 0 0
+ 52864 = N 0 0
+ 52992 = N 0 0
+ 53184 = N 0 0
+ 53376 = N 1 0
+ 53568 = N 1 0
+ 53760 = N 2 0
+ 53952 = N 2 0
+ 54336 = N 1 0
+ 54432 = S 2 768
+ 54528 = N 2 0
+ 54720 = N 1 0
+ 54816 = N 0 0
+ 55200 = E soloend
+ 55296 = N 0 0
+ 55488 = N 2 0
+ 55728 = N 1 240
+ 56064 = N 2 0
+ 56256 = N 1 0
+ 56400 = N 0 336
+ 56832 = N 0 0
+ 57024 = N 1 0
+ 57216 = N 2 192
+ 57600 = N 2 0
+ 57792 = N 1 0
+ 57984 = N 0 288
+ 58560 = N 1 0
+ 58800 = N 0 144
+ 59136 = N 1 0
+ 59328 = N 2 0
+ 59472 = N 0 144
+ 59904 = N 2 0
+ 60096 = N 1 0
+ 60240 = N 2 0
+ 60480 = N 0 0
+ 60672 = N 1 0
+ 60864 = N 0 0
+ 61056 = N 2 0
+ 61248 = N 1 0
+ 61440 = N 2 0
+ 61440 = S 2 1536
+ 61440 = E solo
+ 61632 = N 1 0
+ 61824 = N 0 144
+ 62016 = N 0 0
+ 62208 = N 1 0
+ 62304 = N 1 0
+ 62400 = N 2 0
+ 62544 = N 1 0
+ 62688 = N 0 0
+ 62784 = N 1 0
+ 63168 = N 2 0
+ 63360 = N 1 0
+ 63456 = N 0 192
+ 63936 = N 0 0
+ 64080 = N 1 0
+ 64320 = N 1 0
+ 64512 = N 0 0
+ 64704 = N 1 0
+ 64896 = N 2 0
+ 65088 = N 1 0
+ 65280 = N 0 0
+ 65472 = N 1 0
+ 65712 = N 2 0
+ 65856 = N 1 48
+ 66048 = N 0 0
+ 66240 = N 2 0
+ 66432 = N 1 256
+ 66720 = N 1 0
+ 66816 = N 0 0
+ 66912 = N 0 0
+ 67008 = N 1 0
+ 67104 = N 1 0
+ 67200 = N 1 0
+ 67296 = N 2 0
+ 67392 = N 2 0
+ 67488 = N 2 0
+ 67584 = N 3 0
+ 67680 = N 2 0
+ 67776 = N 1 0
+ 67872 = N 1 0
+ 67968 = N 0 160
+ 68160 = N 2 0
+ 68256 = N 1 0
+ 68352 = N 0 0
+ 68544 = N 1 0
+ 68736 = N 1 0
+ 68832 = N 2 160
+ 69024 = N 3 0
+ 69216 = N 3 0
+ 69312 = N 2 112
+ 69504 = N 1 160
+ 69696 = N 2 0
+ 69792 = N 1 0
+ 69888 = N 0 0
+ 69888 = S 2 768
+ 70080 = N 0 0
+ 70272 = N 1 0
+ 70464 = N 2 0
+ 70656 = N 3 0
+ 70752 = N 2 0
+ 70848 = N 1 160
+ 71040 = N 3 0
+ 71136 = N 2 0
+ 71232 = N 0 160
+ 71424 = N 3 0
+ 71520 = N 1 0
+ 71616 = N 0 160
+ 71808 = N 2 0
+ 71904 = N 1 0
+ 72000 = N 0 160
+ 72192 = N 1 0
+ 72288 = N 3 0
+ 72480 = N 0 160
+ 72672 = N 2 0
+ 72864 = N 1 160
+ 73056 = N 3 0
+ 73248 = N 2 0
+ 73344 = N 2 160
+ 73536 = N 3 0
+ 73536 = N 5 0
+ 73728 = N 3 0
+ 73824 = N 2 0
+ 73920 = N 1 0
+ 74016 = N 2 0
+ 74112 = N 0 0
+ 74208 = N 0 0
+ 74304 = N 1 0
+ 74400 = N 2 0
+ 74496 = N 1 0
+ 74592 = N 2 0
+ 74688 = N 3 0
+ 74784 = N 1 0
+ 74880 = N 2 192
+ 75264 = N 3 0
+ 75360 = N 2 0
+ 75456 = N 1 0
+ 75552 = N 0 0
+ 75648 = N 3 0
+ 75744 = N 2 0
+ 75840 = N 1 0
+ 75936 = N 2 160
+ 76224 = N 1 0
+ 76416 = N 2 160
+ 76608 = N 1 256
+ 76992 = N 1 0
+ 77184 = N 2 0
+ 77376 = N 0 0
+ 77568 = N 2 0
+ 77568 = S 2 768
+ 77760 = N 2 0
+ 77952 = N 2 112
+ 78144 = N 1 160
+ 78336 = N 0 0
+ 78528 = N 1 0
+ 78720 = N 2 0
+ 78912 = N 0 0
+ 79104 = N 1 0
+ 79296 = N 2 0
+ 79488 = N 1 0
+ 79872 = N 2 0
+ 80064 = N 0 0
+ 80256 = N 2 0
+ 80496 = N 1 0
+ 80640 = N 0 0
+ 80832 = N 2 0
+ 81024 = N 0 0
+ 81120 = N 1 0
+ 81216 = N 2 0
+ 81408 = N 2 160
+ 81600 = N 0 0
+ 81792 = N 1 160
+ 81984 = N 0 0
+ 82176 = N 2 160
+ 82368 = N 0 0
+ 82560 = N 2 160
+ 82752 = N 1 0
+ 82944 = N 1 160
+ 83136 = N 0 0
+ 83328 = N 2 160
+ 83520 = N 0 0
+ 83712 = N 2 160
+ 83904 = N 1 0
+ 84096 = N 2 192
+ 84480 = N 2 160
+ 84672 = N 2 160
+ 84864 = N 1 160
+ 85056 = N 1 160
+ 85248 = N 0 160
+ 85440 = N 0 288
+ 85824 = E soloend
+ 86016 = N 1 0
+ 86016 = S 2 1536
+ 86208 = N 0 0
+ 86400 = N 1 0
+ 86784 = N 1 0
+ 86976 = N 0 0
+ 87168 = N 1 0
+ 87360 = N 0 160
+ 87552 = N 1 0
+ 87744 = N 0 0
+ 87936 = N 1 0
+ 88320 = N 2 0
+ 88512 = N 2 160
+ 88704 = N 0 160
+ 88896 = N 1 160
+ 89088 = N 0 0
+ 89280 = N 1 0
+ 89472 = N 2 0
+ 89664 = N 1 0
+ 89856 = N 0 0
+ 90048 = N 2 0
+ 90240 = N 1 0
+ 90432 = N 0 0
+ 90624 = N 0 0
+ 90816 = N 1 0
+ 91008 = N 2 0
+ 91392 = N 1 0
+ 91584 = N 0 0
+ 91776 = N 2 0
+ 91968 = N 1 0
+ 92208 = N 0 0
+ 92352 = N 1 0
+ 92544 = N 2 0
+ 92688 = N 2 0
+ 92832 = N 1 0
+ 92976 = N 1 0
+ 93120 = N 0 0
+ 93264 = N 2 0
+ 93504 = N 1 0
+ 93696 = N 0 0
+ 93696 = S 2 960
+ 93888 = N 1 0
+ 94080 = N 0 0
+ 94272 = N 1 0
+ 94464 = N 2 192
+ 95040 = N 1 0
+ 95232 = N 2 0
+ 95424 = N 1 0
+ 95616 = N 1 0
+ 95808 = N 1 0
+ 96000 = N 0 0
+ 96192 = N 1 0
+ 96384 = N 2 0
+ 96768 = N 2 0
+ 96960 = N 1 0
+ 97152 = N 1 0
+ 97344 = N 1 0
+ 97536 = N 0 0
+ 97728 = N 1 0
+ 97920 = N 2 0
+ 98304 = N 2 0
+ 98496 = N 2 0
+ 98688 = N 1 0
+ 98880 = N 1 0
+ 99072 = N 0 0
+ 99264 = N 0 0
+ 99456 = N 1 0
+ 99648 = N 0 192
+ 100032 = N 1 0
+ 100224 = N 2 160
+ 100416 = N 1 0
+ 100512 = N 0 0
+ 100608 = N 1 0
+ 101376 = N 2 0
+ 101376 = S 2 768
+ 101664 = N 2 0
+ 101952 = N 2 0
+ 102240 = N 2 0
+ 102528 = N 2 0
+ 102720 = N 2 0
+ 102912 = N 1 0
+ 103200 = N 1 0
+ 103488 = N 1 0
+ 103776 = N 1 0
+ 104064 = N 1 0
+ 104256 = N 2 0
+ 104448 = N 0 0
+ 104736 = N 0 0
+ 105024 = N 0 0
+ 105312 = N 0 0
+ 105600 = N 0 0
+ 105792 = N 1 0
+ 105984 = N 2 256
+ 106272 = N 1 288
+ 106272 = N 5 0
+ 107568 = N 0 0
+ 107760 = N 1 0
+ 107904 = N 2 0
+ 108096 = N 2 112
+ 108288 = S 2 768
+ 108336 = N 0 0
+ 108528 = N 1 0
+ 108768 = N 2 112
+ 109296 = N 0 0
+ 109584 = N 1 0
+ 109872 = N 2 0
+ 110016 = N 1 0
+ 110112 = N 0 192
+ 110640 = N 0 0
+ 110832 = N 1 0
+ 110976 = N 2 0
+ 111168 = N 1 112
+ 111408 = N 0 0
+ 111648 = N 1 0
+ 111840 = N 1 112
+ 112320 = N 2 0
+ 112464 = N 1 0
+ 112704 = N 0 0
+ 112896 = N 2 0
+ 113088 = N 1 0
+ 113184 = N 0 0
+ 113664 = N 0 0
+ 113856 = N 2 0
+ 114096 = N 1 240
+ 114432 = N 2 0
+ 114624 = N 1 0
+ 114768 = N 1 336
+ 115200 = N 0 0
+ 115392 = N 2 0
+ 115632 = N 1 240
+ 116016 = N 1 0
+ 116160 = N 2 0
+ 116448 = N 0 240
+ 116736 = N 0 0
+ 116736 = S 2 1536
+ 116928 = N 2 0
+ 117168 = N 1 144
+ 117504 = N 0 0
+ 117696 = N 1 0
+ 117840 = N 2 192
+ 118272 = N 0 0
+ 118512 = N 1 0
+ 118656 = N 0 0
+ 118896 = N 1 0
+ 119040 = N 2 0
+ 119184 = N 1 0
+ 119376 = N 2 240
+ 119856 = N 0 0
+ 120048 = N 1 0
+ 120192 = N 2 0
+ 120384 = N 2 112
+ 120624 = N 0 0
+ 120864 = N 1 0
+ 121056 = N 1 112
+ 121392 = N 2 0
+ 121536 = N 1 0
+ 121680 = N 1 0
+ 121824 = N 0 0
+ 122112 = N 2 0
+ 122304 = N 1 0
+ 122400 = N 0 0
+ 122928 = N 0 0
+ 123120 = N 1 0
+ 123264 = N 2 0
+ 123456 = N 1 112
+ 123696 = N 0 0
+ 123936 = N 1 0
+ 124128 = N 1 112
+ 124608 = N 2 0
+ 124752 = N 1 0
+ 124992 = N 0 0
+ 125184 = N 2 0
+ 125376 = N 1 0
+ 125472 = N 0 0
+ 125952 = N 2 0
+ 126144 = N 1 0
+ 126240 = N 0 0
+ 126720 = N 2 0
+ 126912 = N 1 0
+ 127008 = N 0 0
+ 127488 = N 1 0
+ 127680 = N 0 0
+ 127968 = N 2 1824
+ 127968 = N 6 0
+}