summaryrefslogtreecommitdiff
path: root/songs/Maynard-Ferguson-Country-Road-(James-Taylor-Cover)/notes.chart
diff options
context:
space:
mode:
Diffstat (limited to 'songs/Maynard-Ferguson-Country-Road-(James-Taylor-Cover)/notes.chart')
-rw-r--r--songs/Maynard-Ferguson-Country-Road-(James-Taylor-Cover)/notes.chart5010
1 files changed, 5010 insertions, 0 deletions
diff --git a/songs/Maynard-Ferguson-Country-Road-(James-Taylor-Cover)/notes.chart b/songs/Maynard-Ferguson-Country-Road-(James-Taylor-Cover)/notes.chart
new file mode 100644
index 0000000..43a2288
--- /dev/null
+++ b/songs/Maynard-Ferguson-Country-Road-(James-Taylor-Cover)/notes.chart
@@ -0,0 +1,5010 @@
+[Song]
+{
+ Name = "Country Road"
+ Artist = "Maynard Ferguson"
+ Charter = "GuitarZero132"
+ Album = "M.F. Horn Two"
+ Year = ", 1972"
+ Offset = 0
+ Resolution = 192
+ Player2 = bass
+ Difficulty = 0
+ PreviewStart = 0
+ PreviewEnd = 0
+ Genre = "Jazz Fusion"
+ MediaType = "cd"
+ MusicStream = "song.ogg"
+}
+[SyncTrack]
+{
+ 0 = TS 4
+ 0 = B 80000
+ 768 = B 77000
+ 1152 = B 84000
+ 2112 = B 85000
+ 3456 = B 84000
+ 4032 = B 89000
+ 4224 = B 80000
+ 4416 = B 87000
+ 4608 = B 84000
+ 4800 = B 83000
+ 5952 = B 82000
+ 6528 = B 81000
+ 7104 = B 79000
+ 7488 = B 81000
+ 8064 = B 87000
+ 8448 = B 76000
+ 8640 = B 85000
+ 8832 = B 84000
+ 9216 = B 82000
+ 9600 = B 80000
+ 9984 = B 80000
+ 10368 = B 85000
+ 10752 = B 81000
+ 11136 = B 82000
+ 11520 = B 81000
+ 11904 = B 85000
+ 12288 = B 83000
+ 12672 = B 77000
+ 12864 = B 88000
+ 13056 = B 79000
+ 13440 = B 83000
+ 13824 = B 79000
+ 14016 = B 81000
+ 14208 = B 83000
+ 14400 = B 93000
+ 14592 = B 81000
+ 14976 = B 85000
+ 15744 = B 87000
+ 16128 = B 79000
+ 16320 = B 84000
+ 16704 = B 85000
+ 17088 = B 85000
+ 17280 = B 89000
+ 17664 = B 85000
+ 18432 = B 86000
+ 19008 = B 85000
+ 19392 = B 86000
+ 19776 = B 87000
+ 20160 = B 88000
+ 20544 = B 86000
+ 20928 = B 84000
+ 21312 = B 88000
+ 21696 = B 86000
+ 22848 = B 83000
+ 23232 = B 84000
+ 24768 = B 86000
+ 24960 = B 88000
+ 25344 = B 82000
+ 25536 = B 86000
+ 26304 = B 88000
+ 26880 = B 86000
+ 27264 = B 85000
+ 28416 = B 84000
+ 28992 = B 86000
+ 29376 = B 85000
+ 31488 = B 83000
+ 31680 = B 86000
+ 33600 = B 84000
+ 33984 = B 86000
+ 35328 = B 83000
+ 35520 = B 85000
+ 36096 = B 87000
+ 36864 = B 85000
+ 37056 = B 86000
+ 37440 = B 88000
+ 37632 = B 87000
+ 38208 = B 85000
+ 38400 = B 88000
+ 38592 = B 86000
+ 38976 = B 89000
+ 39168 = B 87000
+ 39936 = B 87000
+ 41472 = B 87000
+ 43008 = B 87000
+ 43584 = B 83000
+ 43968 = B 86000
+ 45120 = B 86000
+ 46080 = B 88000
+ 47040 = B 91000
+ 47424 = B 88000
+ 47616 = B 86000
+ 48192 = B 85000
+ 48576 = B 83000
+ 49152 = B 84000
+ 49920 = B 90000
+ 50112 = B 88000
+ 50880 = B 86000
+ 51456 = B 88000
+ 51840 = B 95000
+ 52224 = B 91000
+ 52800 = B 81000
+ 52992 = B 84000
+ 53184 = B 86000
+ 54720 = B 87000
+ 55296 = B 85000
+ 56256 = B 88000
+ 57024 = B 89000
+ 57408 = B 86000
+ 57792 = B 87000
+ 58368 = B 88000
+ 59136 = B 87000
+ 59520 = B 81000
+ 59712 = B 84000
+ 60096 = B 87000
+ 60864 = B 89000
+ 61440 = B 88000
+ 61824 = B 89000
+ 62400 = B 87000
+ 64320 = B 85000
+ 65088 = B 88000
+ 65280 = B 87000
+ 66048 = B 88000
+ 66816 = B 86000
+ 67584 = B 87000
+ 68160 = B 86000
+ 69120 = B 85000
+ 69504 = B 78000
+ 69696 = B 77000
+ 69888 = B 75000
+ 70080 = B 71000
+ 70272 = B 77000
+ 70848 = B 85000
+ 71040 = B 85000
+ 71424 = B 74000
+ 71808 = B 75000
+ 72192 = B 50000
+ 72384 = B 52000
+ 72576 = B 48000
+ 72768 = B 55000
+ 72960 = B 56000
+ 73152 = B 49000
+ 73344 = B 58000
+ 73536 = B 46000
+ 73728 = B 50000
+}
+[Events]
+{
+ 768 = E "section Intro Solo A"
+ 3840 = E "section Intro Solo B"
+ 6912 = E "section Intro Solo C"
+ 9984 = E "section Keyboard Lead 1"
+ 13056 = E "section Verse 1A"
+ 16128 = E "section Verse 1B"
+ 19200 = E "section Keyboard Lead 2"
+ 22272 = E "section Verse 2A"
+ 25344 = E "section Verse 2B"
+ 28416 = E "section Keyboard Lead 3"
+ 31488 = E "section Chorus 1"
+ 36864 = E "section Trumpet Solo A"
+ 39936 = E "section Trumpet Solo B"
+ 43008 = E "section Solo Ending"
+ 46080 = E "section Bridge 1"
+ 49920 = E "section Bass Solo"
+ 52992 = E "section Saxophone Lead"
+ 56064 = E "section Bridge 2"
+ 58368 = E "section Band Harmony 1"
+ 60672 = E "section Bridge 3"
+ 62976 = E "section Band Harmony 2"
+ 65280 = E "section Chorus 2"
+ 71424 = E "section Ending"
+}
+[ExpertSingle]
+{
+ 928 = N 1 0
+ 928 = N 6 0
+ 928 = E solo
+ 960 = N 3 0
+ 960 = N 4 0
+ 960 = N 6 0
+ 1024 = N 1 0
+ 1024 = N 6 0
+ 1056 = N 2 0
+ 1056 = N 3 0
+ 1056 = N 6 0
+ 1088 = N 4 0
+ 1088 = N 6 0
+ 1152 = N 1 0
+ 1152 = N 3 0
+ 1152 = N 6 0
+ 1216 = N 0 0
+ 1216 = N 6 0
+ 1248 = N 1 72
+ 1248 = N 6 0
+ 1344 = N 4 0
+ 1344 = N 6 0
+ 1368 = N 3 0
+ 1368 = N 6 0
+ 1392 = N 2 0
+ 1392 = N 6 0
+ 1416 = N 3 0
+ 1416 = N 6 0
+ 1440 = N 2 0
+ 1440 = N 6 0
+ 1472 = N 1 0
+ 1472 = N 6 0
+ 1504 = N 2 0
+ 1504 = N 6 0
+ 1536 = N 0 168
+ 1536 = N 6 0
+ 1728 = N 0 0
+ 1728 = N 3 0
+ 1728 = N 6 0
+ 1824 = N 0 0
+ 1824 = N 2 456
+ 1824 = N 6 0
+ 1856 = N 1 424
+ 1856 = N 6 0
+ 2368 = N 1 0
+ 2368 = N 6 0
+ 2432 = N 2 0
+ 2432 = N 6 0
+ 2464 = N 3 0
+ 2464 = N 6 0
+ 2496 = N 3 0
+ 2496 = N 4 0
+ 2496 = N 6 0
+ 2592 = N 2 0
+ 2592 = N 3 0
+ 2592 = N 6 0
+ 2656 = N 1 0
+ 2656 = N 3 0
+ 2656 = N 6 0
+ 2688 = N 2 0
+ 2688 = N 6 0
+ 2712 = N 3 0
+ 2712 = N 6 0
+ 2736 = N 2 0
+ 2736 = N 6 0
+ 2760 = N 1 0
+ 2760 = N 6 0
+ 2784 = N 3 0
+ 2784 = N 6 0
+ 2808 = N 4 0
+ 2808 = N 6 0
+ 2832 = N 3 0
+ 2832 = N 6 0
+ 2856 = N 2 0
+ 2856 = N 6 0
+ 2880 = N 3 0
+ 2880 = N 6 0
+ 2904 = N 2 0
+ 2904 = N 6 0
+ 2928 = N 1 0
+ 2928 = N 6 0
+ 2952 = N 0 0
+ 2952 = N 6 0
+ 2976 = N 3 0
+ 2976 = N 6 0
+ 3000 = N 2 0
+ 3000 = N 6 0
+ 3024 = N 1 0
+ 3024 = N 6 0
+ 3048 = N 0 197
+ 3048 = N 6 0
+ 3264 = N 0 0
+ 3264 = N 3 0
+ 3264 = N 6 0
+ 3360 = N 0 0
+ 3360 = N 2 456
+ 3360 = N 6 0
+ 3392 = N 1 424
+ 3392 = N 6 0
+ 3840 = S 2 1152
+ 3888 = N 4 77
+ 3888 = N 6 0
+ 3984 = N 2 0
+ 3984 = N 6 0
+ 4008 = N 1 0
+ 4008 = N 6 0
+ 4032 = N 3 120
+ 4032 = N 6 0
+ 4176 = N 1 0
+ 4176 = N 6 0
+ 4200 = N 0 0
+ 4200 = N 6 0
+ 4224 = N 2 120
+ 4224 = N 6 0
+ 4368 = N 1 0
+ 4368 = N 6 0
+ 4392 = N 0 0
+ 4392 = N 6 0
+ 4416 = N 4 0
+ 4416 = N 6 0
+ 4448 = N 3 0
+ 4448 = N 6 0
+ 4480 = N 1 0
+ 4480 = N 6 0
+ 4512 = N 3 0
+ 4512 = N 6 0
+ 4536 = N 2 0
+ 4536 = N 6 0
+ 4560 = N 1 0
+ 4560 = N 6 0
+ 4608 = N 0 168
+ 4608 = N 6 0
+ 4800 = N 0 0
+ 4800 = N 3 0
+ 4800 = N 6 0
+ 4896 = N 0 0
+ 4896 = N 2 408
+ 4896 = N 6 0
+ 4928 = N 1 376
+ 4928 = N 6 0
+ 5344 = N 2 0
+ 5344 = N 6 0
+ 5376 = N 2 168
+ 5376 = N 4 168
+ 5376 = N 6 0
+ 5568 = N 3 0
+ 5568 = N 6 0
+ 5632 = N 2 0
+ 5632 = N 6 0
+ 5728 = N 2 104
+ 5728 = N 4 104
+ 5728 = N 6 0
+ 5856 = N 1 0
+ 5856 = N 3 0
+ 5856 = N 6 0
+ 5872 = N 2 0
+ 5872 = N 3 0
+ 5872 = N 6 0
+ 5920 = N 1 200
+ 5920 = N 2 200
+ 5920 = N 6 0
+ 6144 = N 0 192
+ 6144 = N 3 192
+ 6144 = N 6 0
+ 6432 = N 0 0
+ 6432 = N 2 480
+ 6432 = N 6 0
+ 6464 = N 1 448
+ 6464 = N 6 0
+ 7072 = N 2 0
+ 7072 = N 6 0
+ 7104 = N 2 0
+ 7104 = N 4 0
+ 7104 = N 6 0
+ 7168 = N 2 0
+ 7168 = N 6 0
+ 7248 = N 4 0
+ 7248 = N 6 0
+ 7264 = N 3 0
+ 7264 = N 6 0
+ 7280 = N 2 0
+ 7280 = N 6 0
+ 7296 = N 1 0
+ 7296 = N 6 0
+ 7392 = N 0 0
+ 7392 = N 1 0
+ 7392 = N 6 0
+ 7536 = N 0 0
+ 7536 = N 6 0
+ 7584 = N 1 0
+ 7584 = N 6 0
+ 7632 = N 2 126
+ 7632 = N 6 0
+ 7776 = N 0 0
+ 7776 = N 6 0
+ 7872 = N 3 0
+ 7872 = N 6 0
+ 7968 = N 0 0
+ 7968 = N 2 317
+ 7968 = N 6 0
+ 8000 = N 1 285
+ 8000 = N 6 0
+ 8304 = N 0 93
+ 8304 = N 6 0
+ 8416 = N 2 0
+ 8416 = N 6 0
+ 8448 = N 3 127
+ 8448 = N 4 127
+ 8448 = N 6 0
+ 8592 = N 4 0
+ 8592 = N 6 0
+ 8616 = N 2 0
+ 8616 = N 6 0
+ 8640 = N 3 0
+ 8640 = N 6 0
+ 8688 = N 1 0
+ 8688 = N 6 0
+ 8784 = N 1 0
+ 8784 = N 3 96
+ 8784 = N 6 0
+ 8808 = N 2 72
+ 8808 = N 6 0
+ 8896 = N 1 0
+ 8896 = N 6 0
+ 8928 = N 2 0
+ 8928 = N 4 0
+ 8928 = N 6 0
+ 9024 = N 1 0
+ 9024 = N 3 0
+ 9024 = N 6 0
+ 9048 = N 2 0
+ 9048 = N 3 0
+ 9048 = N 6 0
+ 9120 = N 1 0
+ 9120 = N 6 0
+ 9216 = N 0 168
+ 9216 = N 1 168
+ 9216 = N 6 0
+ 9408 = N 1 0
+ 9408 = N 2 0
+ 9408 = N 6 0
+ 9504 = N 0 0
+ 9504 = N 2 456
+ 9504 = N 6 0
+ 9528 = N 1 432
+ 9528 = N 6 0
+ 9888 = E soloend
+ 9984 = N 1 360
+ 9984 = N 2 0
+ 9984 = N 6 0
+ 10032 = N 3 312
+ 10032 = N 6 0
+ 10368 = N 4 0
+ 10368 = N 6 0
+ 10416 = N 3 0
+ 10416 = N 6 0
+ 10464 = N 2 0
+ 10464 = N 6 0
+ 10512 = N 1 0
+ 10512 = N 6 0
+ 10560 = N 2 0
+ 10560 = N 6 0
+ 10608 = N 1 120
+ 10608 = N 3 120
+ 10608 = N 6 0
+ 10752 = N 0 0
+ 10752 = N 2 0
+ 10752 = N 6 0
+ 10800 = N 0 120
+ 10800 = N 2 120
+ 10800 = N 6 0
+ 10944 = N 0 0
+ 10944 = N 6 0
+ 11040 = N 2 168
+ 11040 = N 4 168
+ 11040 = N 6 0
+ 11232 = N 0 0
+ 11232 = N 6 0
+ 11280 = N 1 0
+ 11280 = N 6 0
+ 11328 = N 2 0
+ 11328 = N 6 0
+ 11376 = N 1 0
+ 11376 = N 6 0
+ 11424 = N 2 0
+ 11424 = N 6 0
+ 11472 = N 0 0
+ 11472 = N 6 0
+ 11520 = N 1 318
+ 11520 = N 2 0
+ 11520 = N 6 0
+ 11520 = S 2 1536
+ 11568 = N 3 270
+ 11568 = N 6 0
+ 11856 = N 0 0
+ 11856 = N 6 0
+ 11904 = N 4 0
+ 11904 = N 6 0
+ 11952 = N 3 0
+ 11952 = N 6 0
+ 12000 = N 2 0
+ 12000 = N 6 0
+ 12048 = N 1 0
+ 12048 = N 6 0
+ 12096 = N 2 0
+ 12096 = N 6 0
+ 12144 = N 1 120
+ 12144 = N 3 120
+ 12144 = N 6 0
+ 12288 = N 0 0
+ 12288 = N 2 0
+ 12288 = N 6 0
+ 12336 = N 0 72
+ 12336 = N 2 72
+ 12336 = N 6 0
+ 12432 = N 0 0
+ 12432 = N 6 0
+ 12480 = N 4 0
+ 12480 = N 6 0
+ 12576 = N 1 480
+ 12576 = N 3 480
+ 12576 = N 6 0
+ 13152 = N 2 0
+ 13152 = N 6 0
+ 13216 = N 3 0
+ 13216 = N 6 0
+ 13312 = N 3 0
+ 13312 = N 6 0
+ 13392 = N 2 0
+ 13392 = N 6 0
+ 13440 = N 4 0
+ 13440 = N 6 0
+ 13536 = N 3 0
+ 13536 = N 6 0
+ 13632 = N 2 0
+ 13632 = N 6 0
+ 13728 = N 2 0
+ 13728 = N 6 0
+ 13824 = N 2 0
+ 13824 = N 6 0
+ 13920 = N 1 0
+ 13920 = N 6 0
+ 13984 = N 0 0
+ 13984 = N 6 0
+ 14016 = N 1 0
+ 14016 = N 6 0
+ 14112 = N 0 384
+ 14112 = N 6 0
+ 14688 = N 2 0
+ 14688 = N 6 0
+ 14752 = N 3 72
+ 14752 = N 6 0
+ 14848 = N 2 0
+ 14848 = N 6 0
+ 14880 = N 4 0
+ 14880 = N 6 0
+ 14976 = N 3 168
+ 14976 = N 6 0
+ 15168 = N 2 0
+ 15168 = N 6 0
+ 15232 = N 3 0
+ 15232 = N 6 0
+ 15264 = N 2 0
+ 15264 = N 6 0
+ 15360 = N 2 136
+ 15360 = N 6 0
+ 15520 = N 1 136
+ 15520 = N 6 0
+ 15680 = N 0 256
+ 15680 = N 6 0
+ 16128 = N 2 0
+ 16128 = N 6 0
+ 16192 = N 3 0
+ 16192 = N 6 0
+ 16224 = N 3 0
+ 16224 = N 6 0
+ 16288 = N 3 0
+ 16288 = N 6 0
+ 16384 = N 2 0
+ 16384 = N 6 0
+ 16416 = N 4 136
+ 16416 = N 6 0
+ 16576 = N 3 104
+ 16576 = N 6 0
+ 16704 = N 2 0
+ 16704 = N 6 0
+ 16768 = N 0 0
+ 16768 = N 6 0
+ 16800 = N 1 0
+ 16800 = N 6 0
+ 16896 = N 2 0
+ 16896 = N 6 0
+ 16960 = N 3 0
+ 16960 = N 6 0
+ 16992 = N 3 0
+ 16992 = N 6 0
+ 17088 = N 3 0
+ 17088 = N 6 0
+ 17152 = N 4 0
+ 17152 = N 6 0
+ 17184 = N 3 224
+ 17184 = N 6 0
+ 17632 = N 0 0
+ 17632 = N 6 0
+ 17664 = N 1 0
+ 17664 = N 6 0
+ 17728 = N 2 0
+ 17728 = N 6 0
+ 17760 = N 2 0
+ 17760 = N 6 0
+ 17824 = N 2 0
+ 17824 = N 6 0
+ 17920 = N 1 0
+ 17920 = N 6 0
+ 18016 = N 1 0
+ 18016 = N 6 0
+ 18048 = N 2 0
+ 18048 = N 6 0
+ 18112 = N 1 0
+ 18112 = N 6 0
+ 18144 = N 2 0
+ 18144 = N 6 0
+ 18240 = N 2 0
+ 18240 = N 6 0
+ 18304 = N 1 0
+ 18304 = N 6 0
+ 18336 = N 2 0
+ 18336 = N 6 0
+ 18400 = N 2 0
+ 18400 = N 6 0
+ 18432 = N 3 0
+ 18432 = N 6 0
+ 18528 = N 4 0
+ 18528 = N 6 0
+ 18624 = N 3 0
+ 18624 = N 6 0
+ 18720 = N 4 0
+ 18720 = N 6 0
+ 18784 = N 2 104
+ 18784 = N 6 0
+ 18912 = N 1 0
+ 18912 = N 6 0
+ 18976 = N 0 0
+ 18976 = N 6 0
+ 19008 = N 1 0
+ 19008 = N 6 0
+ 19072 = N 0 0
+ 19072 = N 6 0
+ 19104 = N 1 456
+ 19104 = N 6 0
+ 19584 = N 4 0
+ 19584 = N 6 0
+ 19632 = N 3 0
+ 19632 = N 6 0
+ 19680 = N 2 0
+ 19680 = N 6 0
+ 19728 = N 1 0
+ 19728 = N 6 0
+ 19776 = N 2 0
+ 19776 = N 6 0
+ 19824 = N 1 120
+ 19824 = N 3 120
+ 19824 = N 6 0
+ 19968 = N 0 0
+ 19968 = N 2 0
+ 19968 = N 6 0
+ 20016 = N 0 144
+ 20016 = N 2 144
+ 20016 = N 6 0
+ 20256 = N 2 168
+ 20256 = N 4 168
+ 20256 = N 6 0
+ 20448 = N 0 0
+ 20448 = N 6 0
+ 20512 = N 0 0
+ 20512 = N 6 0
+ 20544 = N 1 0
+ 20544 = N 6 0
+ 20608 = N 0 0
+ 20608 = N 6 0
+ 20640 = N 1 840
+ 20640 = N 6 0
+ 21504 = N 0 0
+ 21504 = N 2 0
+ 21504 = N 6 0
+ 21552 = N 0 96
+ 21552 = N 2 96
+ 21552 = N 6 0
+ 21696 = N 2 0
+ 21696 = N 4 0
+ 21696 = N 6 0
+ 21792 = N 1 384
+ 21792 = N 3 384
+ 21792 = N 6 0
+ 22272 = S 2 1536
+ 22368 = N 2 0
+ 22368 = N 6 0
+ 22432 = N 3 72
+ 22432 = N 6 0
+ 22528 = N 3 72
+ 22528 = N 6 0
+ 22624 = N 2 0
+ 22624 = N 6 0
+ 22656 = N 3 0
+ 22656 = N 6 0
+ 22680 = N 4 0
+ 22680 = N 6 0
+ 22752 = N 3 0
+ 22752 = N 6 0
+ 22848 = N 2 0
+ 22848 = N 6 0
+ 22896 = N 0 0
+ 22896 = N 6 0
+ 22944 = N 1 0
+ 22944 = N 6 0
+ 22992 = N 0 0
+ 22992 = N 6 0
+ 23040 = N 2 0
+ 23040 = N 6 0
+ 23064 = N 3 0
+ 23064 = N 6 0
+ 23136 = N 2 0
+ 23136 = N 6 0
+ 23184 = N 1 0
+ 23184 = N 6 0
+ 23232 = N 2 0
+ 23232 = N 6 0
+ 23280 = N 0 0
+ 23280 = N 6 0
+ 23328 = N 1 480
+ 23328 = N 6 0
+ 23904 = N 2 0
+ 23904 = N 6 0
+ 23968 = N 3 72
+ 23968 = N 6 0
+ 24064 = N 2 0
+ 24064 = N 6 0
+ 24096 = N 4 0
+ 24096 = N 6 0
+ 24192 = N 3 0
+ 24192 = N 6 0
+ 24288 = N 2 0
+ 24288 = N 6 0
+ 24336 = N 3 0
+ 24336 = N 6 0
+ 24384 = N 2 0
+ 24384 = N 6 0
+ 24432 = N 1 0
+ 24432 = N 6 0
+ 24480 = N 0 0
+ 24480 = N 6 0
+ 24576 = N 3 0
+ 24576 = N 6 0
+ 24672 = N 2 0
+ 24672 = N 6 0
+ 24720 = N 0 0
+ 24720 = N 6 0
+ 24768 = N 1 0
+ 24768 = N 6 0
+ 24864 = N 1 384
+ 24864 = N 6 0
+ 25344 = N 2 0
+ 25344 = N 6 0
+ 25408 = N 3 0
+ 25408 = N 6 0
+ 25440 = N 3 0
+ 25440 = N 6 0
+ 25504 = N 3 0
+ 25504 = N 6 0
+ 25600 = N 2 0
+ 25600 = N 6 0
+ 25632 = N 4 136
+ 25632 = N 6 0
+ 25792 = N 3 104
+ 25792 = N 6 0
+ 25920 = N 2 0
+ 25920 = N 6 0
+ 25984 = N 0 0
+ 25984 = N 6 0
+ 26016 = N 1 0
+ 26016 = N 6 0
+ 26112 = N 2 0
+ 26112 = N 6 0
+ 26176 = N 3 0
+ 26176 = N 6 0
+ 26208 = N 3 0
+ 26208 = N 6 0
+ 26304 = N 3 0
+ 26304 = N 6 0
+ 26368 = N 4 0
+ 26368 = N 6 0
+ 26400 = N 3 288
+ 26400 = N 6 0
+ 26880 = N 1 0
+ 26880 = N 6 0
+ 26944 = N 2 0
+ 26944 = N 6 0
+ 26976 = N 2 0
+ 26976 = N 6 0
+ 27040 = N 2 0
+ 27040 = N 6 0
+ 27136 = N 1 0
+ 27136 = N 6 0
+ 27232 = N 1 0
+ 27232 = N 6 0
+ 27264 = N 2 0
+ 27264 = N 6 0
+ 27328 = N 1 0
+ 27328 = N 6 0
+ 27360 = N 2 0
+ 27360 = N 6 0
+ 27456 = N 2 0
+ 27456 = N 6 0
+ 27520 = N 1 0
+ 27520 = N 6 0
+ 27552 = N 2 0
+ 27552 = N 6 0
+ 27616 = N 2 0
+ 27616 = N 6 0
+ 27648 = N 3 0
+ 27648 = N 6 0
+ 27744 = N 4 0
+ 27744 = N 6 0
+ 27840 = N 3 0
+ 27840 = N 6 0
+ 27936 = N 4 0
+ 27936 = N 6 0
+ 28000 = N 2 104
+ 28000 = N 6 0
+ 28128 = N 1 0
+ 28128 = N 6 0
+ 28192 = N 0 0
+ 28192 = N 6 0
+ 28224 = N 1 0
+ 28224 = N 6 0
+ 28288 = N 0 0
+ 28288 = N 6 0
+ 28320 = N 1 768
+ 28320 = N 6 0
+ 29184 = N 1 0
+ 29184 = N 6 0
+ 29232 = N 1 144
+ 29232 = N 6 0
+ 29472 = N 1 168
+ 29472 = N 6 0
+ 29664 = N 0 0
+ 29664 = N 6 0
+ 29728 = N 0 0
+ 29728 = N 6 0
+ 29760 = N 1 0
+ 29760 = N 6 0
+ 29824 = N 0 0
+ 29824 = N 6 0
+ 29856 = N 1 696
+ 29856 = N 6 0
+ 30576 = N 2 0
+ 30576 = N 6 0
+ 30600 = N 3 0
+ 30600 = N 6 0
+ 30672 = N 2 0
+ 30672 = N 6 0
+ 30720 = N 3 0
+ 30720 = N 6 0
+ 30744 = N 4 0
+ 30744 = N 6 0
+ 30816 = N 3 672
+ 30816 = N 6 0
+ 31648 = N 2 0
+ 31648 = N 6 0
+ 31680 = N 2 0
+ 31680 = N 6 0
+ 31744 = N 2 0
+ 31744 = N 6 0
+ 31776 = N 3 168
+ 31776 = N 6 0
+ 31968 = N 2 0
+ 31968 = N 6 0
+ 32064 = N 2 0
+ 32064 = N 6 0
+ 32112 = N 3 120
+ 32112 = N 6 0
+ 32256 = N 2 0
+ 32256 = N 6 0
+ 32352 = N 1 0
+ 32352 = N 6 0
+ 32448 = N 0 0
+ 32448 = N 6 0
+ 32544 = N 1 384
+ 32544 = N 6 0
+ 33024 = N 2 120
+ 33024 = N 6 0
+ 33024 = S 2 768
+ 33168 = N 3 120
+ 33168 = N 6 0
+ 33312 = N 4 456
+ 33312 = N 6 0
+ 33792 = N 2 0
+ 33792 = N 6 0
+ 33840 = N 3 192
+ 33840 = N 6 0
+ 34128 = N 0 0
+ 34128 = N 6 0
+ 34176 = N 3 0
+ 34176 = N 6 0
+ 34200 = N 4 0
+ 34200 = N 6 0
+ 34224 = N 3 0
+ 34224 = N 6 0
+ 34272 = N 2 0
+ 34272 = N 6 0
+ 34320 = N 1 0
+ 34320 = N 6 0
+ 34368 = N 2 0
+ 34368 = N 6 0
+ 34416 = N 3 120
+ 34416 = N 6 0
+ 34560 = N 2 0
+ 34560 = N 6 0
+ 34608 = N 2 144
+ 34608 = N 6 0
+ 34848 = N 4 384
+ 34848 = N 6 0
+ 35328 = N 2 0
+ 35328 = N 6 0
+ 35376 = N 3 192
+ 35376 = N 6 0
+ 35664 = N 0 0
+ 35664 = N 6 0
+ 35712 = N 3 0
+ 35712 = N 6 0
+ 35736 = N 4 0
+ 35736 = N 6 0
+ 35760 = N 3 0
+ 35760 = N 6 0
+ 35808 = N 2 0
+ 35808 = N 6 0
+ 35856 = N 1 0
+ 35856 = N 6 0
+ 35904 = N 2 0
+ 35904 = N 6 0
+ 35952 = N 3 120
+ 35952 = N 6 0
+ 36096 = N 2 0
+ 36096 = N 6 0
+ 36144 = N 2 120
+ 36144 = N 6 0
+ 36288 = N 4 0
+ 36288 = N 6 0
+ 36384 = N 3 480
+ 36384 = N 6 0
+ 36960 = N 3 0
+ 36960 = N 6 0
+ 36960 = E solo
+ 36984 = N 4 0
+ 36984 = N 6 0
+ 37008 = N 3 0
+ 37008 = N 6 0
+ 37312 = N 0 0
+ 37312 = N 6 0
+ 37344 = N 1 0
+ 37344 = N 6 0
+ 37408 = N 3 0
+ 37408 = N 6 0
+ 37440 = N 2 0
+ 37440 = N 6 0
+ 37504 = N 4 0
+ 37504 = N 6 0
+ 37792 = N 0 0
+ 37792 = N 6 0
+ 37824 = N 4 0
+ 37824 = N 6 0
+ 37888 = N 3 0
+ 37888 = N 6 0
+ 37920 = N 2 0
+ 37920 = N 6 0
+ 37984 = N 1 0
+ 37984 = N 6 0
+ 38016 = N 2 0
+ 38016 = N 6 0
+ 38080 = N 3 0
+ 38080 = N 6 0
+ 38176 = N 2 72
+ 38176 = N 6 0
+ 38272 = N 3 0
+ 38272 = N 6 0
+ 38368 = N 1 0
+ 38368 = N 6 0
+ 38400 = N 2 0
+ 38400 = N 6 0
+ 38544 = N 3 0
+ 38544 = N 6 0
+ 38656 = N 0 0
+ 38656 = N 6 0
+ 38688 = N 2 0
+ 38688 = N 6 0
+ 38944 = N 0 0
+ 38944 = N 6 0
+ 38976 = N 4 0
+ 38976 = N 6 0
+ 39072 = N 3 0
+ 39072 = N 6 0
+ 39360 = N 1 0
+ 39360 = N 6 0
+ 39520 = N 2 0
+ 39520 = N 6 0
+ 39616 = N 0 0
+ 39616 = N 6 0
+ 39648 = N 3 0
+ 39648 = N 6 0
+ 39712 = N 2 0
+ 39712 = N 6 0
+ 39744 = N 1 0
+ 39744 = N 6 0
+ 39808 = N 0 0
+ 39808 = N 6 0
+ 39840 = N 2 0
+ 39840 = N 6 0
+ 39904 = N 0 0
+ 39904 = N 6 0
+ 39936 = N 1 0
+ 39936 = N 6 0
+ 40000 = N 1 0
+ 40000 = N 6 0
+ 40368 = N 0 0
+ 40368 = N 6 0
+ 40416 = N 1 0
+ 40416 = N 6 0
+ 40440 = N 2 0
+ 40440 = N 6 0
+ 40464 = N 3 0
+ 40464 = N 6 0
+ 40488 = N 4 0
+ 40488 = N 6 0
+ 40512 = N 3 0
+ 40512 = N 6 0
+ 40576 = N 4 104
+ 40576 = N 6 0
+ 40704 = N 2 0
+ 40704 = N 6 0
+ 40736 = N 3 0
+ 40736 = N 6 0
+ 40768 = N 2 0
+ 40768 = N 6 0
+ 40800 = N 1 0
+ 40800 = N 6 0
+ 40864 = N 0 0
+ 40864 = N 6 0
+ 40896 = N 1 0
+ 40896 = N 6 0
+ 40960 = N 2 0
+ 40960 = N 6 0
+ 41160 = N 0 0
+ 41160 = N 6 0
+ 41184 = N 1 0
+ 41184 = N 6 0
+ 41208 = N 2 0
+ 41208 = N 6 0
+ 41232 = N 3 0
+ 41232 = N 6 0
+ 41256 = N 4 0
+ 41256 = N 6 0
+ 41280 = N 3 0
+ 41280 = N 6 0
+ 41344 = N 4 0
+ 41344 = N 6 0
+ 41440 = N 2 0
+ 41440 = N 6 0
+ 41520 = N 3 93
+ 41520 = N 6 0
+ 41632 = N 3 104
+ 41632 = N 6 0
+ 41760 = N 2 0
+ 41760 = N 6 0
+ 41824 = N 1 0
+ 41824 = N 6 0
+ 41856 = N 2 0
+ 41856 = N 6 0
+ 41920 = N 0 200
+ 41920 = N 6 0
+ 42144 = N 1 0
+ 42144 = N 6 0
+ 42240 = S 2 2304
+ 42504 = N 0 0
+ 42504 = N 6 0
+ 42528 = N 1 0
+ 42528 = N 6 0
+ 42552 = N 2 0
+ 42552 = N 6 0
+ 42576 = N 3 0
+ 42576 = N 6 0
+ 42600 = N 4 0
+ 42600 = N 6 0
+ 42624 = N 3 0
+ 42624 = N 6 0
+ 42672 = N 4 0
+ 42672 = N 6 0
+ 42752 = N 1 0
+ 42752 = N 6 0
+ 42784 = N 2 72
+ 42784 = N 6 0
+ 42880 = N 3 72
+ 42880 = N 6 0
+ 42976 = N 2 296
+ 42976 = N 6 0
+ 43296 = N 3 0
+ 43296 = N 6 0
+ 43328 = N 2 0
+ 43328 = N 6 0
+ 43360 = N 4 0
+ 43360 = N 6 0
+ 43392 = N 2 0
+ 43392 = N 6 0
+ 43424 = N 3 0
+ 43424 = N 6 0
+ 43456 = N 2 0
+ 43456 = N 6 0
+ 43488 = N 3 0
+ 43488 = N 6 0
+ 43520 = N 2 0
+ 43520 = N 6 0
+ 43552 = N 4 0
+ 43552 = N 6 0
+ 43584 = N 2 0
+ 43584 = N 6 0
+ 43608 = N 3 0
+ 43608 = N 6 0
+ 43632 = N 2 0
+ 43632 = N 6 0
+ 43656 = N 3 0
+ 43656 = N 6 0
+ 43680 = N 2 0
+ 43680 = N 6 0
+ 43712 = N 3 0
+ 43712 = N 6 0
+ 43744 = N 2 0
+ 43744 = N 6 0
+ 43776 = N 3 0
+ 43776 = N 6 0
+ 43808 = N 2 0
+ 43808 = N 6 0
+ 43840 = N 3 0
+ 43840 = N 6 0
+ 43872 = N 2 0
+ 43872 = N 6 0
+ 43904 = N 3 0
+ 43904 = N 6 0
+ 43936 = N 2 0
+ 43936 = N 6 0
+ 43968 = N 3 0
+ 43968 = N 6 0
+ 44000 = N 2 0
+ 44000 = N 6 0
+ 44032 = N 3 0
+ 44032 = N 6 0
+ 44096 = N 2 128
+ 44096 = N 6 0
+ 44224 = E soloend
+ 44640 = N 1 0
+ 44640 = N 6 0
+ 44704 = N 2 72
+ 44704 = N 6 0
+ 44800 = N 1 0
+ 44800 = N 6 0
+ 44832 = N 3 0
+ 44832 = N 6 0
+ 44928 = N 2 744
+ 44928 = N 6 0
+ 45696 = N 3 0
+ 45696 = N 6 0
+ 45734 = N 2 0
+ 45734 = N 6 0
+ 45773 = N 3 0
+ 45773 = N 6 0
+ 45816 = N 2 0
+ 45816 = N 6 0
+ 45840 = N 3 0
+ 45840 = N 6 0
+ 45864 = N 2 0
+ 45864 = N 6 0
+ 45888 = N 3 0
+ 45888 = N 6 0
+ 45912 = N 2 0
+ 45912 = N 6 0
+ 45936 = N 3 0
+ 45936 = N 6 0
+ 45960 = N 2 0
+ 45960 = N 6 0
+ 45984 = N 3 0
+ 45984 = N 6 0
+ 46080 = N 0 0
+ 46080 = N 6 0
+ 46144 = N 1 0
+ 46144 = N 6 0
+ 46176 = N 1 0
+ 46176 = N 6 0
+ 46240 = N 1 0
+ 46240 = N 6 0
+ 46336 = N 0 0
+ 46336 = N 6 0
+ 46368 = N 2 136
+ 46368 = N 6 0
+ 46528 = N 0 0
+ 46528 = N 6 0
+ 46560 = N 1 0
+ 46560 = N 6 0
+ 46624 = N 2 72
+ 46624 = N 6 0
+ 46720 = N 0 0
+ 46720 = N 6 0
+ 46752 = N 1 0
+ 46752 = N 6 0
+ 46816 = N 2 0
+ 46816 = N 6 0
+ 46848 = N 0 0
+ 46848 = N 6 0
+ 46912 = N 1 0
+ 46912 = N 6 0
+ 46944 = N 1 0
+ 46944 = N 6 0
+ 47008 = N 1 0
+ 47008 = N 6 0
+ 47104 = N 0 0
+ 47104 = N 6 0
+ 47136 = N 2 328
+ 47136 = N 6 0
+ 47488 = N 2 104
+ 47488 = N 6 0
+ 47616 = N 0 0
+ 47616 = N 6 0
+ 47680 = N 1 0
+ 47680 = N 6 0
+ 47712 = N 1 0
+ 47712 = N 6 0
+ 47776 = N 1 0
+ 47776 = N 6 0
+ 47872 = N 0 0
+ 47872 = N 6 0
+ 47968 = N 0 0
+ 47968 = N 6 0
+ 48000 = N 1 0
+ 48000 = N 6 0
+ 48064 = N 0 0
+ 48064 = N 6 0
+ 48096 = N 1 0
+ 48096 = N 6 0
+ 48192 = N 1 0
+ 48192 = N 6 0
+ 48256 = N 0 0
+ 48256 = N 6 0
+ 48288 = N 1 0
+ 48288 = N 6 0
+ 48352 = N 1 0
+ 48352 = N 6 0
+ 48384 = N 2 0
+ 48384 = N 6 0
+ 48480 = N 3 0
+ 48480 = N 6 0
+ 48576 = N 2 0
+ 48576 = N 6 0
+ 48672 = N 3 104
+ 48672 = N 6 0
+ 48800 = N 4 0
+ 48800 = N 6 0
+ 48832 = N 3 0
+ 48832 = N 6 0
+ 48864 = N 4 0
+ 48864 = N 6 0
+ 48896 = N 3 0
+ 48896 = N 6 0
+ 48928 = N 4 0
+ 48928 = N 6 0
+ 48960 = N 3 0
+ 48960 = N 6 0
+ 48984 = N 4 0
+ 48984 = N 6 0
+ 49008 = N 3 0
+ 49008 = N 6 0
+ 49032 = N 4 0
+ 49032 = N 6 0
+ 49056 = N 3 0
+ 49056 = N 6 0
+ 49080 = N 4 0
+ 49080 = N 6 0
+ 49104 = N 3 0
+ 49104 = N 6 0
+ 49152 = N 4 0
+ 49152 = N 6 0
+ 49176 = N 2 0
+ 49176 = N 6 0
+ 49200 = N 3 312
+ 49200 = N 6 0
+ 49536 = N 2 360
+ 49536 = N 6 0
+ 49920 = N 1 360
+ 49920 = N 6 0
+ 50304 = N 0 384
+ 50304 = N 6 0
+ 51168 = N 1 0
+ 51168 = N 6 0
+ 51216 = N 0 0
+ 51216 = N 6 0
+ 51264 = N 1 0
+ 51264 = N 6 0
+ 51312 = N 0 0
+ 51312 = N 6 0
+ 51360 = N 1 1152
+ 51360 = N 6 0
+ 52704 = N 1 0
+ 52704 = N 6 0
+ 52752 = N 0 0
+ 52752 = N 6 0
+ 52800 = N 1 0
+ 52800 = N 6 0
+ 52848 = N 0 0
+ 52848 = N 6 0
+ 52896 = N 1 0
+ 52896 = N 6 0
+ 52992 = N 2 0
+ 52992 = N 6 0
+ 52992 = S 2 1536
+ 53040 = N 3 192
+ 53040 = N 6 0
+ 53328 = N 0 0
+ 53328 = N 6 0
+ 53376 = N 4 0
+ 53376 = N 6 0
+ 53424 = N 3 0
+ 53424 = N 6 0
+ 53472 = N 2 0
+ 53472 = N 6 0
+ 53520 = N 1 0
+ 53520 = N 6 0
+ 53568 = N 2 0
+ 53568 = N 6 0
+ 53616 = N 3 120
+ 53616 = N 6 0
+ 53760 = N 2 0
+ 53760 = N 6 0
+ 53808 = N 2 144
+ 53808 = N 6 0
+ 54048 = N 4 384
+ 54048 = N 6 0
+ 54528 = N 2 0
+ 54528 = N 6 0
+ 54576 = N 3 192
+ 54576 = N 6 0
+ 54864 = N 0 0
+ 54864 = N 6 0
+ 54912 = N 4 0
+ 54912 = N 6 0
+ 54960 = N 3 0
+ 54960 = N 6 0
+ 55008 = N 2 0
+ 55008 = N 6 0
+ 55056 = N 1 0
+ 55056 = N 6 0
+ 55104 = N 2 0
+ 55104 = N 6 0
+ 55152 = N 3 120
+ 55152 = N 6 0
+ 55296 = N 2 0
+ 55296 = N 6 0
+ 55344 = N 2 120
+ 55344 = N 6 0
+ 55488 = N 4 0
+ 55488 = N 6 0
+ 55584 = N 3 432
+ 55584 = N 6 0
+ 56064 = N 2 0
+ 56064 = N 6 0
+ 56128 = N 3 0
+ 56128 = N 6 0
+ 56208 = N 4 124
+ 56208 = N 6 0
+ 56352 = N 2 0
+ 56352 = N 6 0
+ 56416 = N 3 0
+ 56416 = N 6 0
+ 56496 = N 4 124
+ 56496 = N 6 0
+ 56640 = N 2 0
+ 56640 = N 6 0
+ 56704 = N 3 0
+ 56704 = N 6 0
+ 56784 = N 4 124
+ 56784 = N 6 0
+ 56928 = N 2 0
+ 56928 = N 6 0
+ 56976 = N 3 0
+ 56976 = N 6 0
+ 57072 = N 4 124
+ 57072 = N 6 0
+ 57216 = N 3 0
+ 57216 = N 6 0
+ 57264 = N 3 0
+ 57264 = N 6 0
+ 57312 = N 2 0
+ 57312 = N 6 0
+ 57360 = N 1 0
+ 57360 = N 6 0
+ 57408 = N 1 0
+ 57408 = N 6 0
+ 57440 = N 0 0
+ 57440 = N 6 0
+ 57472 = N 1 608
+ 57472 = N 6 0
+ 58368 = N 1 0
+ 58368 = N 6 0
+ 58416 = N 2 0
+ 58416 = N 6 0
+ 58464 = N 3 0
+ 58464 = N 6 0
+ 58512 = N 4 72
+ 58512 = N 6 0
+ 58608 = N 3 0
+ 58608 = N 6 0
+ 58656 = N 4 0
+ 58656 = N 6 0
+ 58704 = N 3 0
+ 58704 = N 6 0
+ 58752 = N 2 0
+ 58752 = N 6 0
+ 58848 = N 1 0
+ 58848 = N 6 0
+ 58896 = N 0 0
+ 58896 = N 6 0
+ 58992 = N 1 0
+ 58992 = N 6 0
+ 59040 = N 2 192
+ 59040 = N 6 0
+ 59328 = N 2 0
+ 59328 = N 6 0
+ 59376 = N 3 0
+ 59376 = N 6 0
+ 59424 = N 2 0
+ 59424 = N 6 0
+ 59472 = N 3 0
+ 59472 = N 6 0
+ 59520 = N 4 0
+ 59520 = N 6 0
+ 59616 = N 3 0
+ 59616 = N 6 0
+ 59712 = N 2 0
+ 59712 = N 6 0
+ 59808 = N 4 0
+ 59808 = N 6 0
+ 59856 = N 3 120
+ 59856 = N 6 0
+ 60000 = N 2 0
+ 60000 = N 6 0
+ 60048 = N 1 0
+ 60048 = N 6 0
+ 60144 = N 0 0
+ 60144 = N 6 0
+ 60192 = N 0 264
+ 60192 = N 6 0
+ 60480 = N 0 0
+ 60480 = N 6 0
+ 60528 = N 1 0
+ 60528 = N 6 0
+ 60576 = N 2 0
+ 60576 = N 6 0
+ 60624 = N 3 0
+ 60624 = N 6 0
+ 60672 = N 2 0
+ 60672 = N 6 0
+ 60736 = N 3 0
+ 60736 = N 6 0
+ 60816 = N 4 124
+ 60816 = N 6 0
+ 60960 = N 2 0
+ 60960 = N 6 0
+ 61024 = N 3 0
+ 61024 = N 6 0
+ 61120 = N 4 104
+ 61120 = N 6 0
+ 61248 = N 2 0
+ 61248 = N 6 0
+ 61312 = N 3 0
+ 61312 = N 6 0
+ 61392 = N 4 124
+ 61392 = N 6 0
+ 61536 = N 2 0
+ 61536 = N 6 0
+ 61600 = N 3 0
+ 61600 = N 6 0
+ 61696 = N 4 104
+ 61696 = N 6 0
+ 61824 = N 3 0
+ 61824 = N 6 0
+ 61872 = N 3 0
+ 61872 = N 6 0
+ 61920 = N 2 0
+ 61920 = N 6 0
+ 61968 = N 1 0
+ 61968 = N 6 0
+ 62016 = N 1 0
+ 62016 = N 6 0
+ 62064 = N 0 0
+ 62064 = N 6 0
+ 62112 = N 1 768
+ 62112 = N 6 0
+ 62976 = N 1 0
+ 62976 = N 6 0
+ 63024 = N 2 0
+ 63024 = N 6 0
+ 63072 = N 3 0
+ 63072 = N 6 0
+ 63120 = N 4 72
+ 63120 = N 6 0
+ 63216 = N 3 0
+ 63216 = N 6 0
+ 63264 = N 4 0
+ 63264 = N 6 0
+ 63312 = N 3 0
+ 63312 = N 6 0
+ 63360 = N 2 0
+ 63360 = N 6 0
+ 63456 = N 1 0
+ 63456 = N 6 0
+ 63504 = N 0 0
+ 63504 = N 6 0
+ 63600 = N 1 0
+ 63600 = N 6 0
+ 63648 = N 2 192
+ 63648 = N 6 0
+ 63936 = N 2 0
+ 63936 = N 6 0
+ 63984 = N 3 0
+ 63984 = N 6 0
+ 64032 = N 2 0
+ 64032 = N 6 0
+ 64080 = N 3 0
+ 64080 = N 6 0
+ 64128 = N 4 0
+ 64128 = N 6 0
+ 64224 = N 3 0
+ 64224 = N 6 0
+ 64320 = N 2 0
+ 64320 = N 6 0
+ 64416 = N 4 0
+ 64416 = N 6 0
+ 64464 = N 3 120
+ 64464 = N 6 0
+ 64608 = N 2 0
+ 64608 = N 6 0
+ 64656 = N 1 0
+ 64656 = N 6 0
+ 64752 = N 0 0
+ 64752 = N 6 0
+ 64800 = N 3 0
+ 64800 = N 6 0
+ 64832 = N 4 0
+ 64832 = N 6 0
+ 64864 = N 3 200
+ 64864 = N 6 0
+ 65088 = N 0 0
+ 65088 = N 6 0
+ 65088 = S 2 1344
+ 65136 = N 1 0
+ 65136 = N 6 0
+ 65184 = N 2 0
+ 65184 = N 6 0
+ 65232 = N 3 0
+ 65232 = N 6 0
+ 65280 = N 2 0
+ 65280 = N 6 0
+ 65328 = N 3 312
+ 65328 = N 6 0
+ 65664 = N 4 0
+ 65664 = N 6 0
+ 65712 = N 3 0
+ 65712 = N 6 0
+ 65760 = N 2 0
+ 65760 = N 6 0
+ 65808 = N 1 0
+ 65808 = N 6 0
+ 65856 = N 2 0
+ 65856 = N 6 0
+ 65904 = N 3 120
+ 65904 = N 6 0
+ 66048 = N 2 288
+ 66048 = N 6 0
+ 66504 = N 3 0
+ 66504 = N 6 0
+ 66528 = N 4 168
+ 66528 = N 6 0
+ 66720 = N 3 0
+ 66720 = N 6 0
+ 66816 = N 2 0
+ 66816 = N 6 0
+ 66864 = N 3 312
+ 66864 = N 6 0
+ 67200 = N 4 0
+ 67200 = N 6 0
+ 67248 = N 3 0
+ 67248 = N 6 0
+ 67296 = N 2 0
+ 67296 = N 6 0
+ 67344 = N 1 0
+ 67344 = N 6 0
+ 67392 = N 2 0
+ 67392 = N 6 0
+ 67440 = N 3 120
+ 67440 = N 6 0
+ 67584 = N 1 0
+ 67584 = N 6 0
+ 67608 = N 2 168
+ 67608 = N 6 0
+ 68040 = N 3 0
+ 68040 = N 6 0
+ 68064 = N 4 200
+ 68064 = N 6 0
+ 68288 = N 3 0
+ 68288 = N 6 0
+ 68352 = N 2 0
+ 68352 = N 6 0
+ 68384 = N 3 0
+ 68384 = N 6 0
+ 68416 = N 2 0
+ 68416 = N 6 0
+ 68448 = N 1 226
+ 68448 = N 6 0
+ 68698 = N 2 0
+ 68698 = N 6 0
+ 68736 = N 1 0
+ 68736 = N 6 0
+ 68774 = N 2 0
+ 68774 = N 6 0
+ 68813 = N 1 0
+ 68813 = N 6 0
+ 68851 = N 2 0
+ 68851 = N 6 0
+ 68890 = N 1 0
+ 68890 = N 6 0
+ 68928 = N 2 0
+ 68928 = N 6 0
+ 68966 = N 1 0
+ 68966 = N 6 0
+ 69005 = N 2 0
+ 69005 = N 6 0
+ 69043 = N 1 0
+ 69043 = N 6 0
+ 69082 = N 2 0
+ 69082 = N 6 0
+ 69120 = N 1 0
+ 69120 = N 6 0
+ 69158 = N 2 0
+ 69158 = N 6 0
+ 69197 = N 1 77
+ 69197 = N 6 0
+ 69792 = N 3 0
+ 69792 = N 6 0
+ 69824 = N 4 0
+ 69824 = N 6 0
+ 69856 = N 3 0
+ 69856 = N 6 0
+ 69888 = N 2 96
+ 69888 = N 6 0
+ 70008 = N 1 0
+ 70008 = N 6 0
+ 70080 = N 0 72
+ 70080 = N 6 0
+ 70176 = N 3 0
+ 70176 = N 6 0
+ 70208 = N 2 0
+ 70208 = N 6 0
+ 70240 = N 1 224
+ 70240 = N 6 0
+ 70536 = N 0 0
+ 70536 = N 6 0
+ 70560 = N 1 0
+ 70560 = N 6 0
+ 70584 = N 2 0
+ 70584 = N 6 0
+ 70608 = N 1 0
+ 70608 = N 6 0
+ 70632 = N 2 0
+ 70632 = N 6 0
+ 70656 = N 3 0
+ 70656 = N 6 0
+ 70680 = N 0 0
+ 70680 = N 6 0
+ 70704 = N 1 0
+ 70704 = N 6 0
+ 70728 = N 2 0
+ 70728 = N 6 0
+ 70752 = N 1 0
+ 70752 = N 6 0
+ 70776 = N 2 0
+ 70776 = N 6 0
+ 70800 = N 3 0
+ 70800 = N 6 0
+ 70848 = N 4 96
+ 70848 = N 6 0
+ 71424 = N 1 0
+ 71424 = N 2 0
+ 71424 = N 6 0
+ 71472 = N 1 432
+ 71472 = N 3 432
+ 71472 = N 6 0
+ 71928 = N 1 0
+ 71928 = N 6 0
+ 71952 = N 2 0
+ 71952 = N 6 0
+ 71976 = N 3 0
+ 71976 = N 6 0
+ 72000 = N 3 0
+ 72000 = N 4 0
+ 72000 = N 6 0
+ 72060 = N 3 0
+ 72060 = N 4 0
+ 72060 = N 6 0
+ 72132 = N 3 0
+ 72132 = N 4 0
+ 72132 = N 6 0
+ 72192 = N 2 0
+ 72192 = N 6 0
+ 72208 = N 3 0
+ 72208 = N 6 0
+ 72224 = N 1 0
+ 72224 = N 6 0
+ 72240 = N 1 0
+ 72240 = N 3 0
+ 72240 = N 6 0
+ 72252 = N 2 0
+ 72252 = N 3 0
+ 72252 = N 6 0
+ 72288 = N 2 0
+ 72288 = N 3 0
+ 72288 = N 6 0
+ 72336 = N 1 0
+ 72336 = N 3 0
+ 72336 = N 6 0
+ 72348 = N 2 0
+ 72348 = N 3 0
+ 72348 = N 6 0
+ 72384 = N 1 0
+ 72384 = N 2 0
+ 72384 = N 6 0
+ 72408 = N 0 0
+ 72408 = N 6 0
+ 72432 = N 1 0
+ 72432 = N 6 0
+ 72456 = N 2 0
+ 72456 = N 6 0
+ 72480 = N 1 0
+ 72480 = N 6 0
+ 72496 = N 2 0
+ 72496 = N 6 0
+ 72528 = N 3 0
+ 72528 = N 6 0
+ 72560 = N 3 0
+ 72560 = N 6 0
+ 72576 = N 4 0
+ 72576 = N 6 0
+ 72592 = N 3 0
+ 72592 = N 6 0
+ 72608 = N 2 0
+ 72608 = N 6 0
+ 72624 = N 3 0
+ 72624 = N 6 0
+ 72640 = N 2 0
+ 72640 = N 6 0
+ 72656 = N 1 0
+ 72656 = N 6 0
+ 72672 = N 3 0
+ 72672 = N 6 0
+ 72688 = N 4 0
+ 72688 = N 6 0
+ 72704 = N 3 0
+ 72704 = N 6 0
+ 72720 = N 2 0
+ 72720 = N 6 0
+ 72736 = N 1 0
+ 72736 = N 6 0
+ 72752 = N 0 0
+ 72752 = N 6 0
+ 72768 = N 1 0
+ 72768 = N 6 0
+ 72784 = N 2 0
+ 72784 = N 6 0
+ 72816 = N 2 0
+ 72816 = N 3 0
+ 72816 = N 6 0
+ 72864 = N 2 0
+ 72864 = N 4 0
+ 72864 = N 6 0
+ 72912 = N 2 0
+ 72912 = N 4 0
+ 72912 = N 6 0
+ 72928 = N 3 0
+ 72928 = N 4 0
+ 72928 = N 6 0
+ 72976 = N 2 0
+ 72976 = N 4 0
+ 72976 = N 6 0
+ 73032 = N 1 0
+ 73032 = N 3 0
+ 73032 = N 6 0
+ 73056 = N 2 0
+ 73056 = N 3 0
+ 73056 = N 6 0
+ 73104 = N 2 53
+ 73104 = N 4 53
+ 73104 = N 6 0
+ 73168 = N 2 0
+ 73168 = N 4 0
+ 73168 = N 6 0
+ 73184 = N 3 37
+ 73184 = N 4 37
+ 73184 = N 6 0
+ 73232 = N 2 53
+ 73232 = N 4 53
+ 73232 = N 6 0
+ 73296 = N 1 0
+ 73296 = N 3 0
+ 73296 = N 6 0
+ 73312 = N 2 0
+ 73312 = N 3 0
+ 73312 = N 6 0
+ 73368 = N 2 91
+ 73368 = N 4 91
+ 73368 = N 6 0
+ 73472 = N 1 0
+ 73472 = N 3 0
+ 73472 = N 6 0
+ 73488 = N 2 70
+ 73488 = N 3 70
+ 73488 = N 6 0
+ 73568 = N 2 70
+ 73568 = N 4 70
+ 73568 = N 6 0
+ 73648 = N 1 0
+ 73648 = N 3 0
+ 73648 = N 6 0
+ 73664 = N 2 640
+ 73664 = N 3 640
+ 73664 = N 6 0
+}
+[HardSingle]
+{
+ 928 = N 2 0
+ 928 = N 6 0
+ 928 = E solo
+ 960 = N 4 0
+ 960 = N 6 0
+ 1024 = N 2 0
+ 1024 = N 6 0
+ 1056 = N 2 0
+ 1056 = N 3 0
+ 1056 = N 6 0
+ 1152 = N 1 0
+ 1152 = N 2 0
+ 1152 = N 6 0
+ 1216 = N 0 0
+ 1216 = N 6 0
+ 1248 = N 1 72
+ 1248 = N 6 0
+ 1344 = N 4 0
+ 1344 = N 6 0
+ 1392 = N 3 0
+ 1392 = N 6 0
+ 1440 = N 2 0
+ 1440 = N 6 0
+ 1472 = N 1 0
+ 1472 = N 6 0
+ 1504 = N 2 0
+ 1504 = N 6 0
+ 1536 = N 0 168
+ 1536 = N 6 0
+ 1728 = N 0 0
+ 1728 = N 3 0
+ 1728 = N 6 0
+ 1824 = N 1 456
+ 1824 = N 2 456
+ 1824 = N 6 0
+ 2368 = N 1 0
+ 2368 = N 6 0
+ 2432 = N 2 0
+ 2432 = N 6 0
+ 2464 = N 3 0
+ 2464 = N 6 0
+ 2496 = N 4 0
+ 2496 = N 6 0
+ 2592 = N 2 0
+ 2592 = N 3 0
+ 2592 = N 6 0
+ 2656 = N 1 0
+ 2656 = N 6 0
+ 2688 = N 2 0
+ 2688 = N 6 0
+ 2720 = N 3 0
+ 2720 = N 6 0
+ 2752 = N 2 0
+ 2752 = N 6 0
+ 2784 = N 3 0
+ 2784 = N 6 0
+ 2816 = N 4 0
+ 2816 = N 6 0
+ 2848 = N 3 0
+ 2848 = N 6 0
+ 2880 = N 2 0
+ 2880 = N 6 0
+ 2912 = N 4 0
+ 2912 = N 6 0
+ 2944 = N 3 0
+ 2944 = N 6 0
+ 2976 = N 2 0
+ 2976 = N 6 0
+ 3008 = N 1 0
+ 3008 = N 6 0
+ 3040 = N 0 205
+ 3040 = N 6 0
+ 3264 = N 0 0
+ 3264 = N 3 0
+ 3264 = N 6 0
+ 3360 = N 1 456
+ 3360 = N 2 456
+ 3360 = N 6 0
+ 3840 = S 2 1152
+ 3888 = N 4 77
+ 3888 = N 6 0
+ 3984 = N 2 0
+ 3984 = N 6 0
+ 4032 = N 3 120
+ 4032 = N 6 0
+ 4176 = N 1 0
+ 4176 = N 6 0
+ 4224 = N 2 120
+ 4224 = N 6 0
+ 4368 = N 0 0
+ 4368 = N 6 0
+ 4416 = N 1 0
+ 4416 = N 6 0
+ 4464 = N 0 0
+ 4464 = N 6 0
+ 4512 = N 2 0
+ 4512 = N 6 0
+ 4560 = N 1 0
+ 4560 = N 6 0
+ 4608 = N 0 168
+ 4608 = N 6 0
+ 4800 = N 0 0
+ 4800 = N 3 0
+ 4800 = N 6 0
+ 4896 = N 1 400
+ 4896 = N 2 400
+ 4896 = N 6 0
+ 5344 = N 2 0
+ 5344 = N 6 0
+ 5376 = N 2 168
+ 5376 = N 4 168
+ 5376 = N 6 0
+ 5568 = N 3 0
+ 5568 = N 6 0
+ 5632 = N 2 0
+ 5632 = N 6 0
+ 5728 = N 2 104
+ 5728 = N 4 104
+ 5728 = N 6 0
+ 5856 = N 1 0
+ 5856 = N 3 0
+ 5856 = N 6 0
+ 5920 = N 1 200
+ 5920 = N 2 200
+ 5920 = N 6 0
+ 6144 = N 0 192
+ 6144 = N 3 192
+ 6144 = N 6 0
+ 6432 = N 1 480
+ 6432 = N 2 480
+ 6432 = N 6 0
+ 7072 = N 2 0
+ 7072 = N 6 0
+ 7104 = N 4 0
+ 7104 = N 6 0
+ 7168 = N 2 0
+ 7168 = N 6 0
+ 7248 = N 3 0
+ 7248 = N 6 0
+ 7272 = N 2 0
+ 7272 = N 6 0
+ 7296 = N 1 0
+ 7296 = N 6 0
+ 7392 = N 0 0
+ 7392 = N 6 0
+ 7536 = N 0 0
+ 7536 = N 6 0
+ 7584 = N 1 0
+ 7584 = N 6 0
+ 7632 = N 2 126
+ 7632 = N 6 0
+ 7776 = N 0 0
+ 7776 = N 6 0
+ 7872 = N 3 0
+ 7872 = N 6 0
+ 7968 = N 1 317
+ 7968 = N 2 317
+ 7968 = N 6 0
+ 8304 = N 0 96
+ 8304 = N 6 0
+ 8448 = N 3 136
+ 8448 = N 4 136
+ 8448 = N 6 0
+ 8608 = N 2 0
+ 8608 = N 6 0
+ 8640 = N 3 0
+ 8640 = N 6 0
+ 8688 = N 1 0
+ 8688 = N 6 0
+ 8784 = N 2 88
+ 8784 = N 3 88
+ 8784 = N 6 0
+ 8896 = N 2 0
+ 8896 = N 6 0
+ 8928 = N 2 0
+ 8928 = N 4 0
+ 8928 = N 6 0
+ 9024 = N 2 0
+ 9024 = N 3 0
+ 9024 = N 6 0
+ 9120 = N 1 0
+ 9120 = N 6 0
+ 9216 = N 0 168
+ 9216 = N 1 168
+ 9216 = N 6 0
+ 9408 = N 1 0
+ 9408 = N 2 0
+ 9408 = N 6 0
+ 9504 = N 1 456
+ 9504 = N 2 456
+ 9504 = N 6 0
+ 9888 = E soloend
+ 9984 = N 1 0
+ 9984 = N 2 0
+ 9984 = N 6 0
+ 10032 = N 3 312
+ 10032 = N 6 0
+ 10368 = N 4 0
+ 10368 = N 6 0
+ 10416 = N 3 0
+ 10416 = N 6 0
+ 10464 = N 2 0
+ 10464 = N 6 0
+ 10512 = N 1 0
+ 10512 = N 6 0
+ 10560 = N 2 0
+ 10560 = N 6 0
+ 10608 = N 1 120
+ 10608 = N 3 120
+ 10608 = N 6 0
+ 10752 = N 0 0
+ 10752 = N 2 0
+ 10752 = N 6 0
+ 10800 = N 0 120
+ 10800 = N 2 120
+ 10800 = N 6 0
+ 10944 = N 0 0
+ 10944 = N 6 0
+ 11040 = N 2 168
+ 11040 = N 4 168
+ 11040 = N 6 0
+ 11232 = N 0 0
+ 11232 = N 6 0
+ 11280 = N 1 0
+ 11280 = N 6 0
+ 11328 = N 2 0
+ 11328 = N 6 0
+ 11376 = N 1 0
+ 11376 = N 6 0
+ 11424 = N 2 0
+ 11424 = N 6 0
+ 11520 = N 1 0
+ 11520 = N 2 0
+ 11520 = N 6 0
+ 11520 = S 2 1536
+ 11568 = N 3 264
+ 11568 = N 6 0
+ 11904 = N 4 0
+ 11904 = N 6 0
+ 11952 = N 3 0
+ 11952 = N 6 0
+ 12000 = N 2 0
+ 12000 = N 6 0
+ 12048 = N 1 0
+ 12048 = N 6 0
+ 12096 = N 2 0
+ 12096 = N 6 0
+ 12144 = N 1 120
+ 12144 = N 3 120
+ 12144 = N 6 0
+ 12288 = N 0 0
+ 12288 = N 2 0
+ 12288 = N 6 0
+ 12336 = N 0 72
+ 12336 = N 2 72
+ 12336 = N 6 0
+ 12480 = N 4 0
+ 12480 = N 6 0
+ 12576 = N 1 480
+ 12576 = N 3 480
+ 12576 = N 6 0
+ 13152 = N 2 0
+ 13152 = N 6 0
+ 13216 = N 3 0
+ 13216 = N 6 0
+ 13312 = N 3 0
+ 13312 = N 6 0
+ 13392 = N 2 0
+ 13392 = N 6 0
+ 13440 = N 4 0
+ 13440 = N 6 0
+ 13536 = N 3 0
+ 13536 = N 6 0
+ 13632 = N 2 0
+ 13632 = N 6 0
+ 13728 = N 2 0
+ 13728 = N 6 0
+ 13824 = N 2 0
+ 13824 = N 6 0
+ 13920 = N 1 0
+ 13920 = N 6 0
+ 13984 = N 0 0
+ 13984 = N 6 0
+ 14016 = N 1 0
+ 14016 = N 6 0
+ 14112 = N 0 384
+ 14112 = N 6 0
+ 14688 = N 2 0
+ 14688 = N 6 0
+ 14752 = N 3 72
+ 14752 = N 6 0
+ 14848 = N 2 0
+ 14848 = N 6 0
+ 14880 = N 4 0
+ 14880 = N 6 0
+ 14976 = N 3 168
+ 14976 = N 6 0
+ 15168 = N 2 0
+ 15168 = N 6 0
+ 15232 = N 3 0
+ 15232 = N 6 0
+ 15264 = N 2 0
+ 15264 = N 6 0
+ 15360 = N 2 136
+ 15360 = N 6 0
+ 15520 = N 1 136
+ 15520 = N 6 0
+ 15680 = N 0 256
+ 15680 = N 6 0
+ 16128 = N 2 0
+ 16128 = N 6 0
+ 16192 = N 3 0
+ 16192 = N 6 0
+ 16224 = N 3 0
+ 16224 = N 6 0
+ 16288 = N 3 0
+ 16288 = N 6 0
+ 16384 = N 2 0
+ 16384 = N 6 0
+ 16416 = N 4 136
+ 16416 = N 6 0
+ 16576 = N 3 104
+ 16576 = N 6 0
+ 16704 = N 2 0
+ 16704 = N 6 0
+ 16768 = N 0 0
+ 16768 = N 6 0
+ 16800 = N 1 0
+ 16800 = N 6 0
+ 16896 = N 2 0
+ 16896 = N 6 0
+ 16960 = N 3 0
+ 16960 = N 6 0
+ 16992 = N 3 0
+ 16992 = N 6 0
+ 17088 = N 3 0
+ 17088 = N 6 0
+ 17152 = N 4 0
+ 17152 = N 6 0
+ 17184 = N 3 224
+ 17184 = N 6 0
+ 17632 = N 0 0
+ 17632 = N 6 0
+ 17664 = N 1 0
+ 17664 = N 6 0
+ 17728 = N 2 0
+ 17728 = N 6 0
+ 17760 = N 2 0
+ 17760 = N 6 0
+ 17824 = N 2 0
+ 17824 = N 6 0
+ 17920 = N 1 0
+ 17920 = N 6 0
+ 18016 = N 1 0
+ 18016 = N 6 0
+ 18048 = N 2 0
+ 18048 = N 6 0
+ 18112 = N 1 0
+ 18112 = N 6 0
+ 18144 = N 2 0
+ 18144 = N 6 0
+ 18240 = N 2 0
+ 18240 = N 6 0
+ 18304 = N 1 0
+ 18304 = N 6 0
+ 18336 = N 2 0
+ 18336 = N 6 0
+ 18400 = N 2 0
+ 18400 = N 6 0
+ 18432 = N 3 0
+ 18432 = N 6 0
+ 18528 = N 4 0
+ 18528 = N 6 0
+ 18624 = N 3 0
+ 18624 = N 6 0
+ 18720 = N 4 0
+ 18720 = N 6 0
+ 18784 = N 2 104
+ 18784 = N 6 0
+ 18912 = N 1 0
+ 18912 = N 6 0
+ 18976 = N 0 0
+ 18976 = N 6 0
+ 19008 = N 1 0
+ 19008 = N 6 0
+ 19072 = N 0 0
+ 19072 = N 6 0
+ 19104 = N 1 456
+ 19104 = N 6 0
+ 19584 = N 4 0
+ 19584 = N 6 0
+ 19632 = N 3 0
+ 19632 = N 6 0
+ 19680 = N 2 0
+ 19680 = N 6 0
+ 19728 = N 1 0
+ 19728 = N 6 0
+ 19776 = N 2 0
+ 19776 = N 6 0
+ 19824 = N 1 120
+ 19824 = N 3 120
+ 19824 = N 6 0
+ 19968 = N 0 0
+ 19968 = N 2 0
+ 19968 = N 6 0
+ 20016 = N 0 144
+ 20016 = N 2 144
+ 20016 = N 6 0
+ 20256 = N 2 168
+ 20256 = N 4 168
+ 20256 = N 6 0
+ 20448 = N 0 0
+ 20448 = N 6 0
+ 20512 = N 0 0
+ 20512 = N 6 0
+ 20544 = N 1 0
+ 20544 = N 6 0
+ 20608 = N 0 0
+ 20608 = N 6 0
+ 20640 = N 1 840
+ 20640 = N 6 0
+ 21504 = N 0 0
+ 21504 = N 2 0
+ 21504 = N 6 0
+ 21552 = N 0 96
+ 21552 = N 2 96
+ 21552 = N 6 0
+ 21696 = N 2 0
+ 21696 = N 4 0
+ 21696 = N 6 0
+ 21792 = N 1 384
+ 21792 = N 3 384
+ 21792 = N 6 0
+ 22272 = S 2 1536
+ 22368 = N 2 0
+ 22368 = N 6 0
+ 22432 = N 3 72
+ 22432 = N 6 0
+ 22528 = N 3 72
+ 22528 = N 6 0
+ 22624 = N 2 0
+ 22624 = N 6 0
+ 22656 = N 4 0
+ 22656 = N 6 0
+ 22752 = N 3 0
+ 22752 = N 6 0
+ 22848 = N 2 0
+ 22848 = N 6 0
+ 22896 = N 0 0
+ 22896 = N 6 0
+ 22944 = N 1 0
+ 22944 = N 6 0
+ 22992 = N 0 0
+ 22992 = N 6 0
+ 23040 = N 3 0
+ 23040 = N 6 0
+ 23136 = N 2 0
+ 23136 = N 6 0
+ 23184 = N 1 0
+ 23184 = N 6 0
+ 23232 = N 2 0
+ 23232 = N 6 0
+ 23280 = N 0 0
+ 23280 = N 6 0
+ 23328 = N 1 480
+ 23328 = N 6 0
+ 23904 = N 2 0
+ 23904 = N 6 0
+ 23968 = N 3 72
+ 23968 = N 6 0
+ 24064 = N 2 0
+ 24064 = N 6 0
+ 24096 = N 4 0
+ 24096 = N 6 0
+ 24192 = N 3 0
+ 24192 = N 6 0
+ 24288 = N 2 0
+ 24288 = N 6 0
+ 24336 = N 3 0
+ 24336 = N 6 0
+ 24384 = N 2 0
+ 24384 = N 6 0
+ 24432 = N 1 0
+ 24432 = N 6 0
+ 24480 = N 0 0
+ 24480 = N 6 0
+ 24576 = N 3 0
+ 24576 = N 6 0
+ 24672 = N 2 0
+ 24672 = N 6 0
+ 24720 = N 0 0
+ 24720 = N 6 0
+ 24768 = N 1 0
+ 24768 = N 6 0
+ 24864 = N 1 384
+ 24864 = N 6 0
+ 25344 = N 2 0
+ 25344 = N 6 0
+ 25408 = N 3 0
+ 25408 = N 6 0
+ 25440 = N 3 0
+ 25440 = N 6 0
+ 25504 = N 3 0
+ 25504 = N 6 0
+ 25600 = N 2 0
+ 25600 = N 6 0
+ 25632 = N 4 136
+ 25632 = N 6 0
+ 25792 = N 3 104
+ 25792 = N 6 0
+ 25920 = N 2 0
+ 25920 = N 6 0
+ 25984 = N 0 0
+ 25984 = N 6 0
+ 26016 = N 1 0
+ 26016 = N 6 0
+ 26112 = N 2 0
+ 26112 = N 6 0
+ 26176 = N 3 0
+ 26176 = N 6 0
+ 26208 = N 3 0
+ 26208 = N 6 0
+ 26304 = N 3 0
+ 26304 = N 6 0
+ 26368 = N 4 0
+ 26368 = N 6 0
+ 26400 = N 3 288
+ 26400 = N 6 0
+ 26880 = N 1 0
+ 26880 = N 6 0
+ 26944 = N 2 0
+ 26944 = N 6 0
+ 26976 = N 2 0
+ 26976 = N 6 0
+ 27040 = N 2 0
+ 27040 = N 6 0
+ 27136 = N 1 0
+ 27136 = N 6 0
+ 27232 = N 1 0
+ 27232 = N 6 0
+ 27264 = N 2 0
+ 27264 = N 6 0
+ 27328 = N 1 0
+ 27328 = N 6 0
+ 27360 = N 2 0
+ 27360 = N 6 0
+ 27456 = N 2 0
+ 27456 = N 6 0
+ 27520 = N 1 0
+ 27520 = N 6 0
+ 27552 = N 2 0
+ 27552 = N 6 0
+ 27616 = N 2 0
+ 27616 = N 6 0
+ 27648 = N 3 0
+ 27648 = N 6 0
+ 27744 = N 4 0
+ 27744 = N 6 0
+ 27840 = N 3 0
+ 27840 = N 6 0
+ 27936 = N 4 0
+ 27936 = N 6 0
+ 28000 = N 2 104
+ 28000 = N 6 0
+ 28128 = N 1 0
+ 28128 = N 6 0
+ 28192 = N 0 0
+ 28192 = N 6 0
+ 28224 = N 1 0
+ 28224 = N 6 0
+ 28288 = N 0 0
+ 28288 = N 6 0
+ 28320 = N 1 768
+ 28320 = N 6 0
+ 29184 = N 1 0
+ 29184 = N 6 0
+ 29232 = N 1 144
+ 29232 = N 6 0
+ 29472 = N 1 168
+ 29472 = N 6 0
+ 29664 = N 0 0
+ 29664 = N 6 0
+ 29728 = N 0 0
+ 29728 = N 6 0
+ 29760 = N 1 0
+ 29760 = N 6 0
+ 29824 = N 0 0
+ 29824 = N 6 0
+ 29856 = N 1 696
+ 29856 = N 6 0
+ 30576 = N 3 0
+ 30576 = N 6 0
+ 30672 = N 2 0
+ 30672 = N 6 0
+ 30720 = N 4 0
+ 30720 = N 6 0
+ 30816 = N 3 672
+ 30816 = N 6 0
+ 31648 = N 2 0
+ 31648 = N 6 0
+ 31680 = N 2 0
+ 31680 = N 6 0
+ 31744 = N 2 0
+ 31744 = N 6 0
+ 31776 = N 3 168
+ 31776 = N 6 0
+ 31968 = N 2 0
+ 31968 = N 6 0
+ 32064 = N 2 0
+ 32064 = N 6 0
+ 32112 = N 3 120
+ 32112 = N 6 0
+ 32256 = N 2 0
+ 32256 = N 6 0
+ 32352 = N 1 0
+ 32352 = N 6 0
+ 32448 = N 0 0
+ 32448 = N 6 0
+ 32544 = N 1 384
+ 32544 = N 6 0
+ 33024 = N 2 120
+ 33024 = N 6 0
+ 33024 = S 2 768
+ 33168 = N 3 120
+ 33168 = N 6 0
+ 33312 = N 4 456
+ 33312 = N 6 0
+ 33792 = N 2 0
+ 33792 = N 6 0
+ 33840 = N 3 192
+ 33840 = N 6 0
+ 34176 = N 4 0
+ 34176 = N 6 0
+ 34224 = N 3 0
+ 34224 = N 6 0
+ 34272 = N 2 0
+ 34272 = N 6 0
+ 34320 = N 1 0
+ 34320 = N 6 0
+ 34368 = N 2 0
+ 34368 = N 6 0
+ 34416 = N 3 120
+ 34416 = N 6 0
+ 34560 = N 2 0
+ 34560 = N 6 0
+ 34608 = N 2 144
+ 34608 = N 6 0
+ 34848 = N 4 384
+ 34848 = N 6 0
+ 35328 = N 2 0
+ 35328 = N 6 0
+ 35376 = N 3 192
+ 35376 = N 6 0
+ 35712 = N 4 0
+ 35712 = N 6 0
+ 35760 = N 3 0
+ 35760 = N 6 0
+ 35808 = N 2 0
+ 35808 = N 6 0
+ 35856 = N 1 0
+ 35856 = N 6 0
+ 35904 = N 2 0
+ 35904 = N 6 0
+ 35952 = N 3 120
+ 35952 = N 6 0
+ 36096 = N 2 0
+ 36096 = N 6 0
+ 36144 = N 2 120
+ 36144 = N 6 0
+ 36288 = N 4 0
+ 36288 = N 6 0
+ 36384 = N 3 480
+ 36384 = N 6 0
+ 36960 = N 4 0
+ 36960 = N 6 0
+ 36960 = E solo
+ 37008 = N 3 0
+ 37008 = N 6 0
+ 37312 = N 0 0
+ 37312 = N 6 0
+ 37344 = N 1 0
+ 37344 = N 6 0
+ 37408 = N 3 0
+ 37408 = N 6 0
+ 37440 = N 2 96
+ 37440 = N 6 0
+ 37824 = N 4 0
+ 37824 = N 6 0
+ 37888 = N 3 0
+ 37888 = N 6 0
+ 37920 = N 2 0
+ 37920 = N 6 0
+ 38016 = N 2 0
+ 38016 = N 6 0
+ 38080 = N 3 0
+ 38080 = N 6 0
+ 38176 = N 2 72
+ 38176 = N 6 0
+ 38272 = N 3 0
+ 38272 = N 6 0
+ 38368 = N 1 0
+ 38368 = N 6 0
+ 38400 = N 2 0
+ 38400 = N 6 0
+ 38544 = N 3 0
+ 38544 = N 6 0
+ 38656 = N 0 0
+ 38656 = N 6 0
+ 38688 = N 2 0
+ 38688 = N 6 0
+ 38976 = N 4 0
+ 38976 = N 6 0
+ 39072 = N 3 0
+ 39072 = N 6 0
+ 39360 = N 1 0
+ 39360 = N 6 0
+ 39520 = N 2 0
+ 39520 = N 6 0
+ 39648 = N 3 0
+ 39648 = N 6 0
+ 39712 = N 2 0
+ 39712 = N 6 0
+ 39744 = N 1 0
+ 39744 = N 6 0
+ 39840 = N 2 0
+ 39840 = N 6 0
+ 39936 = N 1 0
+ 39936 = N 6 0
+ 40000 = N 1 0
+ 40000 = N 6 0
+ 40384 = N 2 0
+ 40384 = N 6 0
+ 40416 = N 3 0
+ 40416 = N 6 0
+ 40464 = N 4 0
+ 40464 = N 6 0
+ 40512 = N 3 0
+ 40512 = N 6 0
+ 40576 = N 4 104
+ 40576 = N 6 0
+ 40704 = N 3 0
+ 40704 = N 6 0
+ 40752 = N 2 0
+ 40752 = N 6 0
+ 40800 = N 1 0
+ 40800 = N 6 0
+ 40864 = N 0 0
+ 40864 = N 6 0
+ 40896 = N 1 0
+ 40896 = N 6 0
+ 40960 = N 2 0
+ 40960 = N 6 0
+ 41152 = N 2 0
+ 41152 = N 6 0
+ 41184 = N 3 0
+ 41184 = N 6 0
+ 41232 = N 4 0
+ 41232 = N 6 0
+ 41280 = N 3 0
+ 41280 = N 6 0
+ 41344 = N 4 0
+ 41344 = N 6 0
+ 41440 = N 2 0
+ 41440 = N 6 0
+ 41520 = N 3 93
+ 41520 = N 6 0
+ 41632 = N 3 104
+ 41632 = N 6 0
+ 41760 = N 2 0
+ 41760 = N 6 0
+ 41856 = N 2 0
+ 41856 = N 6 0
+ 41920 = N 0 200
+ 41920 = N 6 0
+ 42144 = N 1 0
+ 42144 = N 6 0
+ 42240 = S 2 2304
+ 42496 = N 0 0
+ 42496 = N 6 0
+ 42528 = N 1 0
+ 42528 = N 6 0
+ 42576 = N 2 0
+ 42576 = N 6 0
+ 42624 = N 1 0
+ 42624 = N 6 0
+ 42672 = N 2 0
+ 42672 = N 6 0
+ 42752 = N 3 104
+ 42752 = N 6 0
+ 42880 = N 4 72
+ 42880 = N 6 0
+ 42976 = N 3 296
+ 42976 = N 6 0
+ 43296 = N 4 0
+ 43296 = N 6 0
+ 43344 = N 3 0
+ 43344 = N 6 0
+ 43392 = N 4 0
+ 43392 = N 6 0
+ 43440 = N 3 0
+ 43440 = N 6 0
+ 43488 = N 4 0
+ 43488 = N 6 0
+ 43536 = N 3 0
+ 43536 = N 6 0
+ 43584 = N 4 0
+ 43584 = N 6 0
+ 43632 = N 3 0
+ 43632 = N 6 0
+ 43680 = N 4 0
+ 43680 = N 6 0
+ 43728 = N 3 0
+ 43728 = N 6 0
+ 43776 = N 4 0
+ 43776 = N 6 0
+ 43824 = N 3 0
+ 43824 = N 6 0
+ 43872 = N 4 0
+ 43872 = N 6 0
+ 43920 = N 3 0
+ 43920 = N 6 0
+ 43968 = N 4 0
+ 43968 = N 6 0
+ 44000 = N 3 0
+ 44000 = N 6 0
+ 44032 = N 4 0
+ 44032 = N 6 0
+ 44096 = N 3 128
+ 44096 = N 6 0
+ 44224 = E soloend
+ 44640 = N 1 0
+ 44640 = N 6 0
+ 44704 = N 2 72
+ 44704 = N 6 0
+ 44800 = N 1 0
+ 44800 = N 6 0
+ 44832 = N 3 0
+ 44832 = N 6 0
+ 44928 = N 2 744
+ 44928 = N 6 0
+ 45696 = N 3 0
+ 45696 = N 6 0
+ 45744 = N 2 0
+ 45744 = N 6 0
+ 45792 = N 3 0
+ 45792 = N 6 0
+ 45840 = N 2 0
+ 45840 = N 6 0
+ 45888 = N 3 0
+ 45888 = N 6 0
+ 45936 = N 2 0
+ 45936 = N 6 0
+ 45984 = N 3 0
+ 45984 = N 6 0
+ 46080 = N 0 0
+ 46080 = N 6 0
+ 46144 = N 1 0
+ 46144 = N 6 0
+ 46176 = N 1 0
+ 46176 = N 6 0
+ 46240 = N 1 0
+ 46240 = N 6 0
+ 46336 = N 0 0
+ 46336 = N 6 0
+ 46368 = N 2 136
+ 46368 = N 6 0
+ 46528 = N 0 0
+ 46528 = N 6 0
+ 46560 = N 1 0
+ 46560 = N 6 0
+ 46624 = N 2 72
+ 46624 = N 6 0
+ 46720 = N 0 0
+ 46720 = N 6 0
+ 46752 = N 1 0
+ 46752 = N 6 0
+ 46816 = N 2 0
+ 46816 = N 6 0
+ 46848 = N 0 0
+ 46848 = N 6 0
+ 46912 = N 1 0
+ 46912 = N 6 0
+ 46944 = N 1 0
+ 46944 = N 6 0
+ 47008 = N 1 0
+ 47008 = N 6 0
+ 47104 = N 0 0
+ 47104 = N 6 0
+ 47136 = N 2 328
+ 47136 = N 6 0
+ 47488 = N 2 104
+ 47488 = N 6 0
+ 47616 = N 0 0
+ 47616 = N 6 0
+ 47680 = N 1 0
+ 47680 = N 6 0
+ 47712 = N 1 0
+ 47712 = N 6 0
+ 47776 = N 1 0
+ 47776 = N 6 0
+ 47872 = N 0 0
+ 47872 = N 6 0
+ 47968 = N 0 0
+ 47968 = N 6 0
+ 48000 = N 1 0
+ 48000 = N 6 0
+ 48064 = N 0 0
+ 48064 = N 6 0
+ 48096 = N 1 0
+ 48096 = N 6 0
+ 48192 = N 1 0
+ 48192 = N 6 0
+ 48256 = N 0 0
+ 48256 = N 6 0
+ 48288 = N 1 0
+ 48288 = N 6 0
+ 48352 = N 1 0
+ 48352 = N 6 0
+ 48384 = N 2 0
+ 48384 = N 6 0
+ 48480 = N 3 0
+ 48480 = N 6 0
+ 48576 = N 2 0
+ 48576 = N 6 0
+ 48672 = N 3 104
+ 48672 = N 6 0
+ 48800 = N 4 0
+ 48800 = N 6 0
+ 48832 = N 3 0
+ 48832 = N 6 0
+ 48864 = N 4 0
+ 48864 = N 6 0
+ 48896 = N 3 0
+ 48896 = N 6 0
+ 48928 = N 4 0
+ 48928 = N 6 0
+ 48960 = N 3 0
+ 48960 = N 6 0
+ 48992 = N 4 0
+ 48992 = N 6 0
+ 49024 = N 3 0
+ 49024 = N 6 0
+ 49056 = N 4 0
+ 49056 = N 6 0
+ 49088 = N 3 0
+ 49088 = N 6 0
+ 49120 = N 4 0
+ 49120 = N 6 0
+ 49152 = N 3 360
+ 49152 = N 6 0
+ 49536 = N 2 360
+ 49536 = N 6 0
+ 49920 = N 1 360
+ 49920 = N 6 0
+ 50304 = N 0 384
+ 50304 = N 6 0
+ 51168 = N 1 0
+ 51168 = N 6 0
+ 51216 = N 0 0
+ 51216 = N 6 0
+ 51264 = N 1 0
+ 51264 = N 6 0
+ 51312 = N 0 0
+ 51312 = N 6 0
+ 51360 = N 1 1152
+ 51360 = N 6 0
+ 52704 = N 1 0
+ 52704 = N 6 0
+ 52752 = N 0 0
+ 52752 = N 6 0
+ 52800 = N 1 0
+ 52800 = N 6 0
+ 52848 = N 0 0
+ 52848 = N 6 0
+ 52896 = N 1 0
+ 52896 = N 6 0
+ 52992 = N 2 0
+ 52992 = N 6 0
+ 52992 = S 2 1536
+ 53040 = N 3 192
+ 53040 = N 6 0
+ 53376 = N 4 0
+ 53376 = N 6 0
+ 53424 = N 3 0
+ 53424 = N 6 0
+ 53472 = N 2 0
+ 53472 = N 6 0
+ 53520 = N 1 0
+ 53520 = N 6 0
+ 53568 = N 2 0
+ 53568 = N 6 0
+ 53616 = N 3 120
+ 53616 = N 6 0
+ 53760 = N 2 0
+ 53760 = N 6 0
+ 53808 = N 2 144
+ 53808 = N 6 0
+ 54048 = N 4 384
+ 54048 = N 6 0
+ 54528 = N 2 0
+ 54528 = N 6 0
+ 54576 = N 3 192
+ 54576 = N 6 0
+ 54912 = N 4 0
+ 54912 = N 6 0
+ 54960 = N 3 0
+ 54960 = N 6 0
+ 55008 = N 2 0
+ 55008 = N 6 0
+ 55056 = N 1 0
+ 55056 = N 6 0
+ 55104 = N 2 0
+ 55104 = N 6 0
+ 55152 = N 3 120
+ 55152 = N 6 0
+ 55296 = N 2 0
+ 55296 = N 6 0
+ 55344 = N 2 120
+ 55344 = N 6 0
+ 55488 = N 4 0
+ 55488 = N 6 0
+ 55584 = N 3 432
+ 55584 = N 6 0
+ 56064 = N 2 0
+ 56064 = N 6 0
+ 56128 = N 3 0
+ 56128 = N 6 0
+ 56208 = N 4 124
+ 56208 = N 6 0
+ 56352 = N 2 0
+ 56352 = N 6 0
+ 56416 = N 3 0
+ 56416 = N 6 0
+ 56496 = N 4 124
+ 56496 = N 6 0
+ 56640 = N 2 0
+ 56640 = N 6 0
+ 56704 = N 3 0
+ 56704 = N 6 0
+ 56784 = N 4 124
+ 56784 = N 6 0
+ 56928 = N 2 0
+ 56928 = N 6 0
+ 56976 = N 3 0
+ 56976 = N 6 0
+ 57072 = N 4 124
+ 57072 = N 6 0
+ 57216 = N 3 0
+ 57216 = N 6 0
+ 57264 = N 3 0
+ 57264 = N 6 0
+ 57312 = N 2 0
+ 57312 = N 6 0
+ 57360 = N 1 0
+ 57360 = N 6 0
+ 57408 = N 1 0
+ 57408 = N 6 0
+ 57440 = N 0 0
+ 57440 = N 6 0
+ 57472 = N 1 608
+ 57472 = N 6 0
+ 58368 = N 1 0
+ 58368 = N 6 0
+ 58416 = N 2 0
+ 58416 = N 6 0
+ 58464 = N 3 0
+ 58464 = N 6 0
+ 58512 = N 4 72
+ 58512 = N 6 0
+ 58608 = N 3 0
+ 58608 = N 6 0
+ 58656 = N 4 0
+ 58656 = N 6 0
+ 58704 = N 3 0
+ 58704 = N 6 0
+ 58752 = N 2 0
+ 58752 = N 6 0
+ 58848 = N 1 0
+ 58848 = N 6 0
+ 58896 = N 0 0
+ 58896 = N 6 0
+ 58992 = N 1 0
+ 58992 = N 6 0
+ 59040 = N 2 192
+ 59040 = N 6 0
+ 59328 = N 2 0
+ 59328 = N 6 0
+ 59376 = N 3 0
+ 59376 = N 6 0
+ 59424 = N 2 0
+ 59424 = N 6 0
+ 59472 = N 3 0
+ 59472 = N 6 0
+ 59520 = N 4 0
+ 59520 = N 6 0
+ 59616 = N 3 0
+ 59616 = N 6 0
+ 59712 = N 2 0
+ 59712 = N 6 0
+ 59808 = N 4 0
+ 59808 = N 6 0
+ 59856 = N 3 120
+ 59856 = N 6 0
+ 60000 = N 2 0
+ 60000 = N 6 0
+ 60048 = N 1 0
+ 60048 = N 6 0
+ 60144 = N 0 0
+ 60144 = N 6 0
+ 60192 = N 0 264
+ 60192 = N 6 0
+ 60480 = N 0 0
+ 60480 = N 6 0
+ 60528 = N 1 0
+ 60528 = N 6 0
+ 60576 = N 2 0
+ 60576 = N 6 0
+ 60624 = N 3 0
+ 60624 = N 6 0
+ 60672 = N 2 0
+ 60672 = N 6 0
+ 60736 = N 3 0
+ 60736 = N 6 0
+ 60816 = N 4 124
+ 60816 = N 6 0
+ 60960 = N 2 0
+ 60960 = N 6 0
+ 61024 = N 3 0
+ 61024 = N 6 0
+ 61120 = N 4 104
+ 61120 = N 6 0
+ 61248 = N 2 0
+ 61248 = N 6 0
+ 61312 = N 3 0
+ 61312 = N 6 0
+ 61392 = N 4 124
+ 61392 = N 6 0
+ 61536 = N 2 0
+ 61536 = N 6 0
+ 61600 = N 3 0
+ 61600 = N 6 0
+ 61696 = N 4 104
+ 61696 = N 6 0
+ 61824 = N 3 0
+ 61824 = N 6 0
+ 61872 = N 3 0
+ 61872 = N 6 0
+ 61920 = N 2 0
+ 61920 = N 6 0
+ 61968 = N 1 0
+ 61968 = N 6 0
+ 62016 = N 1 0
+ 62016 = N 6 0
+ 62064 = N 0 0
+ 62064 = N 6 0
+ 62112 = N 1 768
+ 62112 = N 6 0
+ 62976 = N 1 0
+ 62976 = N 6 0
+ 63024 = N 2 0
+ 63024 = N 6 0
+ 63072 = N 3 0
+ 63072 = N 6 0
+ 63120 = N 4 72
+ 63120 = N 6 0
+ 63216 = N 3 0
+ 63216 = N 6 0
+ 63264 = N 4 0
+ 63264 = N 6 0
+ 63312 = N 3 0
+ 63312 = N 6 0
+ 63360 = N 2 0
+ 63360 = N 6 0
+ 63456 = N 1 0
+ 63456 = N 6 0
+ 63504 = N 0 0
+ 63504 = N 6 0
+ 63600 = N 1 0
+ 63600 = N 6 0
+ 63648 = N 2 192
+ 63648 = N 6 0
+ 63936 = N 2 0
+ 63936 = N 6 0
+ 63984 = N 3 0
+ 63984 = N 6 0
+ 64032 = N 2 0
+ 64032 = N 6 0
+ 64080 = N 3 0
+ 64080 = N 6 0
+ 64128 = N 4 0
+ 64128 = N 6 0
+ 64224 = N 3 0
+ 64224 = N 6 0
+ 64320 = N 2 0
+ 64320 = N 6 0
+ 64416 = N 4 0
+ 64416 = N 6 0
+ 64464 = N 3 120
+ 64464 = N 6 0
+ 64608 = N 2 0
+ 64608 = N 6 0
+ 64656 = N 1 0
+ 64656 = N 6 0
+ 64752 = N 0 0
+ 64752 = N 6 0
+ 64800 = N 4 264
+ 64800 = N 6 0
+ 65088 = N 0 0
+ 65088 = N 6 0
+ 65088 = S 2 1344
+ 65136 = N 1 0
+ 65136 = N 6 0
+ 65184 = N 2 0
+ 65184 = N 6 0
+ 65232 = N 3 0
+ 65232 = N 6 0
+ 65280 = N 2 0
+ 65280 = N 6 0
+ 65328 = N 3 312
+ 65328 = N 6 0
+ 65664 = N 4 0
+ 65664 = N 6 0
+ 65712 = N 3 0
+ 65712 = N 6 0
+ 65760 = N 2 0
+ 65760 = N 6 0
+ 65808 = N 1 0
+ 65808 = N 6 0
+ 65856 = N 2 0
+ 65856 = N 6 0
+ 65904 = N 3 120
+ 65904 = N 6 0
+ 66048 = N 2 288
+ 66048 = N 6 0
+ 66496 = N 4 200
+ 66496 = N 6 0
+ 66720 = N 3 0
+ 66720 = N 6 0
+ 66816 = N 2 0
+ 66816 = N 6 0
+ 66864 = N 3 312
+ 66864 = N 6 0
+ 67200 = N 4 0
+ 67200 = N 6 0
+ 67248 = N 3 0
+ 67248 = N 6 0
+ 67296 = N 2 0
+ 67296 = N 6 0
+ 67344 = N 1 0
+ 67344 = N 6 0
+ 67392 = N 2 0
+ 67392 = N 6 0
+ 67440 = N 3 120
+ 67440 = N 6 0
+ 67584 = N 2 192
+ 67584 = N 6 0
+ 68040 = N 4 224
+ 68040 = N 6 0
+ 68288 = N 3 0
+ 68288 = N 6 0
+ 68352 = N 2 0
+ 68352 = N 6 0
+ 68384 = N 3 0
+ 68384 = N 6 0
+ 68416 = N 2 0
+ 68416 = N 6 0
+ 68448 = N 1 226
+ 68448 = N 6 0
+ 68698 = N 2 0
+ 68698 = N 6 0
+ 68736 = N 1 0
+ 68736 = N 6 0
+ 68774 = N 2 0
+ 68774 = N 6 0
+ 68813 = N 1 0
+ 68813 = N 6 0
+ 68851 = N 2 0
+ 68851 = N 6 0
+ 68890 = N 1 0
+ 68890 = N 6 0
+ 68928 = N 2 0
+ 68928 = N 6 0
+ 68966 = N 1 0
+ 68966 = N 6 0
+ 69005 = N 2 0
+ 69005 = N 6 0
+ 69043 = N 1 0
+ 69043 = N 6 0
+ 69082 = N 2 0
+ 69082 = N 6 0
+ 69120 = N 1 0
+ 69120 = N 6 0
+ 69158 = N 2 0
+ 69158 = N 6 0
+ 69197 = N 1 77
+ 69197 = N 6 0
+ 69792 = N 3 0
+ 69792 = N 6 0
+ 69824 = N 4 0
+ 69824 = N 6 0
+ 69856 = N 3 0
+ 69856 = N 6 0
+ 69888 = N 2 96
+ 69888 = N 6 0
+ 70008 = N 1 0
+ 70008 = N 6 0
+ 70080 = N 0 72
+ 70080 = N 6 0
+ 70176 = N 3 0
+ 70176 = N 6 0
+ 70208 = N 2 0
+ 70208 = N 6 0
+ 70240 = N 1 224
+ 70240 = N 6 0
+ 70528 = N 0 0
+ 70528 = N 6 0
+ 70560 = N 1 0
+ 70560 = N 6 0
+ 70592 = N 2 0
+ 70592 = N 6 0
+ 70624 = N 3 0
+ 70624 = N 6 0
+ 70656 = N 0 0
+ 70656 = N 6 0
+ 70688 = N 1 0
+ 70688 = N 6 0
+ 70720 = N 2 0
+ 70720 = N 6 0
+ 70752 = N 1 0
+ 70752 = N 6 0
+ 70784 = N 2 0
+ 70784 = N 6 0
+ 70816 = N 3 0
+ 70816 = N 6 0
+ 70848 = N 4 96
+ 70848 = N 6 0
+ 71424 = N 1 0
+ 71424 = N 2 0
+ 71424 = N 6 0
+ 71472 = N 1 432
+ 71472 = N 3 432
+ 71472 = N 6 0
+ 71936 = N 2 0
+ 71936 = N 6 0
+ 71968 = N 3 0
+ 71968 = N 6 0
+ 72000 = N 4 0
+ 72000 = N 6 0
+ 72060 = N 4 0
+ 72060 = N 6 0
+ 72132 = N 4 0
+ 72132 = N 6 0
+ 72208 = N 3 0
+ 72208 = N 6 0
+ 72240 = N 2 0
+ 72240 = N 3 0
+ 72240 = N 6 0
+ 72288 = N 2 0
+ 72288 = N 3 0
+ 72288 = N 6 0
+ 72336 = N 2 0
+ 72336 = N 3 0
+ 72336 = N 6 0
+ 72384 = N 1 0
+ 72384 = N 2 0
+ 72384 = N 6 0
+ 72432 = N 0 0
+ 72432 = N 6 0
+ 72456 = N 1 0
+ 72456 = N 6 0
+ 72480 = N 2 0
+ 72480 = N 6 0
+ 72528 = N 3 0
+ 72528 = N 6 0
+ 72576 = N 4 0
+ 72576 = N 6 0
+ 72600 = N 3 0
+ 72600 = N 6 0
+ 72624 = N 2 0
+ 72624 = N 6 0
+ 72648 = N 1 0
+ 72648 = N 6 0
+ 72672 = N 3 0
+ 72672 = N 6 0
+ 72696 = N 2 0
+ 72696 = N 6 0
+ 72720 = N 1 0
+ 72720 = N 6 0
+ 72744 = N 0 0
+ 72744 = N 6 0
+ 72768 = N 1 0
+ 72768 = N 6 0
+ 72816 = N 2 0
+ 72816 = N 3 0
+ 72816 = N 6 0
+ 72864 = N 2 0
+ 72864 = N 4 0
+ 72864 = N 6 0
+ 72912 = N 3 0
+ 72912 = N 4 0
+ 72912 = N 6 0
+ 72976 = N 2 0
+ 72976 = N 4 0
+ 72976 = N 6 0
+ 73032 = N 2 0
+ 73032 = N 3 0
+ 73032 = N 6 0
+ 73104 = N 2 53
+ 73104 = N 4 53
+ 73104 = N 6 0
+ 73168 = N 3 53
+ 73168 = N 4 53
+ 73168 = N 6 0
+ 73232 = N 2 53
+ 73232 = N 4 53
+ 73232 = N 6 0
+ 73296 = N 2 59
+ 73296 = N 3 59
+ 73296 = N 6 0
+ 73368 = N 2 91
+ 73368 = N 4 91
+ 73368 = N 6 0
+ 73472 = N 2 86
+ 73472 = N 3 86
+ 73472 = N 6 0
+ 73568 = N 2 70
+ 73568 = N 4 70
+ 73568 = N 6 0
+ 73648 = N 2 656
+ 73648 = N 3 656
+ 73648 = N 6 0
+}
+[MediumSingle]
+{
+ 928 = E solo
+ 960 = N 3 0
+ 960 = N 6 0
+ 1056 = N 1 0
+ 1056 = N 2 0
+ 1056 = N 6 0
+ 1152 = N 0 0
+ 1152 = N 1 0
+ 1152 = N 6 0
+ 1248 = N 1 0
+ 1248 = N 6 0
+ 1344 = N 2 0
+ 1344 = N 6 0
+ 1440 = N 1 0
+ 1440 = N 6 0
+ 1536 = N 0 168
+ 1536 = N 6 0
+ 1728 = N 1 0
+ 1728 = N 3 0
+ 1728 = N 6 0
+ 1824 = N 1 456
+ 1824 = N 2 456
+ 1824 = N 6 0
+ 2368 = N 1 0
+ 2368 = N 6 0
+ 2432 = N 2 0
+ 2432 = N 6 0
+ 2496 = N 3 0
+ 2496 = N 6 0
+ 2592 = N 2 0
+ 2592 = N 3 0
+ 2592 = N 6 0
+ 2656 = N 1 0
+ 2656 = N 6 0
+ 2784 = N 3 0
+ 2784 = N 6 0
+ 2880 = N 2 0
+ 2880 = N 6 0
+ 2976 = N 1 0
+ 2976 = N 6 0
+ 3040 = N 0 205
+ 3040 = N 6 0
+ 3264 = N 1 0
+ 3264 = N 3 0
+ 3264 = N 6 0
+ 3360 = N 1 456
+ 3360 = N 2 456
+ 3360 = N 6 0
+ 3840 = S 2 1152
+ 3888 = N 3 72
+ 3888 = N 6 0
+ 4032 = N 2 120
+ 4032 = N 6 0
+ 4224 = N 1 120
+ 4224 = N 6 0
+ 4416 = N 2 0
+ 4416 = N 6 0
+ 4512 = N 1 0
+ 4512 = N 6 0
+ 4608 = N 0 168
+ 4608 = N 6 0
+ 4800 = N 1 0
+ 4800 = N 3 0
+ 4800 = N 6 0
+ 4896 = N 1 400
+ 4896 = N 2 400
+ 4896 = N 6 0
+ 5376 = N 2 168
+ 5376 = N 3 168
+ 5376 = N 6 0
+ 5568 = N 2 0
+ 5568 = N 6 0
+ 5632 = N 1 0
+ 5632 = N 6 0
+ 5728 = N 2 104
+ 5728 = N 3 104
+ 5728 = N 6 0
+ 5856 = N 2 0
+ 5856 = N 6 0
+ 5920 = N 1 200
+ 5920 = N 6 0
+ 6144 = N 1 192
+ 6144 = N 3 192
+ 6144 = N 6 0
+ 6432 = N 1 480
+ 6432 = N 2 480
+ 6432 = N 6 0
+ 7104 = N 3 0
+ 7104 = N 6 0
+ 7168 = N 2 0
+ 7168 = N 6 0
+ 7296 = N 1 0
+ 7296 = N 6 0
+ 7392 = N 0 0
+ 7392 = N 6 0
+ 7584 = N 1 0
+ 7584 = N 6 0
+ 7632 = N 2 126
+ 7632 = N 6 0
+ 7776 = N 1 0
+ 7776 = N 6 0
+ 7872 = N 3 0
+ 7872 = N 6 0
+ 7968 = N 1 317
+ 7968 = N 2 317
+ 7968 = N 6 0
+ 8304 = N 0 96
+ 8304 = N 6 0
+ 8448 = N 3 136
+ 8448 = N 6 0
+ 8640 = N 2 0
+ 8640 = N 6 0
+ 8688 = N 1 0
+ 8688 = N 6 0
+ 8784 = N 2 88
+ 8784 = N 3 88
+ 8784 = N 6 0
+ 8928 = N 3 0
+ 8928 = N 6 0
+ 9024 = N 2 0
+ 9024 = N 3 0
+ 9024 = N 6 0
+ 9120 = N 1 0
+ 9120 = N 6 0
+ 9216 = N 0 168
+ 9216 = N 1 168
+ 9216 = N 6 0
+ 9408 = N 1 0
+ 9408 = N 2 0
+ 9408 = N 6 0
+ 9504 = N 1 456
+ 9504 = N 2 456
+ 9504 = N 6 0
+ 9888 = E soloend
+ 9984 = N 1 0
+ 9984 = N 6 0
+ 10032 = N 2 312
+ 10032 = N 6 0
+ 10368 = N 2 0
+ 10368 = N 6 0
+ 10464 = N 1 0
+ 10464 = N 6 0
+ 10560 = N 1 0
+ 10560 = N 6 0
+ 10608 = N 2 120
+ 10608 = N 6 0
+ 10752 = N 0 0
+ 10752 = N 1 0
+ 10752 = N 6 0
+ 10800 = N 0 120
+ 10800 = N 1 120
+ 10800 = N 6 0
+ 11040 = N 2 168
+ 11040 = N 3 168
+ 11040 = N 6 0
+ 11232 = N 0 0
+ 11232 = N 6 0
+ 11328 = N 1 0
+ 11328 = N 6 0
+ 11424 = N 1 0
+ 11424 = N 6 0
+ 11520 = N 1 0
+ 11520 = N 6 0
+ 11520 = S 2 1536
+ 11568 = N 2 264
+ 11568 = N 6 0
+ 11904 = N 2 0
+ 11904 = N 6 0
+ 12000 = N 1 0
+ 12000 = N 6 0
+ 12096 = N 1 0
+ 12096 = N 6 0
+ 12144 = N 2 120
+ 12144 = N 6 0
+ 12288 = N 0 0
+ 12288 = N 1 0
+ 12288 = N 6 0
+ 12336 = N 0 72
+ 12336 = N 1 72
+ 12336 = N 6 0
+ 12480 = N 3 0
+ 12480 = N 6 0
+ 12576 = N 1 480
+ 12576 = N 2 480
+ 12576 = N 6 0
+ 13152 = N 1 0
+ 13152 = N 6 0
+ 13216 = N 2 0
+ 13216 = N 6 0
+ 13312 = N 2 0
+ 13312 = N 6 0
+ 13440 = N 3 0
+ 13440 = N 6 0
+ 13632 = N 2 0
+ 13632 = N 6 0
+ 13728 = N 2 0
+ 13728 = N 6 0
+ 13824 = N 2 0
+ 13824 = N 6 0
+ 13920 = N 1 0
+ 13920 = N 6 0
+ 14016 = N 1 0
+ 14016 = N 6 0
+ 14112 = N 0 384
+ 14112 = N 6 0
+ 14688 = N 1 0
+ 14688 = N 6 0
+ 14752 = N 2 0
+ 14752 = N 6 0
+ 14880 = N 3 0
+ 14880 = N 6 0
+ 14976 = N 2 168
+ 14976 = N 6 0
+ 15168 = N 2 0
+ 15168 = N 6 0
+ 15264 = N 2 0
+ 15264 = N 6 0
+ 15360 = N 2 136
+ 15360 = N 6 0
+ 15520 = N 1 136
+ 15520 = N 6 0
+ 15680 = N 0 256
+ 15680 = N 6 0
+ 16128 = N 1 0
+ 16128 = N 6 0
+ 16224 = N 2 0
+ 16224 = N 6 0
+ 16288 = N 2 0
+ 16288 = N 6 0
+ 16416 = N 3 136
+ 16416 = N 6 0
+ 16576 = N 2 104
+ 16576 = N 6 0
+ 16704 = N 1 0
+ 16704 = N 6 0
+ 16800 = N 0 0
+ 16800 = N 6 0
+ 16896 = N 1 0
+ 16896 = N 6 0
+ 16992 = N 2 0
+ 16992 = N 6 0
+ 17088 = N 2 0
+ 17088 = N 6 0
+ 17184 = N 2 224
+ 17184 = N 6 0
+ 17664 = N 0 0
+ 17664 = N 6 0
+ 17760 = N 1 0
+ 17760 = N 6 0
+ 17824 = N 1 0
+ 17824 = N 6 0
+ 17920 = N 0 0
+ 17920 = N 6 0
+ 18048 = N 1 0
+ 18048 = N 6 0
+ 18144 = N 1 0
+ 18144 = N 6 0
+ 18240 = N 1 0
+ 18240 = N 6 0
+ 18336 = N 1 0
+ 18336 = N 6 0
+ 18432 = N 2 0
+ 18432 = N 6 0
+ 18528 = N 3 0
+ 18528 = N 6 0
+ 18624 = N 2 0
+ 18624 = N 6 0
+ 18720 = N 3 0
+ 18720 = N 6 0
+ 18784 = N 1 104
+ 18784 = N 6 0
+ 18912 = N 0 0
+ 18912 = N 6 0
+ 19008 = N 0 0
+ 19008 = N 6 0
+ 19104 = N 0 456
+ 19104 = N 6 0
+ 19584 = N 2 0
+ 19584 = N 6 0
+ 19680 = N 1 0
+ 19680 = N 6 0
+ 19776 = N 1 0
+ 19776 = N 6 0
+ 19824 = N 2 120
+ 19824 = N 6 0
+ 19968 = N 0 0
+ 19968 = N 1 0
+ 19968 = N 6 0
+ 20016 = N 0 144
+ 20016 = N 1 144
+ 20016 = N 6 0
+ 20256 = N 2 168
+ 20256 = N 3 168
+ 20256 = N 6 0
+ 20448 = N 0 0
+ 20448 = N 6 0
+ 20544 = N 1 0
+ 20544 = N 6 0
+ 20640 = N 1 840
+ 20640 = N 6 0
+ 21504 = N 0 0
+ 21504 = N 1 0
+ 21504 = N 6 0
+ 21552 = N 0 96
+ 21552 = N 1 96
+ 21552 = N 6 0
+ 21696 = N 3 0
+ 21696 = N 6 0
+ 21792 = N 1 384
+ 21792 = N 2 384
+ 21792 = N 6 0
+ 22272 = S 2 1536
+ 22368 = N 1 0
+ 22368 = N 6 0
+ 22432 = N 2 72
+ 22432 = N 6 0
+ 22528 = N 2 72
+ 22528 = N 6 0
+ 22656 = N 3 0
+ 22656 = N 6 0
+ 22752 = N 2 0
+ 22752 = N 6 0
+ 22848 = N 1 0
+ 22848 = N 6 0
+ 22944 = N 0 0
+ 22944 = N 6 0
+ 23040 = N 2 0
+ 23040 = N 6 0
+ 23136 = N 1 0
+ 23136 = N 6 0
+ 23232 = N 1 0
+ 23232 = N 6 0
+ 23328 = N 0 480
+ 23328 = N 6 0
+ 23904 = N 1 0
+ 23904 = N 6 0
+ 23968 = N 2 72
+ 23968 = N 6 0
+ 24096 = N 3 0
+ 24096 = N 6 0
+ 24192 = N 2 0
+ 24192 = N 6 0
+ 24288 = N 1 0
+ 24288 = N 6 0
+ 24384 = N 1 0
+ 24384 = N 6 0
+ 24480 = N 0 0
+ 24480 = N 6 0
+ 24576 = N 2 0
+ 24576 = N 6 0
+ 24672 = N 1 0
+ 24672 = N 6 0
+ 24768 = N 0 0
+ 24768 = N 6 0
+ 24864 = N 0 384
+ 24864 = N 6 0
+ 25344 = N 1 0
+ 25344 = N 6 0
+ 25440 = N 2 0
+ 25440 = N 6 0
+ 25504 = N 2 0
+ 25504 = N 6 0
+ 25632 = N 3 136
+ 25632 = N 6 0
+ 25792 = N 2 104
+ 25792 = N 6 0
+ 25920 = N 1 0
+ 25920 = N 6 0
+ 26016 = N 0 0
+ 26016 = N 6 0
+ 26112 = N 1 0
+ 26112 = N 6 0
+ 26208 = N 2 0
+ 26208 = N 6 0
+ 26304 = N 2 0
+ 26304 = N 6 0
+ 26400 = N 2 288
+ 26400 = N 6 0
+ 26880 = N 0 0
+ 26880 = N 6 0
+ 26976 = N 1 0
+ 26976 = N 6 0
+ 27040 = N 1 0
+ 27040 = N 6 0
+ 27136 = N 0 0
+ 27136 = N 6 0
+ 27264 = N 1 0
+ 27264 = N 6 0
+ 27360 = N 1 0
+ 27360 = N 6 0
+ 27456 = N 1 0
+ 27456 = N 6 0
+ 27552 = N 1 0
+ 27552 = N 6 0
+ 27648 = N 2 0
+ 27648 = N 6 0
+ 27744 = N 3 0
+ 27744 = N 6 0
+ 27840 = N 2 0
+ 27840 = N 6 0
+ 27936 = N 3 0
+ 27936 = N 6 0
+ 28000 = N 1 104
+ 28000 = N 6 0
+ 28128 = N 0 0
+ 28128 = N 6 0
+ 28224 = N 0 0
+ 28224 = N 6 0
+ 28320 = N 0 768
+ 28320 = N 6 0
+ 29184 = N 0 0
+ 29184 = N 6 0
+ 29232 = N 0 144
+ 29232 = N 6 0
+ 29472 = N 0 168
+ 29472 = N 6 0
+ 29664 = N 0 0
+ 29664 = N 6 0
+ 29760 = N 1 0
+ 29760 = N 6 0
+ 29856 = N 1 696
+ 29856 = N 6 0
+ 30720 = N 3 0
+ 30720 = N 6 0
+ 30816 = N 2 672
+ 30816 = N 6 0
+ 31680 = N 2 0
+ 31680 = N 6 0
+ 31776 = N 3 168
+ 31776 = N 6 0
+ 31968 = N 2 0
+ 31968 = N 6 0
+ 32064 = N 2 0
+ 32064 = N 6 0
+ 32112 = N 3 120
+ 32112 = N 6 0
+ 32256 = N 2 0
+ 32256 = N 6 0
+ 32352 = N 1 0
+ 32352 = N 6 0
+ 32448 = N 0 0
+ 32448 = N 6 0
+ 32544 = N 1 384
+ 32544 = N 6 0
+ 33024 = N 1 120
+ 33024 = N 6 0
+ 33024 = S 2 768
+ 33168 = N 2 120
+ 33168 = N 6 0
+ 33312 = N 3 456
+ 33312 = N 6 0
+ 33792 = N 1 0
+ 33792 = N 6 0
+ 33840 = N 2 192
+ 33840 = N 6 0
+ 34176 = N 2 0
+ 34176 = N 6 0
+ 34272 = N 1 0
+ 34272 = N 6 0
+ 34368 = N 1 0
+ 34368 = N 6 0
+ 34416 = N 2 120
+ 34416 = N 6 0
+ 34560 = N 1 0
+ 34560 = N 6 0
+ 34608 = N 1 144
+ 34608 = N 6 0
+ 34848 = N 2 384
+ 34848 = N 6 0
+ 35328 = N 1 0
+ 35328 = N 6 0
+ 35376 = N 2 192
+ 35376 = N 6 0
+ 35712 = N 2 0
+ 35712 = N 6 0
+ 35808 = N 1 0
+ 35808 = N 6 0
+ 35904 = N 1 0
+ 35904 = N 6 0
+ 35952 = N 2 120
+ 35952 = N 6 0
+ 36096 = N 1 0
+ 36096 = N 6 0
+ 36144 = N 1 120
+ 36144 = N 6 0
+ 36288 = N 3 0
+ 36288 = N 6 0
+ 36384 = N 2 480
+ 36384 = N 6 0
+ 36960 = N 3 0
+ 36960 = N 6 0
+ 36960 = E solo
+ 37344 = N 0 0
+ 37344 = N 6 0
+ 37440 = N 1 96
+ 37440 = N 6 0
+ 37824 = N 1 0
+ 37824 = N 6 0
+ 37920 = N 0 0
+ 37920 = N 6 0
+ 38016 = N 0 0
+ 38016 = N 6 0
+ 38080 = N 1 0
+ 38080 = N 6 0
+ 38176 = N 0 72
+ 38176 = N 6 0
+ 38272 = N 1 0
+ 38272 = N 6 0
+ 38400 = N 0 0
+ 38400 = N 6 0
+ 38544 = N 1 0
+ 38544 = N 6 0
+ 38688 = N 0 0
+ 38688 = N 6 0
+ 38976 = N 3 0
+ 38976 = N 6 0
+ 39072 = N 2 0
+ 39072 = N 6 0
+ 39360 = N 0 0
+ 39360 = N 6 0
+ 39520 = N 1 0
+ 39520 = N 6 0
+ 39648 = N 2 0
+ 39648 = N 6 0
+ 39744 = N 0 0
+ 39744 = N 6 0
+ 39840 = N 1 0
+ 39840 = N 6 0
+ 39936 = N 0 0
+ 39936 = N 6 0
+ 40000 = N 0 0
+ 40000 = N 6 0
+ 40384 = N 1 0
+ 40384 = N 6 0
+ 40512 = N 2 0
+ 40512 = N 6 0
+ 40576 = N 3 104
+ 40576 = N 6 0
+ 40704 = N 1 0
+ 40704 = N 6 0
+ 40800 = N 0 0
+ 40800 = N 6 0
+ 40896 = N 0 0
+ 40896 = N 6 0
+ 40960 = N 1 0
+ 40960 = N 6 0
+ 41152 = N 2 0
+ 41152 = N 6 0
+ 41280 = N 2 0
+ 41280 = N 6 0
+ 41344 = N 3 0
+ 41344 = N 6 0
+ 41440 = N 1 0
+ 41440 = N 6 0
+ 41520 = N 2 93
+ 41520 = N 6 0
+ 41632 = N 2 104
+ 41632 = N 6 0
+ 41760 = N 1 0
+ 41760 = N 6 0
+ 41856 = N 1 0
+ 41856 = N 6 0
+ 41920 = N 0 200
+ 41920 = N 6 0
+ 42144 = N 1 0
+ 42144 = N 6 0
+ 42240 = S 2 2304
+ 42528 = N 0 0
+ 42528 = N 6 0
+ 42624 = N 1 0
+ 42624 = N 6 0
+ 42752 = N 2 104
+ 42752 = N 6 0
+ 42880 = N 3 72
+ 42880 = N 6 0
+ 42976 = N 2 296
+ 42976 = N 6 0
+ 43296 = N 3 0
+ 43296 = N 6 0
+ 43392 = N 3 0
+ 43392 = N 6 0
+ 43488 = N 3 0
+ 43488 = N 6 0
+ 43584 = N 3 0
+ 43584 = N 6 0
+ 43680 = N 3 0
+ 43680 = N 6 0
+ 43776 = N 3 0
+ 43776 = N 6 0
+ 43872 = N 3 0
+ 43872 = N 6 0
+ 43968 = N 3 0
+ 43968 = N 6 0
+ 44032 = N 3 0
+ 44032 = N 6 0
+ 44096 = N 2 128
+ 44096 = N 6 0
+ 44224 = E soloend
+ 44640 = N 1 0
+ 44640 = N 6 0
+ 44704 = N 2 72
+ 44704 = N 6 0
+ 44832 = N 3 0
+ 44832 = N 6 0
+ 44928 = N 2 744
+ 44928 = N 6 0
+ 45696 = N 3 0
+ 45696 = N 6 0
+ 45792 = N 3 0
+ 45792 = N 6 0
+ 45888 = N 3 0
+ 45888 = N 6 0
+ 45984 = N 3 0
+ 45984 = N 6 0
+ 46080 = N 0 0
+ 46080 = N 6 0
+ 46176 = N 1 0
+ 46176 = N 6 0
+ 46240 = N 1 0
+ 46240 = N 6 0
+ 46368 = N 2 136
+ 46368 = N 6 0
+ 46560 = N 1 0
+ 46560 = N 6 0
+ 46624 = N 2 72
+ 46624 = N 6 0
+ 46752 = N 1 0
+ 46752 = N 6 0
+ 46848 = N 0 0
+ 46848 = N 6 0
+ 46944 = N 1 0
+ 46944 = N 6 0
+ 47008 = N 1 0
+ 47008 = N 6 0
+ 47136 = N 2 328
+ 47136 = N 6 0
+ 47488 = N 2 104
+ 47488 = N 6 0
+ 47616 = N 0 0
+ 47616 = N 6 0
+ 47712 = N 1 0
+ 47712 = N 6 0
+ 47776 = N 1 0
+ 47776 = N 6 0
+ 47872 = N 0 0
+ 47872 = N 6 0
+ 48000 = N 1 0
+ 48000 = N 6 0
+ 48096 = N 1 0
+ 48096 = N 6 0
+ 48192 = N 1 0
+ 48192 = N 6 0
+ 48288 = N 1 0
+ 48288 = N 6 0
+ 48384 = N 2 0
+ 48384 = N 6 0
+ 48480 = N 3 0
+ 48480 = N 6 0
+ 48576 = N 2 0
+ 48576 = N 6 0
+ 48672 = N 3 104
+ 48672 = N 6 0
+ 48800 = N 3 0
+ 48800 = N 6 0
+ 48864 = N 3 0
+ 48864 = N 6 0
+ 48928 = N 3 0
+ 48928 = N 6 0
+ 48992 = N 3 0
+ 48992 = N 6 0
+ 49056 = N 3 0
+ 49056 = N 6 0
+ 49152 = N 3 360
+ 49152 = N 6 0
+ 49536 = N 2 360
+ 49536 = N 6 0
+ 49920 = N 1 360
+ 49920 = N 6 0
+ 50304 = N 0 384
+ 50304 = N 6 0
+ 51168 = N 0 0
+ 51168 = N 6 0
+ 51264 = N 0 0
+ 51264 = N 6 0
+ 51360 = N 0 1152
+ 51360 = N 6 0
+ 52704 = N 0 0
+ 52704 = N 6 0
+ 52800 = N 0 0
+ 52800 = N 6 0
+ 52896 = N 0 0
+ 52896 = N 6 0
+ 52992 = N 1 0
+ 52992 = N 6 0
+ 52992 = S 2 1536
+ 53040 = N 2 192
+ 53040 = N 6 0
+ 53376 = N 2 0
+ 53376 = N 6 0
+ 53472 = N 1 0
+ 53472 = N 6 0
+ 53568 = N 1 0
+ 53568 = N 6 0
+ 53616 = N 2 120
+ 53616 = N 6 0
+ 53760 = N 1 0
+ 53760 = N 6 0
+ 53808 = N 1 144
+ 53808 = N 6 0
+ 54048 = N 3 384
+ 54048 = N 6 0
+ 54528 = N 1 0
+ 54528 = N 6 0
+ 54576 = N 2 192
+ 54576 = N 6 0
+ 54912 = N 2 0
+ 54912 = N 6 0
+ 55008 = N 1 0
+ 55008 = N 6 0
+ 55104 = N 1 0
+ 55104 = N 6 0
+ 55152 = N 2 120
+ 55152 = N 6 0
+ 55296 = N 1 0
+ 55296 = N 6 0
+ 55344 = N 1 120
+ 55344 = N 6 0
+ 55488 = N 3 0
+ 55488 = N 6 0
+ 55584 = N 2 432
+ 55584 = N 6 0
+ 56064 = N 1 0
+ 56064 = N 6 0
+ 56128 = N 2 0
+ 56128 = N 6 0
+ 56208 = N 3 124
+ 56208 = N 6 0
+ 56352 = N 1 0
+ 56352 = N 6 0
+ 56416 = N 2 0
+ 56416 = N 6 0
+ 56496 = N 3 124
+ 56496 = N 6 0
+ 56640 = N 1 0
+ 56640 = N 6 0
+ 56704 = N 2 0
+ 56704 = N 6 0
+ 56784 = N 3 124
+ 56784 = N 6 0
+ 56928 = N 1 0
+ 56928 = N 6 0
+ 56976 = N 2 0
+ 56976 = N 6 0
+ 57072 = N 3 124
+ 57072 = N 6 0
+ 57216 = N 2 0
+ 57216 = N 6 0
+ 57312 = N 1 0
+ 57312 = N 6 0
+ 57408 = N 0 0
+ 57408 = N 6 0
+ 57472 = N 0 608
+ 57472 = N 6 0
+ 58368 = N 1 0
+ 58368 = N 6 0
+ 58464 = N 2 0
+ 58464 = N 6 0
+ 58512 = N 3 72
+ 58512 = N 6 0
+ 58656 = N 2 0
+ 58656 = N 6 0
+ 58752 = N 1 0
+ 58752 = N 6 0
+ 58896 = N 0 0
+ 58896 = N 6 0
+ 59040 = N 1 192
+ 59040 = N 6 0
+ 59328 = N 2 0
+ 59328 = N 6 0
+ 59424 = N 2 0
+ 59424 = N 6 0
+ 59520 = N 3 0
+ 59520 = N 6 0
+ 59616 = N 2 0
+ 59616 = N 6 0
+ 59712 = N 1 0
+ 59712 = N 6 0
+ 59808 = N 3 0
+ 59808 = N 6 0
+ 59856 = N 2 120
+ 59856 = N 6 0
+ 60048 = N 1 0
+ 60048 = N 6 0
+ 60192 = N 0 264
+ 60192 = N 6 0
+ 60480 = N 0 0
+ 60480 = N 6 0
+ 60576 = N 1 0
+ 60576 = N 6 0
+ 60672 = N 1 0
+ 60672 = N 6 0
+ 60736 = N 2 0
+ 60736 = N 6 0
+ 60816 = N 3 124
+ 60816 = N 6 0
+ 60960 = N 1 0
+ 60960 = N 6 0
+ 61024 = N 2 0
+ 61024 = N 6 0
+ 61120 = N 3 104
+ 61120 = N 6 0
+ 61248 = N 1 0
+ 61248 = N 6 0
+ 61312 = N 2 0
+ 61312 = N 6 0
+ 61392 = N 3 124
+ 61392 = N 6 0
+ 61536 = N 1 0
+ 61536 = N 6 0
+ 61600 = N 2 0
+ 61600 = N 6 0
+ 61696 = N 3 104
+ 61696 = N 6 0
+ 61824 = N 2 0
+ 61824 = N 6 0
+ 61920 = N 1 0
+ 61920 = N 6 0
+ 62016 = N 0 0
+ 62016 = N 6 0
+ 62112 = N 0 768
+ 62112 = N 6 0
+ 62976 = N 1 0
+ 62976 = N 6 0
+ 63072 = N 2 0
+ 63072 = N 6 0
+ 63120 = N 3 72
+ 63120 = N 6 0
+ 63264 = N 2 0
+ 63264 = N 6 0
+ 63360 = N 1 0
+ 63360 = N 6 0
+ 63504 = N 0 0
+ 63504 = N 6 0
+ 63648 = N 1 192
+ 63648 = N 6 0
+ 63936 = N 2 0
+ 63936 = N 6 0
+ 64032 = N 2 0
+ 64032 = N 6 0
+ 64128 = N 3 0
+ 64128 = N 6 0
+ 64224 = N 2 0
+ 64224 = N 6 0
+ 64320 = N 1 0
+ 64320 = N 6 0
+ 64416 = N 3 0
+ 64416 = N 6 0
+ 64464 = N 2 120
+ 64464 = N 6 0
+ 64656 = N 1 0
+ 64656 = N 6 0
+ 64800 = N 3 264
+ 64800 = N 6 0
+ 65088 = N 0 0
+ 65088 = N 6 0
+ 65088 = S 2 1344
+ 65184 = N 1 0
+ 65184 = N 6 0
+ 65280 = N 1 0
+ 65280 = N 6 0
+ 65328 = N 2 312
+ 65328 = N 6 0
+ 65664 = N 2 0
+ 65664 = N 6 0
+ 65760 = N 1 0
+ 65760 = N 6 0
+ 65856 = N 1 0
+ 65856 = N 6 0
+ 65904 = N 2 120
+ 65904 = N 6 0
+ 66048 = N 1 288
+ 66048 = N 6 0
+ 66496 = N 3 200
+ 66496 = N 6 0
+ 66720 = N 2 0
+ 66720 = N 6 0
+ 66816 = N 1 0
+ 66816 = N 6 0
+ 66864 = N 2 312
+ 66864 = N 6 0
+ 67200 = N 2 0
+ 67200 = N 6 0
+ 67296 = N 1 0
+ 67296 = N 6 0
+ 67392 = N 1 0
+ 67392 = N 6 0
+ 67440 = N 2 120
+ 67440 = N 6 0
+ 67584 = N 1 192
+ 67584 = N 6 0
+ 68040 = N 3 224
+ 68040 = N 6 0
+ 68288 = N 2 0
+ 68288 = N 6 0
+ 68352 = N 1 0
+ 68352 = N 6 0
+ 68448 = N 0 226
+ 68448 = N 6 0
+ 68736 = N 1 0
+ 68736 = N 6 0
+ 68813 = N 1 0
+ 68813 = N 6 0
+ 68890 = N 1 0
+ 68890 = N 6 0
+ 68966 = N 1 0
+ 68966 = N 6 0
+ 69043 = N 1 0
+ 69043 = N 6 0
+ 69120 = N 1 0
+ 69120 = N 6 0
+ 69197 = N 1 77
+ 69197 = N 6 0
+ 69792 = N 3 0
+ 69792 = N 6 0
+ 69888 = N 2 96
+ 69888 = N 6 0
+ 70008 = N 3 0
+ 70008 = N 6 0
+ 70080 = N 2 72
+ 70080 = N 6 0
+ 70176 = N 1 0
+ 70176 = N 6 0
+ 70240 = N 0 224
+ 70240 = N 6 0
+ 70560 = N 0 0
+ 70560 = N 6 0
+ 70656 = N 1 0
+ 70656 = N 6 0
+ 70752 = N 2 0
+ 70752 = N 6 0
+ 70848 = N 3 96
+ 70848 = N 6 0
+ 71424 = N 1 0
+ 71424 = N 6 0
+ 71472 = N 2 432
+ 71472 = N 6 0
+ 72000 = N 3 0
+ 72000 = N 6 0
+ 72060 = N 3 0
+ 72060 = N 6 0
+ 72132 = N 3 0
+ 72132 = N 6 0
+ 72192 = N 2 0
+ 72192 = N 6 0
+ 72240 = N 1 0
+ 72240 = N 6 0
+ 72288 = N 1 0
+ 72288 = N 6 0
+ 72336 = N 1 0
+ 72336 = N 6 0
+ 72384 = N 0 0
+ 72384 = N 6 0
+ 72432 = N 1 0
+ 72432 = N 6 0
+ 72480 = N 2 0
+ 72480 = N 6 0
+ 72576 = N 3 0
+ 72576 = N 6 0
+ 72624 = N 2 0
+ 72624 = N 6 0
+ 72672 = N 1 0
+ 72672 = N 6 0
+ 72720 = N 0 0
+ 72720 = N 6 0
+ 72768 = N 0 0
+ 72768 = N 6 0
+ 72816 = N 1 0
+ 72816 = N 6 0
+ 72864 = N 2 0
+ 72864 = N 6 0
+ 72912 = N 3 0
+ 72912 = N 6 0
+ 72976 = N 2 0
+ 72976 = N 6 0
+ 73032 = N 1 59
+ 73032 = N 6 0
+ 73104 = N 2 53
+ 73104 = N 6 0
+ 73168 = N 3 53
+ 73168 = N 6 0
+ 73232 = N 2 53
+ 73232 = N 6 0
+ 73296 = N 1 59
+ 73296 = N 6 0
+ 73368 = N 2 91
+ 73368 = N 6 0
+ 73472 = N 1 86
+ 73472 = N 6 0
+ 73568 = N 2 70
+ 73568 = N 6 0
+ 73648 = N 1 656
+ 73648 = N 6 0
+}
+[EasySingle]
+{
+ 928 = E solo
+ 960 = N 2 0
+ 960 = N 6 0
+ 1056 = N 1 0
+ 1056 = N 6 0
+ 1152 = N 0 0
+ 1152 = N 6 0
+ 1248 = N 1 0
+ 1248 = N 6 0
+ 1344 = N 2 0
+ 1344 = N 6 0
+ 1440 = N 1 0
+ 1440 = N 6 0
+ 1536 = N 0 168
+ 1536 = N 6 0
+ 1728 = N 2 0
+ 1728 = N 6 0
+ 1824 = N 1 456
+ 1824 = N 6 0
+ 2368 = N 1 0
+ 2368 = N 6 0
+ 2496 = N 2 0
+ 2496 = N 6 0
+ 2592 = N 1 0
+ 2592 = N 6 0
+ 2784 = N 2 0
+ 2784 = N 6 0
+ 2880 = N 1 0
+ 2880 = N 6 0
+ 2976 = N 1 0
+ 2976 = N 6 0
+ 3040 = N 0 205
+ 3040 = N 6 0
+ 3264 = N 2 0
+ 3264 = N 6 0
+ 3360 = N 1 456
+ 3360 = N 6 0
+ 3840 = S 2 1152
+ 3888 = N 2 72
+ 3888 = N 6 0
+ 4032 = N 1 120
+ 4032 = N 6 0
+ 4224 = N 0 120
+ 4224 = N 6 0
+ 4416 = N 2 0
+ 4416 = N 6 0
+ 4512 = N 1 0
+ 4512 = N 6 0
+ 4608 = N 0 168
+ 4608 = N 6 0
+ 4800 = N 2 0
+ 4800 = N 6 0
+ 4896 = N 1 400
+ 4896 = N 6 0
+ 5376 = N 2 168
+ 5376 = N 6 0
+ 5568 = N 1 0
+ 5568 = N 6 0
+ 5728 = N 2 104
+ 5728 = N 6 0
+ 5856 = N 1 0
+ 5856 = N 6 0
+ 5920 = N 0 200
+ 5920 = N 6 0
+ 6144 = N 2 192
+ 6144 = N 6 0
+ 6432 = N 1 480
+ 6432 = N 6 0
+ 7104 = N 2 0
+ 7104 = N 6 0
+ 7296 = N 1 0
+ 7296 = N 6 0
+ 7392 = N 0 0
+ 7392 = N 6 0
+ 7536 = N 0 0
+ 7536 = N 6 0
+ 7632 = N 2 126
+ 7632 = N 6 0
+ 7776 = N 0 0
+ 7776 = N 6 0
+ 7872 = N 2 0
+ 7872 = N 6 0
+ 7968 = N 1 317
+ 7968 = N 6 0
+ 8304 = N 0 96
+ 8304 = N 6 0
+ 8448 = N 2 136
+ 8448 = N 6 0
+ 8640 = N 0 0
+ 8640 = N 6 0
+ 8784 = N 1 88
+ 8784 = N 6 0
+ 8928 = N 2 0
+ 8928 = N 6 0
+ 9024 = N 1 0
+ 9024 = N 6 0
+ 9216 = N 0 168
+ 9216 = N 6 0
+ 9408 = N 1 0
+ 9408 = N 6 0
+ 9504 = N 1 456
+ 9504 = N 6 0
+ 9888 = E soloend
+ 9984 = N 1 360
+ 9984 = N 6 0
+ 10368 = N 2 0
+ 10368 = N 6 0
+ 10464 = N 1 0
+ 10464 = N 6 0
+ 10560 = N 1 168
+ 10560 = N 6 0
+ 10752 = N 0 0
+ 10752 = N 6 0
+ 10800 = N 0 120
+ 10800 = N 6 0
+ 11040 = N 2 168
+ 11040 = N 6 0
+ 11232 = N 0 0
+ 11232 = N 6 0
+ 11328 = N 1 0
+ 11328 = N 6 0
+ 11520 = N 1 360
+ 11520 = N 6 0
+ 11520 = S 2 1536
+ 11904 = N 2 0
+ 11904 = N 6 0
+ 12000 = N 1 0
+ 12000 = N 6 0
+ 12096 = N 1 168
+ 12096 = N 6 0
+ 12288 = N 0 0
+ 12288 = N 6 0
+ 12336 = N 0 72
+ 12336 = N 6 0
+ 12480 = N 2 0
+ 12480 = N 6 0
+ 12576 = N 1 480
+ 12576 = N 6 0
+ 13152 = N 0 0
+ 13152 = N 6 0
+ 13312 = N 1 0
+ 13312 = N 6 0
+ 13440 = N 2 0
+ 13440 = N 6 0
+ 13632 = N 1 0
+ 13632 = N 6 0
+ 13824 = N 1 0
+ 13824 = N 6 0
+ 14016 = N 1 0
+ 14016 = N 6 0
+ 14112 = N 0 384
+ 14112 = N 6 0
+ 14688 = N 0 0
+ 14688 = N 6 0
+ 14880 = N 2 0
+ 14880 = N 6 0
+ 14976 = N 1 168
+ 14976 = N 6 0
+ 15168 = N 2 0
+ 15168 = N 6 0
+ 15360 = N 2 136
+ 15360 = N 6 0
+ 15520 = N 1 136
+ 15520 = N 6 0
+ 15680 = N 0 256
+ 15680 = N 6 0
+ 16128 = N 0 0
+ 16128 = N 6 0
+ 16288 = N 1 0
+ 16288 = N 6 0
+ 16416 = N 2 136
+ 16416 = N 6 0
+ 16576 = N 1 104
+ 16576 = N 6 0
+ 16704 = N 0 0
+ 16704 = N 6 0
+ 16896 = N 0 0
+ 16896 = N 6 0
+ 17088 = N 1 0
+ 17088 = N 6 0
+ 17184 = N 1 224
+ 17184 = N 6 0
+ 17664 = N 0 0
+ 17664 = N 6 0
+ 17824 = N 1 0
+ 17824 = N 6 0
+ 17920 = N 0 0
+ 17920 = N 6 0
+ 18048 = N 1 0
+ 18048 = N 6 0
+ 18240 = N 1 0
+ 18240 = N 6 0
+ 18432 = N 2 0
+ 18432 = N 6 0
+ 18720 = N 1 0
+ 18720 = N 6 0
+ 18912 = N 0 0
+ 18912 = N 6 0
+ 19008 = N 0 0
+ 19008 = N 6 0
+ 19104 = N 0 456
+ 19104 = N 6 0
+ 19584 = N 2 0
+ 19584 = N 6 0
+ 19776 = N 1 168
+ 19776 = N 6 0
+ 19968 = N 0 0
+ 19968 = N 6 0
+ 20016 = N 0 144
+ 20016 = N 6 0
+ 20256 = N 2 168
+ 20256 = N 6 0
+ 20448 = N 0 0
+ 20448 = N 6 0
+ 20544 = N 1 0
+ 20544 = N 6 0
+ 20640 = N 1 840
+ 20640 = N 6 0
+ 21504 = N 0 0
+ 21504 = N 6 0
+ 21552 = N 0 96
+ 21552 = N 6 0
+ 21696 = N 2 0
+ 21696 = N 6 0
+ 21792 = N 1 384
+ 21792 = N 6 0
+ 22272 = S 2 1536
+ 22368 = N 0 0
+ 22368 = N 6 0
+ 22528 = N 1 72
+ 22528 = N 6 0
+ 22656 = N 2 0
+ 22656 = N 6 0
+ 22752 = N 1 0
+ 22752 = N 6 0
+ 22848 = N 0 0
+ 22848 = N 6 0
+ 23040 = N 2 0
+ 23040 = N 6 0
+ 23232 = N 1 0
+ 23232 = N 6 0
+ 23328 = N 0 480
+ 23328 = N 6 0
+ 23904 = N 0 0
+ 23904 = N 6 0
+ 24096 = N 2 0
+ 24096 = N 6 0
+ 24192 = N 1 0
+ 24192 = N 6 0
+ 24384 = N 0 0
+ 24384 = N 6 0
+ 24576 = N 1 0
+ 24576 = N 6 0
+ 24768 = N 0 0
+ 24768 = N 6 0
+ 24864 = N 0 384
+ 24864 = N 6 0
+ 25344 = N 0 0
+ 25344 = N 6 0
+ 25504 = N 1 0
+ 25504 = N 6 0
+ 25632 = N 2 136
+ 25632 = N 6 0
+ 25792 = N 1 104
+ 25792 = N 6 0
+ 25920 = N 0 0
+ 25920 = N 6 0
+ 26112 = N 0 0
+ 26112 = N 6 0
+ 26304 = N 1 0
+ 26304 = N 6 0
+ 26400 = N 1 288
+ 26400 = N 6 0
+ 26880 = N 0 0
+ 26880 = N 6 0
+ 27040 = N 1 0
+ 27040 = N 6 0
+ 27136 = N 0 0
+ 27136 = N 6 0
+ 27264 = N 1 0
+ 27264 = N 6 0
+ 27456 = N 1 0
+ 27456 = N 6 0
+ 27648 = N 2 0
+ 27648 = N 6 0
+ 27840 = N 2 0
+ 27840 = N 6 0
+ 27936 = N 1 0
+ 27936 = N 6 0
+ 28128 = N 0 0
+ 28128 = N 6 0
+ 28224 = N 0 0
+ 28224 = N 6 0
+ 28320 = N 0 768
+ 28320 = N 6 0
+ 29184 = N 0 0
+ 29184 = N 6 0
+ 29232 = N 0 144
+ 29232 = N 6 0
+ 29472 = N 0 168
+ 29472 = N 6 0
+ 29664 = N 0 0
+ 29664 = N 6 0
+ 29760 = N 1 0
+ 29760 = N 6 0
+ 29856 = N 1 696
+ 29856 = N 6 0
+ 30720 = N 2 768
+ 30720 = N 6 0
+ 31680 = N 1 0
+ 31680 = N 6 0
+ 31776 = N 2 168
+ 31776 = N 6 0
+ 31968 = N 1 0
+ 31968 = N 6 0
+ 32064 = N 1 0
+ 32064 = N 6 0
+ 32256 = N 1 0
+ 32256 = N 6 0
+ 32448 = N 0 0
+ 32448 = N 6 0
+ 32544 = N 1 384
+ 32544 = N 6 0
+ 33024 = N 0 120
+ 33024 = N 6 0
+ 33024 = S 2 768
+ 33168 = N 1 120
+ 33168 = N 6 0
+ 33312 = N 2 456
+ 33312 = N 6 0
+ 33792 = N 1 240
+ 33792 = N 6 0
+ 34176 = N 2 0
+ 34176 = N 6 0
+ 34272 = N 1 0
+ 34272 = N 6 0
+ 34368 = N 1 168
+ 34368 = N 6 0
+ 34560 = N 0 0
+ 34560 = N 6 0
+ 34608 = N 0 144
+ 34608 = N 6 0
+ 34848 = N 1 384
+ 34848 = N 6 0
+ 35328 = N 1 240
+ 35328 = N 6 0
+ 35712 = N 2 0
+ 35712 = N 6 0
+ 35904 = N 1 168
+ 35904 = N 6 0
+ 36096 = N 0 0
+ 36096 = N 6 0
+ 36144 = N 0 120
+ 36144 = N 6 0
+ 36288 = N 2 0
+ 36288 = N 6 0
+ 36384 = N 1 480
+ 36384 = N 6 0
+ 36960 = N 2 0
+ 36960 = N 6 0
+ 36960 = E solo
+ 37344 = N 0 0
+ 37344 = N 6 0
+ 37440 = N 1 96
+ 37440 = N 6 0
+ 37824 = N 1 0
+ 37824 = N 6 0
+ 37920 = N 0 0
+ 37920 = N 6 0
+ 38016 = N 0 0
+ 38016 = N 6 0
+ 38176 = N 0 72
+ 38176 = N 6 0
+ 38400 = N 0 0
+ 38400 = N 6 0
+ 38544 = N 1 0
+ 38544 = N 6 0
+ 38688 = N 0 0
+ 38688 = N 6 0
+ 38976 = N 2 0
+ 38976 = N 6 0
+ 39072 = N 1 0
+ 39072 = N 6 0
+ 39360 = N 0 0
+ 39360 = N 6 0
+ 39520 = N 1 0
+ 39520 = N 6 0
+ 39648 = N 2 0
+ 39648 = N 6 0
+ 39744 = N 0 0
+ 39744 = N 6 0
+ 39936 = N 0 0
+ 39936 = N 6 0
+ 40000 = N 0 0
+ 40000 = N 6 0
+ 40384 = N 1 0
+ 40384 = N 6 0
+ 40512 = N 2 0
+ 40512 = N 6 0
+ 40704 = N 1 0
+ 40704 = N 6 0
+ 40896 = N 0 0
+ 40896 = N 6 0
+ 40960 = N 1 0
+ 40960 = N 6 0
+ 41280 = N 0 0
+ 41280 = N 6 0
+ 41424 = N 1 0
+ 41424 = N 6 0
+ 41520 = N 2 93
+ 41520 = N 6 0
+ 41632 = N 2 104
+ 41632 = N 6 0
+ 41760 = N 1 0
+ 41760 = N 6 0
+ 41856 = N 1 0
+ 41856 = N 6 0
+ 41920 = N 0 200
+ 41920 = N 6 0
+ 42144 = N 1 0
+ 42144 = N 6 0
+ 42240 = S 2 2304
+ 42624 = N 0 0
+ 42624 = N 6 0
+ 42752 = N 1 104
+ 42752 = N 6 0
+ 42880 = N 2 72
+ 42880 = N 6 0
+ 42976 = N 1 296
+ 42976 = N 6 0
+ 43296 = N 2 0
+ 43296 = N 6 0
+ 43392 = N 2 0
+ 43392 = N 6 0
+ 43488 = N 2 0
+ 43488 = N 6 0
+ 43584 = N 2 0
+ 43584 = N 6 0
+ 43680 = N 2 0
+ 43680 = N 6 0
+ 43776 = N 2 0
+ 43776 = N 6 0
+ 43872 = N 2 0
+ 43872 = N 6 0
+ 43968 = N 2 0
+ 43968 = N 6 0
+ 44096 = N 2 128
+ 44096 = N 6 0
+ 44224 = E soloend
+ 44640 = N 0 0
+ 44640 = N 6 0
+ 44832 = N 2 0
+ 44832 = N 6 0
+ 44928 = N 1 744
+ 44928 = N 6 0
+ 45696 = N 2 0
+ 45696 = N 6 0
+ 45792 = N 2 0
+ 45792 = N 6 0
+ 45888 = N 2 0
+ 45888 = N 6 0
+ 46080 = N 0 0
+ 46080 = N 6 0
+ 46240 = N 1 0
+ 46240 = N 6 0
+ 46368 = N 2 136
+ 46368 = N 6 0
+ 46624 = N 2 72
+ 46624 = N 6 0
+ 46848 = N 0 0
+ 46848 = N 6 0
+ 47008 = N 1 0
+ 47008 = N 6 0
+ 47136 = N 2 328
+ 47136 = N 6 0
+ 47488 = N 2 104
+ 47488 = N 6 0
+ 47616 = N 0 0
+ 47616 = N 6 0
+ 47776 = N 1 0
+ 47776 = N 6 0
+ 47872 = N 0 0
+ 47872 = N 6 0
+ 48000 = N 1 0
+ 48000 = N 6 0
+ 48192 = N 1 0
+ 48192 = N 6 0
+ 48384 = N 1 0
+ 48384 = N 6 0
+ 48576 = N 1 0
+ 48576 = N 6 0
+ 48672 = N 2 104
+ 48672 = N 6 0
+ 48864 = N 2 0
+ 48864 = N 6 0
+ 48992 = N 2 0
+ 48992 = N 6 0
+ 49152 = N 2 744
+ 49152 = N 6 0
+ 49920 = N 1 360
+ 49920 = N 6 0
+ 50304 = N 0 384
+ 50304 = N 6 0
+ 51168 = N 0 0
+ 51168 = N 6 0
+ 51264 = N 0 0
+ 51264 = N 6 0
+ 51360 = N 0 1152
+ 51360 = N 6 0
+ 52704 = N 0 0
+ 52704 = N 6 0
+ 52800 = N 0 0
+ 52800 = N 6 0
+ 52896 = N 0 0
+ 52896 = N 6 0
+ 52992 = N 1 240
+ 52992 = N 6 0
+ 52992 = S 2 1536
+ 53376 = N 2 0
+ 53376 = N 6 0
+ 53568 = N 1 168
+ 53568 = N 6 0
+ 53760 = N 0 0
+ 53760 = N 6 0
+ 53808 = N 0 144
+ 53808 = N 6 0
+ 54048 = N 2 384
+ 54048 = N 6 0
+ 54528 = N 1 240
+ 54528 = N 6 0
+ 54912 = N 2 0
+ 54912 = N 6 0
+ 55104 = N 1 168
+ 55104 = N 6 0
+ 55296 = N 0 0
+ 55296 = N 6 0
+ 55344 = N 0 120
+ 55344 = N 6 0
+ 55488 = N 2 0
+ 55488 = N 6 0
+ 55584 = N 1 432
+ 55584 = N 6 0
+ 56064 = N 1 0
+ 56064 = N 6 0
+ 56208 = N 2 124
+ 56208 = N 6 0
+ 56352 = N 1 0
+ 56352 = N 6 0
+ 56496 = N 2 124
+ 56496 = N 6 0
+ 56640 = N 1 0
+ 56640 = N 6 0
+ 56784 = N 2 124
+ 56784 = N 6 0
+ 56928 = N 1 0
+ 56928 = N 6 0
+ 57072 = N 2 124
+ 57072 = N 6 0
+ 57216 = N 1 0
+ 57216 = N 6 0
+ 57408 = N 0 0
+ 57408 = N 6 0
+ 57472 = N 0 608
+ 57472 = N 6 0
+ 58368 = N 1 0
+ 58368 = N 6 0
+ 58512 = N 2 0
+ 58512 = N 6 0
+ 58752 = N 1 0
+ 58752 = N 6 0
+ 58896 = N 0 0
+ 58896 = N 6 0
+ 59040 = N 1 192
+ 59040 = N 6 0
+ 59328 = N 1 0
+ 59328 = N 6 0
+ 59424 = N 1 0
+ 59424 = N 6 0
+ 59520 = N 2 0
+ 59520 = N 6 0
+ 59712 = N 1 0
+ 59712 = N 6 0
+ 59856 = N 2 120
+ 59856 = N 6 0
+ 60048 = N 1 0
+ 60048 = N 6 0
+ 60192 = N 0 264
+ 60192 = N 6 0
+ 60480 = N 0 0
+ 60480 = N 6 0
+ 60672 = N 1 0
+ 60672 = N 6 0
+ 60816 = N 2 124
+ 60816 = N 6 0
+ 60960 = N 1 0
+ 60960 = N 6 0
+ 61120 = N 2 104
+ 61120 = N 6 0
+ 61248 = N 1 0
+ 61248 = N 6 0
+ 61392 = N 2 124
+ 61392 = N 6 0
+ 61536 = N 1 0
+ 61536 = N 6 0
+ 61696 = N 2 104
+ 61696 = N 6 0
+ 61824 = N 1 0
+ 61824 = N 6 0
+ 62016 = N 0 0
+ 62016 = N 6 0
+ 62112 = N 0 768
+ 62112 = N 6 0
+ 62976 = N 1 0
+ 62976 = N 6 0
+ 63120 = N 2 0
+ 63120 = N 6 0
+ 63360 = N 1 0
+ 63360 = N 6 0
+ 63504 = N 0 0
+ 63504 = N 6 0
+ 63648 = N 1 192
+ 63648 = N 6 0
+ 63936 = N 1 0
+ 63936 = N 6 0
+ 64032 = N 1 0
+ 64032 = N 6 0
+ 64128 = N 2 0
+ 64128 = N 6 0
+ 64320 = N 1 0
+ 64320 = N 6 0
+ 64464 = N 2 120
+ 64464 = N 6 0
+ 64656 = N 1 0
+ 64656 = N 6 0
+ 64800 = N 2 264
+ 64800 = N 6 0
+ 65088 = N 0 0
+ 65088 = N 6 0
+ 65088 = S 2 1344
+ 65280 = N 1 360
+ 65280 = N 6 0
+ 65664 = N 2 0
+ 65664 = N 6 0
+ 65760 = N 1 0
+ 65760 = N 6 0
+ 65856 = N 1 168
+ 65856 = N 6 0
+ 66048 = N 1 288
+ 66048 = N 6 0
+ 66496 = N 2 200
+ 66496 = N 6 0
+ 66816 = N 1 360
+ 66816 = N 6 0
+ 67200 = N 2 0
+ 67200 = N 6 0
+ 67296 = N 1 0
+ 67296 = N 6 0
+ 67392 = N 1 168
+ 67392 = N 6 0
+ 67584 = N 1 192
+ 67584 = N 6 0
+ 68040 = N 2 224
+ 68040 = N 6 0
+ 68352 = N 1 0
+ 68352 = N 6 0
+ 68448 = N 0 226
+ 68448 = N 6 0
+ 68736 = N 1 0
+ 68736 = N 6 0
+ 68890 = N 1 0
+ 68890 = N 6 0
+ 69043 = N 1 0
+ 69043 = N 6 0
+ 69197 = N 1 77
+ 69197 = N 6 0
+ 69792 = N 2 0
+ 69792 = N 6 0
+ 69888 = N 1 96
+ 69888 = N 6 0
+ 70080 = N 2 72
+ 70080 = N 6 0
+ 70176 = N 1 0
+ 70176 = N 6 0
+ 70240 = N 0 224
+ 70240 = N 6 0
+ 70656 = N 0 0
+ 70656 = N 6 0
+ 70752 = N 1 0
+ 70752 = N 6 0
+ 70848 = N 2 96
+ 70848 = N 6 0
+ 71424 = N 1 480
+ 71424 = N 6 0
+ 72000 = N 2 0
+ 72000 = N 6 0
+ 72132 = N 2 0
+ 72132 = N 6 0
+ 72240 = N 1 0
+ 72240 = N 6 0
+ 72336 = N 1 0
+ 72336 = N 6 0
+ 72384 = N 0 0
+ 72384 = N 6 0
+ 72480 = N 1 0
+ 72480 = N 6 0
+ 72576 = N 2 0
+ 72576 = N 6 0
+ 72672 = N 1 0
+ 72672 = N 6 0
+ 72768 = N 0 0
+ 72768 = N 6 0
+ 72864 = N 1 0
+ 72864 = N 6 0
+ 72912 = N 2 0
+ 72912 = N 6 0
+ 72976 = N 1 0
+ 72976 = N 6 0
+ 73032 = N 0 59
+ 73032 = N 6 0
+ 73104 = N 1 53
+ 73104 = N 6 0
+ 73168 = N 2 53
+ 73168 = N 6 0
+ 73232 = N 1 48
+ 73232 = N 6 0
+ 73296 = N 0 59
+ 73296 = N 6 0
+ 73368 = N 1 91
+ 73368 = N 6 0
+ 73472 = N 0 86
+ 73472 = N 6 0
+ 73568 = N 1 70
+ 73568 = N 6 0
+ 73648 = N 0 656
+ 73648 = N 6 0
+}