summaryrefslogtreecommitdiff
path: root/songs/Stevie-Wonder-Contusion/notes.chart
diff options
context:
space:
mode:
Diffstat (limited to 'songs/Stevie-Wonder-Contusion/notes.chart')
-rw-r--r--songs/Stevie-Wonder-Contusion/notes.chart2914
1 files changed, 2914 insertions, 0 deletions
diff --git a/songs/Stevie-Wonder-Contusion/notes.chart b/songs/Stevie-Wonder-Contusion/notes.chart
new file mode 100644
index 0000000..cd84cc9
--- /dev/null
+++ b/songs/Stevie-Wonder-Contusion/notes.chart
@@ -0,0 +1,2914 @@
+[Song]
+{
+ Name = "Contusion"
+ Artist = "Stevie Wonder"
+ Charter = "GuitarZero132"
+ Album = "Songs in the Key of Life"
+ Year = ", 1976"
+ Offset = 0
+ Resolution = 192
+ Player2 = bass
+ Difficulty = 0
+ PreviewStart = 0
+ PreviewEnd = 0
+ Genre = "Jazz Fusion"
+ MediaType = "cd"
+ MusicStream = "song.ogg"
+}
+[SyncTrack]
+{
+ 0 = TS 4
+ 0 = B 115000
+ 1536 = B 122000
+ 2688 = B 124000
+ 5760 = B 125000
+ 6528 = B 123000
+ 8064 = B 124000
+ 9216 = B 126000
+ 9792 = B 125000
+ 10752 = TS 4
+ 10752 = B 124000
+ 11520 = TS 5
+ 12288 = B 125000
+ 13056 = B 126000
+ 13440 = TS 4
+ 13440 = B 127000
+ 16128 = B 130000
+ 16512 = TS 6
+ 16512 = B 129000
+ 17664 = TS 4
+ 17664 = B 131000
+ 18432 = TS 6
+ 18816 = B 134000
+ 19200 = B 129000
+ 19584 = TS 5
+ 19584 = B 126000
+ 20544 = B 129000
+ 21504 = TS 4
+ 21504 = B 130000
+ 23040 = B 133000
+ 23424 = B 130000
+ 24576 = TS 6
+ 25728 = TS 4
+ 25728 = B 134000
+ 26880 = B 138000
+ 27264 = B 120000
+ 28032 = B 129000
+ 30144 = B 130000
+ 33024 = B 129000
+ 33600 = B 128000
+ 34176 = B 126000
+ 34944 = B 130000
+ 40320 = TS 5
+ 40320 = B 125000
+ 41280 = B 127000
+ 42240 = TS 4
+ 42240 = B 129000
+ 43776 = B 131000
+ 44736 = B 129000
+ 45312 = TS 6
+ 46080 = B 135000
+ 46464 = TS 4
+ 46464 = B 130000
+ 47232 = TS 6
+ 47616 = B 137000
+ 48000 = B 125000
+ 48384 = TS 5
+ 48384 = B 127000
+ 50112 = B 130000
+ 50304 = TS 4
+ 51072 = B 130000
+ 53376 = TS 6
+ 54528 = TS 4
+ 54528 = B 132000
+ 56064 = B 123000
+ 56832 = TS 4
+ 56832 = B 128000
+ 57600 = B 130000
+ 59136 = B 130000
+ 61632 = B 133000
+ 62208 = B 130000
+ 62976 = B 127000
+ 63552 = B 129000
+ 66816 = B 131000
+ 67584 = B 128000
+ 69120 = TS 5
+ 69120 = B 127000
+ 69504 = B 126000
+ 70848 = B 132000
+ 71040 = TS 4
+ 72576 = B 136000
+ 72960 = B 131000
+ 74112 = TS 6
+ 74112 = B 129000
+ 74880 = B 135000
+ 75264 = TS 4
+ 75264 = B 133000
+ 76032 = TS 6
+ 76416 = B 141000
+ 76800 = B 127000
+ 77184 = TS 5
+ 77184 = B 128000
+ 78912 = B 132000
+ 79104 = TS 4
+ 79104 = B 131000
+ 82176 = TS 6
+ 82944 = B 134000
+ 83328 = TS 4
+ 84096 = TS 5
+ 85056 = TS 4
+ 85056 = B 132000
+ 85824 = TS 5
+ 86016 = B 138000
+ 86784 = TS 4
+ 86784 = B 128000
+ 87360 = B 137000
+ 87552 = TS 5
+ 88128 = B 130000
+ 88512 = TS 4
+ 89088 = B 136000
+ 89280 = TS 5
+ 90240 = TS 4
+ 90240 = B 133000
+ 91008 = B 141000
+ 91776 = B 136000
+ 92160 = B 132000
+ 93312 = B 125000
+ 93696 = B 122000
+}
+[Events]
+{
+ 1440 = E "section Intro"
+ 11328 = E "section Chorus 1A"
+ 19392 = E "section Chorus 1B"
+ 28032 = E "section Verse 1A"
+ 34176 = E "section Verse 1B"
+ 40128 = E "section Chorus 2A"
+ 48192 = E "section Chorus 2B"
+ 56832 = E "section Verse 2A"
+ 62976 = E "section Verse 2B"
+ 68928 = E "section Chorus 3A"
+ 76992 = E "section Chorus 3B"
+ 83328 = E "section Outro"
+ 91776 = E "section Ending"
+}
+[ExpertSingle]
+{
+ 1536 = N 3 0
+ 1536 = N 4 0
+ 1680 = N 2 0
+ 1680 = N 3 0
+ 2112 = N 1 0
+ 2208 = N 1 0
+ 2304 = N 1 0
+ 2400 = N 1 0
+ 2496 = N 1 0
+ 2592 = N 1 0
+ 2688 = N 1 0
+ 2784 = N 1 0
+ 2880 = N 1 0
+ 3072 = N 3 0
+ 3072 = N 4 0
+ 3216 = N 2 0
+ 3216 = N 3 0
+ 3504 = N 1 0
+ 3600 = N 1 0
+ 3648 = N 1 0
+ 3744 = N 1 0
+ 3840 = N 1 0
+ 3936 = N 1 0
+ 4032 = N 1 0
+ 4128 = N 1 0
+ 4224 = N 1 0
+ 4320 = N 1 0
+ 4416 = N 1 0
+ 4464 = N 2 112
+ 4608 = N 2 0
+ 4608 = N 4 0
+ 4752 = N 1 0
+ 4752 = N 3 0
+ 5040 = N 1 0
+ 5184 = N 1 0
+ 5424 = N 1 0
+ 5616 = N 1 0
+ 5760 = N 1 0
+ 5856 = N 1 0
+ 5952 = N 1 0
+ 6144 = N 2 0
+ 6144 = N 4 0
+ 6144 = S 2 1536
+ 6288 = N 1 0
+ 6288 = N 3 0
+ 6624 = N 1 0
+ 6720 = N 1 0
+ 6768 = N 1 0
+ 6912 = N 1 0
+ 6960 = N 1 0
+ 7056 = N 1 0
+ 7200 = N 1 0
+ 7248 = N 1 0
+ 7392 = N 1 0
+ 7488 = N 1 0
+ 7536 = N 2 112
+ 7680 = N 1 0
+ 7680 = N 4 0
+ 7824 = N 0 0
+ 7824 = N 3 0
+ 8064 = N 1 0
+ 8160 = N 1 0
+ 8256 = N 1 0
+ 8448 = N 1 0
+ 8544 = N 1 0
+ 8640 = N 1 0
+ 8736 = N 1 0
+ 8832 = N 1 0
+ 8928 = N 1 0
+ 9216 = N 2 0
+ 9216 = N 4 0
+ 9360 = N 1 0
+ 9360 = N 3 0
+ 9600 = N 1 0
+ 9744 = N 1 0
+ 9888 = N 1 0
+ 10032 = N 1 0
+ 10176 = N 1 0
+ 10272 = N 1 0
+ 10368 = N 1 0
+ 10464 = N 1 0
+ 10560 = N 1 0
+ 10608 = N 2 624
+ 11328 = N 0 0
+ 11376 = N 1 0
+ 11424 = N 2 0
+ 11472 = N 1 0
+ 11520 = N 3 160
+ 11712 = N 1 0
+ 11808 = N 1 0
+ 11856 = N 2 400
+ 12288 = N 1 0
+ 12336 = N 2 0
+ 12384 = N 3 0
+ 12432 = N 2 0
+ 12480 = N 4 160
+ 12672 = N 2 0
+ 12768 = N 2 0
+ 12816 = N 3 288
+ 13248 = N 0 0
+ 13296 = N 1 0
+ 13344 = N 2 0
+ 13392 = N 3 0
+ 13440 = N 3 0
+ 13488 = N 4 2032
+ 15360 = S 2 768
+ 15600 = N 2 0
+ 15600 = N 3 0
+ 15744 = N 0 0
+ 15840 = N 1 0
+ 15888 = N 2 0
+ 15984 = N 2 0
+ 15984 = N 3 0
+ 16128 = N 0 0
+ 16128 = N 1 0
+ 16224 = N 0 0
+ 16224 = N 2 0
+ 16320 = N 0 0
+ 16320 = N 1 0
+ 16416 = N 0 0
+ 16416 = N 2 0
+ 16512 = N 0 0
+ 16608 = N 0 0
+ 16656 = N 0 0
+ 16704 = N 0 0
+ 16704 = N 1 0
+ 16800 = N 0 0
+ 16800 = N 2 0
+ 16896 = N 0 0
+ 16896 = N 1 0
+ 16992 = N 0 0
+ 16992 = N 2 0
+ 17088 = N 0 0
+ 17136 = N 0 0
+ 17184 = N 0 0
+ 17232 = N 0 0
+ 17280 = N 0 0
+ 17280 = N 1 0
+ 17376 = N 0 0
+ 17376 = N 2 0
+ 17472 = N 0 0
+ 17472 = N 1 0
+ 17568 = N 0 0
+ 17568 = N 2 0
+ 17664 = N 3 0
+ 17664 = N 4 0
+ 17808 = N 3 0
+ 17808 = N 4 0
+ 17952 = N 2 0
+ 17952 = N 4 0
+ 18096 = N 2 0
+ 18096 = N 4 0
+ 18240 = N 2 0
+ 18240 = N 3 0
+ 18384 = N 2 0
+ 18384 = N 3 0
+ 18528 = N 1 0
+ 18528 = N 3 0
+ 18672 = N 1 0
+ 18672 = N 3 0
+ 18816 = N 2 0
+ 18816 = N 4 0
+ 19008 = N 2 0
+ 19008 = N 3 0
+ 19200 = N 0 160
+ 19200 = N 3 160
+ 19392 = N 0 0
+ 19440 = N 1 0
+ 19488 = N 2 0
+ 19536 = N 1 0
+ 19584 = N 3 160
+ 19776 = N 1 0
+ 19872 = N 1 0
+ 19920 = N 2 400
+ 20352 = N 1 0
+ 20400 = N 2 0
+ 20448 = N 3 0
+ 20496 = N 2 0
+ 20544 = N 4 160
+ 20736 = N 2 0
+ 20832 = N 2 0
+ 20880 = N 3 288
+ 21312 = N 0 0
+ 21360 = N 1 0
+ 21408 = N 2 0
+ 21456 = N 3 0
+ 21504 = N 3 0
+ 21552 = N 4 1488
+ 23664 = N 2 0
+ 23664 = N 3 0
+ 23856 = N 2 0
+ 23856 = N 3 0
+ 23904 = N 2 0
+ 23904 = N 5 0
+ 23952 = N 2 0
+ 23952 = N 3 0
+ 24000 = N 2 0
+ 24000 = N 5 0
+ 24048 = N 2 0
+ 24096 = N 2 0
+ 24096 = N 3 0
+ 24192 = N 0 0
+ 24192 = N 1 0
+ 24288 = N 0 0
+ 24288 = N 2 0
+ 24384 = N 0 0
+ 24384 = N 1 0
+ 24480 = N 0 0
+ 24480 = N 2 0
+ 24576 = N 0 0
+ 24672 = N 0 0
+ 24720 = N 0 0
+ 24768 = N 0 0
+ 24768 = N 1 0
+ 24864 = N 0 0
+ 24864 = N 2 0
+ 24960 = N 0 0
+ 24960 = N 1 0
+ 25056 = N 0 0
+ 25056 = N 2 0
+ 25152 = N 0 0
+ 25200 = N 0 0
+ 25248 = N 0 0
+ 25296 = N 0 0
+ 25344 = N 0 0
+ 25344 = N 1 0
+ 25440 = N 0 0
+ 25440 = N 2 0
+ 25536 = N 0 0
+ 25536 = N 1 0
+ 25632 = N 0 0
+ 25632 = N 2 0
+ 25728 = N 3 0
+ 25728 = N 4 0
+ 25728 = S 2 1920
+ 25872 = N 3 0
+ 25872 = N 4 0
+ 26016 = N 2 0
+ 26016 = N 4 0
+ 26160 = N 2 0
+ 26160 = N 4 0
+ 26304 = N 2 0
+ 26304 = N 3 0
+ 26448 = N 2 0
+ 26448 = N 3 0
+ 26592 = N 1 0
+ 26592 = N 3 0
+ 26688 = N 1 0
+ 26688 = N 3 0
+ 26880 = N 2 0
+ 26880 = N 4 0
+ 27072 = N 2 0
+ 27072 = N 3 0
+ 27264 = N 0 576
+ 27264 = N 3 576
+ 28032 = N 4 0
+ 28080 = N 3 0
+ 28128 = N 2 0
+ 28176 = N 1 0
+ 28224 = N 0 0
+ 28272 = N 2 0
+ 28320 = N 1 0
+ 28368 = N 0 0
+ 28416 = N 3 0
+ 28464 = N 2 0
+ 28512 = N 4 0
+ 28560 = N 3 0
+ 28608 = N 2 0
+ 28656 = N 1 0
+ 28704 = N 2 0
+ 28752 = N 1 0
+ 28800 = N 0 0
+ 28848 = N 2 0
+ 28896 = N 1 0
+ 28944 = N 3 0
+ 28992 = N 2 0
+ 29040 = N 4 0
+ 29088 = N 0 0
+ 29136 = N 2 0
+ 29184 = N 1 0
+ 29232 = N 3 0
+ 29280 = N 2 0
+ 29328 = N 4 96
+ 29568 = N 4 0
+ 29616 = N 1 0
+ 29664 = N 2 0
+ 29712 = N 4 0
+ 29760 = N 3 0
+ 29808 = N 2 0
+ 29856 = N 1 0
+ 29904 = N 0 112
+ 30048 = N 1 0
+ 30096 = N 4 0
+ 30144 = N 3 0
+ 30192 = N 1 0
+ 30240 = N 0 0
+ 30288 = N 1 0
+ 30336 = N 2 576
+ 31104 = N 3 0
+ 31136 = N 4 0
+ 31168 = N 3 0
+ 31200 = N 2 0
+ 31248 = N 1 0
+ 31296 = N 3 0
+ 31344 = N 2 0
+ 31392 = N 1 0
+ 31440 = N 0 0
+ 31488 = N 1 0
+ 31536 = N 0 0
+ 31584 = N 4 0
+ 31632 = N 3 0
+ 31680 = N 2 0
+ 31728 = N 1 0
+ 31776 = N 3 0
+ 31824 = N 1 0
+ 31872 = N 2 0
+ 31920 = N 1 0
+ 31968 = N 0 0
+ 32016 = N 1 0
+ 32064 = N 3 0
+ 32112 = N 2 0
+ 32160 = N 4 0
+ 32208 = N 2 0
+ 32256 = N 3 0
+ 32304 = N 1 0
+ 32352 = N 0 0
+ 32400 = N 2 0
+ 32640 = N 0 0
+ 32688 = N 1 0
+ 32736 = N 2 0
+ 32784 = N 3 0
+ 32832 = N 4 0
+ 32880 = N 3 0
+ 32928 = N 2 0
+ 32976 = N 1 0
+ 33024 = N 3 0
+ 33072 = N 1 0
+ 33120 = N 2 0
+ 33168 = N 1 0
+ 33216 = N 0 0
+ 33264 = N 1 0
+ 33312 = N 2 0
+ 33360 = N 3 624
+ 34176 = N 4 0
+ 34224 = N 3 0
+ 34272 = N 2 0
+ 34320 = N 1 0
+ 34368 = N 0 0
+ 34416 = N 2 0
+ 34464 = N 1 0
+ 34512 = N 0 0
+ 34560 = N 3 0
+ 34608 = N 2 0
+ 34656 = N 4 0
+ 34704 = N 3 0
+ 34752 = N 2 0
+ 34800 = N 1 0
+ 34848 = N 2 0
+ 34896 = N 1 0
+ 34944 = N 0 0
+ 34992 = N 2 0
+ 35040 = N 1 0
+ 35088 = N 3 0
+ 35136 = N 2 0
+ 35184 = N 4 0
+ 35232 = N 0 0
+ 35280 = N 2 0
+ 35328 = N 1 0
+ 35376 = N 3 0
+ 35424 = N 2 0
+ 35472 = N 4 144
+ 35712 = N 4 0
+ 35760 = N 1 0
+ 35808 = N 2 0
+ 35856 = N 4 0
+ 35904 = N 3 0
+ 35952 = N 3 0
+ 36000 = N 1 0
+ 36048 = N 0 112
+ 36192 = N 1 0
+ 36240 = N 4 0
+ 36288 = N 3 0
+ 36336 = N 1 0
+ 36384 = N 0 0
+ 36432 = N 1 0
+ 36480 = N 2 576
+ 37248 = N 3 0
+ 37248 = S 2 768
+ 37280 = N 4 0
+ 37312 = N 3 0
+ 37344 = N 2 0
+ 37392 = N 1 0
+ 37440 = N 3 0
+ 37488 = N 2 0
+ 37536 = N 1 0
+ 37584 = N 0 0
+ 37632 = N 1 0
+ 37680 = N 0 0
+ 37728 = N 4 0
+ 37776 = N 3 0
+ 37824 = N 2 0
+ 37872 = N 1 0
+ 37920 = N 3 0
+ 37968 = N 2 0
+ 38016 = N 2 0
+ 38064 = N 1 0
+ 38112 = N 0 0
+ 38160 = N 1 0
+ 38208 = N 3 0
+ 38256 = N 2 0
+ 38304 = N 4 0
+ 38352 = N 2 0
+ 38400 = N 3 0
+ 38448 = N 1 0
+ 38496 = N 0 0
+ 38544 = N 2 0
+ 38784 = N 0 0
+ 38832 = N 1 0
+ 38880 = N 2 0
+ 38928 = N 3 0
+ 38976 = N 4 0
+ 39024 = N 3 0
+ 39072 = N 2 0
+ 39120 = N 1 0
+ 39168 = N 3 0
+ 39216 = N 1 0
+ 39264 = N 2 0
+ 39312 = N 1 0
+ 39360 = N 0 0
+ 39408 = N 1 0
+ 39456 = N 2 0
+ 39504 = N 3 592
+ 40128 = N 0 0
+ 40176 = N 1 0
+ 40224 = N 2 0
+ 40272 = N 1 0
+ 40320 = N 3 160
+ 40512 = N 1 0
+ 40608 = N 1 0
+ 40656 = N 2 400
+ 41088 = N 1 0
+ 41136 = N 2 0
+ 41184 = N 3 0
+ 41232 = N 2 0
+ 41280 = N 4 160
+ 41472 = N 2 0
+ 41568 = N 2 0
+ 41616 = N 3 288
+ 42048 = N 0 0
+ 42096 = N 1 0
+ 42144 = N 2 0
+ 42192 = N 3 0
+ 42240 = N 3 0
+ 42288 = N 4 1488
+ 44160 = N 2 0
+ 44256 = N 2 0
+ 44256 = N 3 0
+ 44352 = N 2 0
+ 44352 = N 3 0
+ 44400 = N 2 0
+ 44400 = N 3 0
+ 44640 = N 2 0
+ 44640 = N 3 0
+ 44688 = N 2 0
+ 44688 = N 3 0
+ 44784 = N 2 0
+ 44784 = N 3 0
+ 44832 = N 2 0
+ 44832 = N 3 0
+ 44928 = N 0 0
+ 44928 = N 1 0
+ 45024 = N 2 0
+ 45072 = N 2 0
+ 45120 = N 1 0
+ 45216 = N 2 0
+ 45312 = N 2 0
+ 45360 = N 2 0
+ 45504 = N 0 0
+ 45504 = N 1 0
+ 45600 = N 0 0
+ 45600 = N 2 0
+ 45696 = N 0 0
+ 45696 = N 1 0
+ 45792 = N 0 0
+ 45792 = N 2 0
+ 45888 = N 0 0
+ 45936 = N 0 0
+ 45984 = N 0 0
+ 46032 = N 0 0
+ 46080 = N 0 0
+ 46080 = N 1 0
+ 46176 = N 0 0
+ 46176 = N 2 0
+ 46272 = N 0 0
+ 46320 = N 0 0
+ 46320 = N 1 0
+ 46368 = N 0 0
+ 46368 = N 5 0
+ 46464 = N 3 0
+ 46464 = N 4 0
+ 46608 = N 3 0
+ 46608 = N 4 0
+ 46752 = N 2 0
+ 46752 = N 4 0
+ 46896 = N 2 0
+ 46896 = N 4 0
+ 47040 = N 2 0
+ 47040 = N 3 0
+ 47184 = N 2 0
+ 47184 = N 3 0
+ 47328 = N 1 0
+ 47328 = N 3 0
+ 47472 = N 1 0
+ 47472 = N 3 0
+ 47616 = N 2 0
+ 47616 = N 4 0
+ 47808 = N 2 0
+ 47808 = N 3 0
+ 48000 = N 0 160
+ 48000 = N 3 160
+ 48192 = N 0 0
+ 48192 = S 2 1728
+ 48240 = N 1 0
+ 48288 = N 2 0
+ 48336 = N 1 0
+ 48384 = N 3 160
+ 48576 = N 1 0
+ 48672 = N 1 0
+ 48720 = N 2 400
+ 49152 = N 1 0
+ 49200 = N 2 0
+ 49248 = N 3 0
+ 49296 = N 2 0
+ 49344 = N 4 160
+ 49536 = N 2 0
+ 49632 = N 2 0
+ 49680 = N 3 288
+ 50112 = N 0 0
+ 50160 = N 1 0
+ 50208 = N 2 0
+ 50256 = N 3 0
+ 50304 = N 3 0
+ 50352 = N 4 1488
+ 52272 = N 1 0
+ 52320 = N 2 0
+ 52368 = N 3 0
+ 52416 = N 2 0
+ 52464 = N 4 0
+ 52512 = N 3 0
+ 52560 = N 2 0
+ 52608 = N 4 0
+ 52656 = N 3 0
+ 52704 = N 2 0
+ 52752 = N 1 0
+ 52800 = N 0 0
+ 52848 = N 1 0
+ 52896 = N 2 0
+ 52944 = N 1 0
+ 52992 = N 3 0
+ 53040 = N 2 0
+ 53088 = N 1 0
+ 53136 = N 0 0
+ 53184 = N 1 0
+ 53232 = N 0 0
+ 53280 = N 2 0
+ 53328 = N 3 0
+ 53376 = N 2 0
+ 53424 = N 4 0
+ 53472 = N 3 0
+ 53520 = N 2 0
+ 53568 = N 3 0
+ 53616 = N 2 0
+ 53664 = N 1 0
+ 53712 = N 0 0
+ 53760 = N 1 0
+ 53808 = N 2 0
+ 53856 = N 3 0
+ 53904 = N 4 0
+ 53952 = N 3 0
+ 54000 = N 2 0
+ 54048 = N 1 0
+ 54096 = N 0 0
+ 54144 = N 3 0
+ 54192 = N 4 112
+ 54336 = N 2 0
+ 54384 = N 1 0
+ 54432 = N 2 0
+ 54480 = N 2 0
+ 54528 = N 3 0
+ 54528 = N 4 0
+ 54672 = N 3 0
+ 54672 = N 4 0
+ 54816 = N 2 0
+ 54816 = N 4 0
+ 54960 = N 2 0
+ 54960 = N 4 0
+ 55104 = N 2 0
+ 55104 = N 3 0
+ 55248 = N 2 0
+ 55248 = N 3 0
+ 55392 = N 1 0
+ 55392 = N 3 0
+ 55536 = N 1 0
+ 55536 = N 3 0
+ 55680 = N 2 0
+ 55680 = N 4 0
+ 55872 = N 2 0
+ 55872 = N 3 0
+ 56064 = N 0 576
+ 56064 = N 3 576
+ 56832 = N 4 0
+ 56880 = N 3 0
+ 56928 = N 2 0
+ 56976 = N 1 0
+ 57024 = N 0 0
+ 57072 = N 2 0
+ 57120 = N 1 0
+ 57168 = N 0 0
+ 57216 = N 3 0
+ 57264 = N 2 0
+ 57312 = N 4 0
+ 57360 = N 3 0
+ 57408 = N 2 0
+ 57456 = N 1 0
+ 57504 = N 2 0
+ 57552 = N 1 0
+ 57600 = N 0 0
+ 57648 = N 2 0
+ 57696 = N 1 0
+ 57744 = N 3 0
+ 57792 = N 2 0
+ 57840 = N 4 0
+ 57888 = N 0 0
+ 57936 = N 2 0
+ 57984 = N 1 0
+ 58032 = N 3 0
+ 58080 = N 2 0
+ 58128 = N 4 144
+ 58368 = N 4 0
+ 58368 = S 2 1152
+ 58416 = N 1 0
+ 58464 = N 2 0
+ 58512 = N 4 0
+ 58560 = N 3 0
+ 58608 = N 2 0
+ 58656 = N 1 0
+ 58704 = N 0 112
+ 58848 = N 1 0
+ 58896 = N 4 0
+ 58944 = N 3 0
+ 58992 = N 1 0
+ 59040 = N 0 0
+ 59088 = N 1 0
+ 59136 = N 2 576
+ 59904 = N 3 0
+ 59936 = N 4 0
+ 59968 = N 3 0
+ 60000 = N 2 0
+ 60048 = N 1 0
+ 60096 = N 3 0
+ 60144 = N 2 0
+ 60192 = N 1 0
+ 60240 = N 0 0
+ 60288 = N 1 0
+ 60336 = N 0 0
+ 60384 = N 4 0
+ 60432 = N 3 0
+ 60480 = N 2 0
+ 60528 = N 1 0
+ 60576 = N 3 0
+ 60624 = N 2 0
+ 60672 = N 2 0
+ 60720 = N 1 0
+ 60768 = N 0 0
+ 60816 = N 1 0
+ 60864 = N 3 0
+ 60912 = N 2 0
+ 60960 = N 4 0
+ 61008 = N 2 0
+ 61056 = N 3 0
+ 61104 = N 1 0
+ 61152 = N 0 0
+ 61200 = N 2 0
+ 61440 = N 0 0
+ 61488 = N 1 0
+ 61536 = N 2 0
+ 61584 = N 3 0
+ 61632 = N 4 0
+ 61680 = N 3 0
+ 61728 = N 2 0
+ 61776 = N 1 0
+ 61824 = N 3 0
+ 61872 = N 1 0
+ 61920 = N 2 0
+ 61968 = N 1 0
+ 62016 = N 0 0
+ 62064 = N 1 0
+ 62112 = N 2 0
+ 62160 = N 3 624
+ 62976 = N 4 0
+ 63024 = N 3 0
+ 63072 = N 2 0
+ 63120 = N 1 0
+ 63168 = N 0 0
+ 63216 = N 2 0
+ 63264 = N 1 0
+ 63312 = N 0 0
+ 63360 = N 3 0
+ 63408 = N 2 0
+ 63456 = N 4 0
+ 63504 = N 3 0
+ 63552 = N 2 0
+ 63600 = N 1 0
+ 63648 = N 2 0
+ 63696 = N 1 0
+ 63744 = N 0 0
+ 63792 = N 2 0
+ 63840 = N 1 0
+ 63888 = N 3 0
+ 63936 = N 2 0
+ 63984 = N 4 0
+ 64032 = N 0 0
+ 64080 = N 2 0
+ 64128 = N 1 0
+ 64176 = N 3 0
+ 64224 = N 2 0
+ 64272 = N 4 144
+ 64512 = N 4 0
+ 64560 = N 1 0
+ 64608 = N 2 0
+ 64656 = N 4 0
+ 64704 = N 3 0
+ 64752 = N 2 0
+ 64800 = N 1 0
+ 64848 = N 0 112
+ 64992 = N 1 0
+ 65040 = N 4 0
+ 65088 = N 3 0
+ 65136 = N 1 0
+ 65184 = N 0 0
+ 65232 = N 1 0
+ 65280 = N 2 576
+ 66048 = N 3 0
+ 66080 = N 4 0
+ 66112 = N 3 0
+ 66144 = N 2 0
+ 66192 = N 1 0
+ 66240 = N 3 0
+ 66288 = N 2 0
+ 66336 = N 1 0
+ 66384 = N 0 0
+ 66432 = N 1 0
+ 66480 = N 0 0
+ 66528 = N 4 0
+ 66576 = N 3 0
+ 66624 = N 2 0
+ 66672 = N 1 0
+ 66720 = N 3 0
+ 66768 = N 1 0
+ 66816 = N 2 0
+ 66864 = N 1 0
+ 66912 = N 0 0
+ 66960 = N 1 0
+ 67008 = N 3 0
+ 67056 = N 2 0
+ 67104 = N 4 0
+ 67152 = N 2 0
+ 67200 = N 3 0
+ 67248 = N 1 0
+ 67296 = N 0 0
+ 67344 = N 2 0
+ 67584 = N 0 0
+ 67632 = N 1 0
+ 67680 = N 2 0
+ 67728 = N 3 0
+ 67776 = N 4 0
+ 67824 = N 3 0
+ 67872 = N 2 0
+ 67920 = N 1 0
+ 67968 = N 3 0
+ 68016 = N 1 0
+ 68064 = N 2 0
+ 68112 = N 1 0
+ 68160 = N 0 0
+ 68208 = N 1 0
+ 68256 = N 2 0
+ 68304 = N 3 592
+ 68928 = N 0 0
+ 68928 = S 2 1536
+ 68976 = N 1 0
+ 69024 = N 2 0
+ 69072 = N 1 0
+ 69120 = N 3 160
+ 69312 = N 1 0
+ 69408 = N 1 0
+ 69456 = N 2 400
+ 69888 = N 1 0
+ 69936 = N 2 0
+ 69984 = N 3 0
+ 70032 = N 2 0
+ 70080 = N 4 160
+ 70272 = N 2 0
+ 70368 = N 2 0
+ 70416 = N 3 288
+ 70848 = N 0 0
+ 70896 = N 1 0
+ 70944 = N 2 0
+ 70992 = N 3 0
+ 71040 = N 3 0
+ 71088 = N 4 1488
+ 73152 = N 0 0
+ 73184 = N 1 0
+ 73216 = N 2 0
+ 73248 = N 1 0
+ 73280 = N 2 0
+ 73312 = N 3 0
+ 73344 = N 4 0
+ 73376 = N 3 0
+ 73408 = N 2 0
+ 73440 = N 3 0
+ 73472 = N 2 0
+ 73504 = N 1 0
+ 73536 = N 0 0
+ 73568 = N 1 0
+ 73600 = N 2 0
+ 73632 = N 1 0
+ 73664 = N 2 0
+ 73696 = N 3 0
+ 73728 = N 4 0
+ 73760 = N 3 0
+ 73792 = N 2 0
+ 73824 = N 3 0
+ 73856 = N 2 0
+ 73888 = N 1 0
+ 73920 = N 0 0
+ 73968 = N 2 0
+ 74016 = N 3 304
+ 74352 = N 2 0
+ 74400 = N 3 288
+ 74784 = N 3 0
+ 74832 = N 4 400
+ 75264 = N 3 0
+ 75264 = N 4 0
+ 75408 = N 3 0
+ 75408 = N 4 0
+ 75552 = N 2 0
+ 75552 = N 4 0
+ 75696 = N 2 0
+ 75696 = N 4 0
+ 75840 = N 2 0
+ 75840 = N 3 0
+ 75984 = N 2 0
+ 75984 = N 3 0
+ 76128 = N 1 0
+ 76128 = N 3 0
+ 76272 = N 1 0
+ 76272 = N 3 0
+ 76416 = N 2 0
+ 76416 = N 4 0
+ 76608 = N 2 0
+ 76608 = N 3 0
+ 76800 = N 0 160
+ 76800 = N 3 160
+ 76992 = N 0 0
+ 77040 = N 1 0
+ 77088 = N 2 0
+ 77136 = N 1 0
+ 77184 = N 3 160
+ 77376 = N 1 0
+ 77472 = N 1 0
+ 77520 = N 2 400
+ 77952 = N 1 0
+ 78000 = N 2 0
+ 78048 = N 3 0
+ 78096 = N 2 0
+ 78144 = N 4 160
+ 78336 = N 2 0
+ 78432 = N 2 0
+ 78480 = N 3 288
+ 78912 = N 0 0
+ 78912 = S 2 1152
+ 79040 = N 1 0
+ 79168 = N 2 0
+ 79296 = N 3 0
+ 79488 = N 3 0
+ 79536 = N 4 1296
+ 81360 = N 0 0
+ 81504 = N 1 0
+ 81552 = N 2 0
+ 81600 = N 3 0
+ 81648 = N 3 0
+ 81696 = N 2 0
+ 81792 = N 3 0
+ 81824 = N 2 0
+ 81856 = N 1 0
+ 81888 = N 2 0
+ 81936 = N 1 0
+ 81984 = N 0 0
+ 82032 = N 3 0
+ 82080 = N 4 0
+ 82128 = N 3 0
+ 82176 = N 2 0
+ 82224 = N 2 0
+ 82272 = N 3 0
+ 82320 = N 3 0
+ 82368 = N 4 0
+ 82416 = N 3 0
+ 82464 = N 2 0
+ 82512 = N 1 0
+ 82560 = N 0 0
+ 82608 = N 3 0
+ 82656 = N 2 0
+ 82704 = N 1 0
+ 82752 = N 2 0
+ 82800 = N 1 0
+ 82848 = N 0 0
+ 82896 = N 2 0
+ 82944 = N 2 0
+ 83040 = N 1 0
+ 83088 = N 2 0
+ 83136 = N 2 0
+ 83232 = N 2 0
+ 83328 = N 2 0
+ 83424 = N 3 0
+ 83472 = N 4 0
+ 83568 = N 3 0
+ 83616 = N 1 0
+ 83712 = N 2 0
+ 83760 = N 4 0
+ 83856 = N 2 0
+ 83904 = N 1 0
+ 84000 = N 2 0
+ 84048 = N 3 0
+ 84144 = N 2 0
+ 84192 = N 0 0
+ 84288 = N 1 0
+ 84336 = N 2 0
+ 84480 = N 2 160
+ 84480 = N 4 160
+ 84672 = N 2 160
+ 84672 = N 3 160
+ 84864 = N 0 0
+ 85056 = N 2 0
+ 85152 = N 3 0
+ 85200 = N 4 0
+ 85296 = N 3 0
+ 85344 = N 1 0
+ 85440 = N 2 0
+ 85488 = N 4 0
+ 85584 = N 2 0
+ 85632 = N 1 0
+ 85728 = N 2 0
+ 85776 = N 3 0
+ 85872 = N 2 0
+ 85920 = N 0 0
+ 86016 = N 1 0
+ 86064 = N 2 0
+ 86208 = N 2 0
+ 86208 = N 4 0
+ 86400 = N 2 0
+ 86400 = N 3 0
+ 86592 = N 0 0
+ 86688 = N 0 0
+ 86736 = N 0 0
+ 86784 = N 2 0
+ 86880 = N 3 0
+ 86928 = N 4 0
+ 87024 = N 3 0
+ 87072 = N 1 0
+ 87168 = N 2 0
+ 87216 = N 4 0
+ 87312 = N 2 0
+ 87360 = N 1 0
+ 87456 = N 2 0
+ 87504 = N 3 0
+ 87600 = N 2 0
+ 87648 = N 0 0
+ 87744 = N 1 0
+ 87792 = N 2 0
+ 87936 = N 1 0
+ 87984 = N 2 0
+ 88032 = N 3 0
+ 88128 = N 0 0
+ 88176 = N 1 0
+ 88224 = N 2 0
+ 88320 = N 0 0
+ 88416 = N 0 0
+ 88464 = N 0 0
+ 88512 = N 2 0
+ 88608 = N 3 0
+ 88656 = N 4 0
+ 88752 = N 3 0
+ 88800 = N 1 0
+ 88896 = N 2 0
+ 88944 = N 4 0
+ 89040 = N 2 0
+ 89088 = N 1 0
+ 89184 = N 2 0
+ 89232 = N 3 0
+ 89328 = N 2 0
+ 89376 = N 0 0
+ 89472 = N 1 0
+ 89520 = N 2 0
+ 89664 = N 1 0
+ 89712 = N 2 0
+ 89760 = N 3 0
+ 89856 = N 0 0
+ 89904 = N 1 0
+ 89952 = N 2 0
+ 90048 = N 0 0
+ 90144 = N 0 0
+ 90192 = N 0 0
+ 90240 = N 2 0
+ 90336 = N 3 0
+ 90384 = N 4 0
+ 90480 = N 3 0
+ 90528 = N 1 0
+ 90624 = N 2 0
+ 90672 = N 4 0
+ 90768 = N 2 0
+ 90816 = N 1 0
+ 90912 = N 2 0
+ 90960 = N 3 0
+ 91056 = N 2 0
+ 91104 = N 0 0
+ 91200 = N 1 0
+ 91248 = N 2 0
+ 91392 = N 1 0
+ 91440 = N 2 0
+ 91488 = N 3 0
+ 91584 = N 0 0
+ 91632 = N 1 0
+ 91680 = N 2 0
+ 91776 = N 0 544
+ 92352 = N 3 0
+ 92352 = N 6 0
+ 92400 = N 4 496
+ 92400 = N 6 0
+ 92928 = N 3 352
+ 92928 = N 6 0
+ 93312 = N 2 352
+ 93312 = N 6 0
+ 93696 = N 1 352
+ 93696 = N 6 0
+ 94080 = N 0 0
+ 94080 = N 6 0
+}
+[HardSingle]
+{
+ 1536 = N 3 0
+ 1536 = N 4 0
+ 1680 = N 2 0
+ 1680 = N 3 0
+ 2112 = N 1 0
+ 2208 = N 1 0
+ 2304 = N 1 0
+ 2400 = N 1 0
+ 2496 = N 1 0
+ 2592 = N 1 0
+ 2688 = N 1 0
+ 2784 = N 1 0
+ 2880 = N 1 0
+ 3072 = N 3 0
+ 3072 = N 4 0
+ 3216 = N 2 0
+ 3216 = N 3 0
+ 3504 = N 1 0
+ 3648 = N 1 0
+ 3744 = N 1 0
+ 3840 = N 1 0
+ 3936 = N 1 0
+ 4032 = N 1 0
+ 4128 = N 1 0
+ 4224 = N 1 0
+ 4320 = N 1 0
+ 4416 = N 1 0
+ 4464 = N 2 0
+ 4608 = N 2 0
+ 4608 = N 4 0
+ 4752 = N 1 0
+ 4752 = N 3 0
+ 5040 = N 1 0
+ 5184 = N 1 0
+ 5424 = N 1 0
+ 5616 = N 1 0
+ 5760 = N 1 0
+ 5856 = N 1 0
+ 5952 = N 1 0
+ 6144 = N 2 0
+ 6144 = N 4 0
+ 6144 = S 2 1536
+ 6288 = N 1 0
+ 6288 = N 3 0
+ 6624 = N 1 0
+ 6720 = N 1 0
+ 6912 = N 1 0
+ 7056 = N 1 0
+ 7200 = N 1 0
+ 7392 = N 1 0
+ 7488 = N 1 0
+ 7536 = N 2 0
+ 7680 = N 2 0
+ 7680 = N 4 0
+ 7824 = N 1 0
+ 7824 = N 3 0
+ 8064 = N 1 0
+ 8160 = N 1 0
+ 8256 = N 1 0
+ 8448 = N 1 0
+ 8544 = N 1 0
+ 8640 = N 1 0
+ 8736 = N 1 0
+ 8832 = N 1 0
+ 8928 = N 1 0
+ 9216 = N 2 0
+ 9216 = N 4 0
+ 9360 = N 1 0
+ 9360 = N 3 0
+ 9600 = N 1 0
+ 9744 = N 1 0
+ 9888 = N 1 0
+ 10032 = N 1 0
+ 10176 = N 1 0
+ 10272 = N 1 0
+ 10368 = N 1 0
+ 10464 = N 1 0
+ 10560 = N 1 0
+ 10608 = N 2 624
+ 11328 = N 0 0
+ 11376 = N 1 0
+ 11424 = N 2 0
+ 11520 = N 3 160
+ 11712 = N 1 0
+ 11808 = N 2 448
+ 12288 = N 1 0
+ 12336 = N 2 0
+ 12384 = N 3 0
+ 12480 = N 4 160
+ 12672 = N 2 0
+ 12768 = N 3 336
+ 13248 = N 0 0
+ 13296 = N 1 0
+ 13344 = N 2 0
+ 13440 = N 3 0
+ 13488 = N 4 2032
+ 15360 = S 2 768
+ 15600 = N 2 0
+ 15600 = N 3 0
+ 15744 = N 0 0
+ 15888 = N 1 0
+ 15984 = N 2 0
+ 15984 = N 3 0
+ 16128 = N 0 0
+ 16128 = N 1 0
+ 16224 = N 0 0
+ 16224 = N 2 0
+ 16320 = N 0 0
+ 16320 = N 1 0
+ 16416 = N 0 0
+ 16416 = N 2 0
+ 16704 = N 0 0
+ 16704 = N 1 0
+ 16800 = N 0 0
+ 16800 = N 2 0
+ 16896 = N 0 0
+ 16896 = N 1 0
+ 16992 = N 0 0
+ 16992 = N 2 0
+ 17280 = N 0 0
+ 17280 = N 1 0
+ 17376 = N 0 0
+ 17376 = N 2 0
+ 17472 = N 0 0
+ 17472 = N 1 0
+ 17568 = N 0 0
+ 17568 = N 2 0
+ 17664 = N 3 0
+ 17664 = N 4 0
+ 17808 = N 3 0
+ 17808 = N 4 0
+ 17952 = N 2 0
+ 17952 = N 4 0
+ 18096 = N 2 0
+ 18096 = N 4 0
+ 18240 = N 2 0
+ 18240 = N 3 0
+ 18384 = N 2 0
+ 18384 = N 3 0
+ 18528 = N 1 0
+ 18528 = N 3 0
+ 18672 = N 1 0
+ 18672 = N 3 0
+ 18816 = N 2 0
+ 18816 = N 4 0
+ 19008 = N 2 0
+ 19008 = N 3 0
+ 19200 = N 0 160
+ 19200 = N 3 160
+ 19392 = N 0 0
+ 19440 = N 1 0
+ 19488 = N 2 0
+ 19584 = N 3 160
+ 19776 = N 1 0
+ 19872 = N 2 448
+ 20352 = N 1 0
+ 20400 = N 2 0
+ 20448 = N 3 0
+ 20544 = N 4 160
+ 20736 = N 2 0
+ 20832 = N 3 384
+ 21312 = N 0 0
+ 21360 = N 1 0
+ 21408 = N 2 0
+ 21504 = N 3 0
+ 21552 = N 4 1488
+ 23664 = N 2 0
+ 23664 = N 3 0
+ 23856 = N 2 0
+ 23856 = N 3 0
+ 23952 = N 2 0
+ 23952 = N 3 0
+ 24096 = N 2 0
+ 24096 = N 3 0
+ 24192 = N 0 0
+ 24192 = N 1 0
+ 24288 = N 0 0
+ 24288 = N 2 0
+ 24384 = N 0 0
+ 24384 = N 1 0
+ 24480 = N 0 0
+ 24480 = N 2 0
+ 24768 = N 0 0
+ 24768 = N 1 0
+ 24864 = N 0 0
+ 24864 = N 2 0
+ 24960 = N 0 0
+ 24960 = N 1 0
+ 25056 = N 0 0
+ 25056 = N 2 0
+ 25344 = N 0 0
+ 25344 = N 1 0
+ 25440 = N 0 0
+ 25440 = N 2 0
+ 25536 = N 0 0
+ 25536 = N 1 0
+ 25632 = N 0 0
+ 25632 = N 2 0
+ 25728 = N 3 0
+ 25728 = N 4 0
+ 25728 = S 2 1920
+ 25872 = N 3 0
+ 25872 = N 4 0
+ 26016 = N 2 0
+ 26016 = N 4 0
+ 26160 = N 2 0
+ 26160 = N 4 0
+ 26304 = N 2 0
+ 26304 = N 3 0
+ 26448 = N 2 0
+ 26448 = N 3 0
+ 26592 = N 1 0
+ 26592 = N 3 0
+ 26688 = N 1 0
+ 26688 = N 3 0
+ 26880 = N 2 0
+ 26880 = N 4 0
+ 27072 = N 2 0
+ 27072 = N 3 0
+ 27264 = N 0 576
+ 27264 = N 3 576
+ 28032 = N 4 0
+ 28080 = N 3 0
+ 28128 = N 2 0
+ 28176 = N 1 0
+ 28224 = N 0 0
+ 28272 = N 1 0
+ 28320 = N 0 0
+ 28416 = N 3 0
+ 28464 = N 2 0
+ 28512 = N 4 0
+ 28560 = N 3 0
+ 28608 = N 2 0
+ 28656 = N 1 0
+ 28704 = N 0 0
+ 28800 = N 0 0
+ 28896 = N 1 0
+ 28992 = N 2 0
+ 29088 = N 0 0
+ 29184 = N 1 0
+ 29280 = N 2 0
+ 29328 = N 3 144
+ 29568 = N 4 0
+ 29664 = N 2 0
+ 29712 = N 4 0
+ 29760 = N 3 0
+ 29856 = N 1 0
+ 29904 = N 0 112
+ 30048 = N 1 0
+ 30096 = N 2 0
+ 30144 = N 1 0
+ 30240 = N 0 0
+ 30288 = N 1 0
+ 30336 = N 2 576
+ 31104 = N 3 0
+ 31152 = N 2 0
+ 31200 = N 1 0
+ 31296 = N 2 0
+ 31344 = N 1 0
+ 31392 = N 0 0
+ 31488 = N 1 0
+ 31584 = N 4 0
+ 31632 = N 3 0
+ 31680 = N 2 0
+ 31776 = N 3 0
+ 31872 = N 2 0
+ 31920 = N 1 0
+ 31968 = N 0 0
+ 32064 = N 2 0
+ 32160 = N 3 0
+ 32256 = N 2 0
+ 32352 = N 0 0
+ 32400 = N 1 0
+ 32640 = N 1 0
+ 32688 = N 2 0
+ 32736 = N 3 0
+ 32832 = N 4 0
+ 32880 = N 3 0
+ 32928 = N 2 0
+ 33024 = N 3 0
+ 33120 = N 2 0
+ 33216 = N 1 0
+ 33312 = N 2 0
+ 33360 = N 3 624
+ 34176 = N 4 0
+ 34224 = N 3 0
+ 34272 = N 2 0
+ 34320 = N 1 0
+ 34368 = N 0 0
+ 34416 = N 1 0
+ 34464 = N 0 0
+ 34560 = N 3 0
+ 34608 = N 2 0
+ 34656 = N 4 0
+ 34704 = N 3 0
+ 34752 = N 2 0
+ 34800 = N 1 0
+ 34848 = N 0 0
+ 34944 = N 0 0
+ 35040 = N 1 0
+ 35136 = N 2 0
+ 35232 = N 0 0
+ 35328 = N 1 0
+ 35424 = N 2 0
+ 35472 = N 3 144
+ 35712 = N 4 0
+ 35808 = N 2 0
+ 35856 = N 4 0
+ 35904 = N 3 0
+ 36000 = N 1 0
+ 36048 = N 0 112
+ 36192 = N 1 0
+ 36240 = N 2 0
+ 36288 = N 1 0
+ 36384 = N 0 0
+ 36432 = N 1 0
+ 36480 = N 2 576
+ 37248 = N 3 0
+ 37248 = S 2 768
+ 37296 = N 2 0
+ 37344 = N 1 0
+ 37440 = N 2 0
+ 37488 = N 1 0
+ 37536 = N 0 0
+ 37632 = N 1 0
+ 37728 = N 4 0
+ 37776 = N 3 0
+ 37824 = N 2 0
+ 37920 = N 3 0
+ 38016 = N 2 0
+ 38064 = N 1 0
+ 38112 = N 0 0
+ 38208 = N 2 0
+ 38304 = N 3 0
+ 38400 = N 2 0
+ 38496 = N 0 0
+ 38544 = N 1 0
+ 38784 = N 1 0
+ 38832 = N 2 0
+ 38880 = N 3 0
+ 38976 = N 4 0
+ 39024 = N 3 0
+ 39072 = N 2 0
+ 39168 = N 3 0
+ 39264 = N 2 0
+ 39360 = N 1 0
+ 39456 = N 2 0
+ 39504 = N 3 592
+ 40128 = N 0 0
+ 40176 = N 1 0
+ 40224 = N 2 0
+ 40320 = N 3 160
+ 40512 = N 1 0
+ 40608 = N 2 448
+ 41088 = N 1 0
+ 41136 = N 2 0
+ 41184 = N 3 0
+ 41280 = N 4 160
+ 41472 = N 2 0
+ 41568 = N 3 336
+ 42048 = N 0 0
+ 42096 = N 1 0
+ 42144 = N 2 0
+ 42240 = N 3 0
+ 42288 = N 4 1488
+ 44256 = N 2 0
+ 44256 = N 3 0
+ 44352 = N 2 0
+ 44352 = N 3 0
+ 44640 = N 2 0
+ 44640 = N 3 0
+ 44784 = N 2 0
+ 44784 = N 3 0
+ 44928 = N 0 0
+ 44928 = N 1 0
+ 45024 = N 2 0
+ 45120 = N 1 0
+ 45216 = N 2 0
+ 45312 = N 2 0
+ 45360 = N 2 0
+ 45504 = N 0 0
+ 45504 = N 1 0
+ 45600 = N 0 0
+ 45600 = N 2 0
+ 45696 = N 0 0
+ 45696 = N 1 0
+ 45792 = N 0 0
+ 45792 = N 2 0
+ 46080 = N 0 0
+ 46080 = N 1 0
+ 46176 = N 0 0
+ 46176 = N 2 0
+ 46320 = N 0 0
+ 46320 = N 1 0
+ 46464 = N 3 0
+ 46464 = N 4 0
+ 46608 = N 3 0
+ 46608 = N 4 0
+ 46752 = N 2 0
+ 46752 = N 4 0
+ 46896 = N 2 0
+ 46896 = N 4 0
+ 47040 = N 2 0
+ 47040 = N 3 0
+ 47184 = N 2 0
+ 47184 = N 3 0
+ 47328 = N 1 0
+ 47328 = N 3 0
+ 47472 = N 1 0
+ 47472 = N 3 0
+ 47616 = N 2 0
+ 47616 = N 4 0
+ 47808 = N 2 0
+ 47808 = N 3 0
+ 48000 = N 0 160
+ 48000 = N 3 160
+ 48192 = N 0 0
+ 48192 = S 2 1728
+ 48240 = N 1 0
+ 48288 = N 2 0
+ 48384 = N 3 160
+ 48576 = N 1 0
+ 48672 = N 2 448
+ 49152 = N 1 0
+ 49200 = N 2 0
+ 49248 = N 3 0
+ 49344 = N 4 160
+ 49536 = N 2 0
+ 49632 = N 3 336
+ 50112 = N 0 0
+ 50160 = N 1 0
+ 50208 = N 2 0
+ 50304 = N 3 0
+ 50352 = N 4 1488
+ 52272 = N 0 0
+ 52320 = N 1 0
+ 52416 = N 2 0
+ 52512 = N 3 0
+ 52608 = N 2 0
+ 52656 = N 1 0
+ 52704 = N 0 0
+ 52800 = N 0 0
+ 52848 = N 1 0
+ 52896 = N 2 0
+ 52992 = N 3 0
+ 53088 = N 2 0
+ 53184 = N 1 0
+ 53280 = N 1 0
+ 53328 = N 2 0
+ 53376 = N 3 0
+ 53472 = N 4 0
+ 53568 = N 3 0
+ 53664 = N 2 0
+ 53760 = N 1 0
+ 53808 = N 2 0
+ 53856 = N 3 0
+ 53952 = N 2 0
+ 54048 = N 1 0
+ 54144 = N 4 160
+ 54336 = N 2 0
+ 54384 = N 1 0
+ 54432 = N 2 0
+ 54528 = N 3 0
+ 54528 = N 4 0
+ 54672 = N 3 0
+ 54672 = N 4 0
+ 54816 = N 2 0
+ 54816 = N 4 0
+ 54960 = N 2 0
+ 54960 = N 4 0
+ 55104 = N 2 0
+ 55104 = N 3 0
+ 55248 = N 2 0
+ 55248 = N 3 0
+ 55392 = N 1 0
+ 55392 = N 3 0
+ 55536 = N 1 0
+ 55536 = N 3 0
+ 55680 = N 2 0
+ 55680 = N 4 0
+ 55872 = N 2 0
+ 55872 = N 3 0
+ 56064 = N 0 576
+ 56064 = N 3 576
+ 56832 = N 4 0
+ 56880 = N 3 0
+ 56928 = N 2 0
+ 56976 = N 1 0
+ 57024 = N 0 0
+ 57072 = N 1 0
+ 57120 = N 0 0
+ 57216 = N 3 0
+ 57264 = N 2 0
+ 57312 = N 4 0
+ 57360 = N 3 0
+ 57408 = N 2 0
+ 57456 = N 1 0
+ 57504 = N 0 0
+ 57600 = N 0 0
+ 57696 = N 1 0
+ 57792 = N 2 0
+ 57888 = N 0 0
+ 57984 = N 1 0
+ 58080 = N 2 0
+ 58128 = N 3 144
+ 58368 = N 4 0
+ 58368 = S 2 1152
+ 58464 = N 2 0
+ 58512 = N 4 0
+ 58560 = N 3 0
+ 58656 = N 1 0
+ 58704 = N 0 112
+ 58848 = N 1 0
+ 58896 = N 2 0
+ 58944 = N 1 0
+ 59040 = N 0 0
+ 59088 = N 1 0
+ 59136 = N 2 576
+ 59904 = N 3 0
+ 59952 = N 2 0
+ 60000 = N 1 0
+ 60096 = N 2 0
+ 60144 = N 1 0
+ 60192 = N 0 0
+ 60288 = N 1 0
+ 60384 = N 4 0
+ 60432 = N 3 0
+ 60480 = N 2 0
+ 60576 = N 3 0
+ 60672 = N 2 0
+ 60720 = N 1 0
+ 60768 = N 0 0
+ 60864 = N 2 0
+ 60960 = N 3 0
+ 61056 = N 2 0
+ 61152 = N 0 0
+ 61200 = N 1 0
+ 61440 = N 1 0
+ 61488 = N 2 0
+ 61536 = N 3 0
+ 61632 = N 4 0
+ 61680 = N 3 0
+ 61728 = N 2 0
+ 61824 = N 3 0
+ 61920 = N 2 0
+ 62016 = N 1 0
+ 62112 = N 2 0
+ 62160 = N 3 624
+ 62976 = N 4 0
+ 63024 = N 3 0
+ 63072 = N 2 0
+ 63120 = N 1 0
+ 63168 = N 0 0
+ 63216 = N 1 0
+ 63264 = N 0 0
+ 63360 = N 3 0
+ 63408 = N 2 0
+ 63456 = N 4 0
+ 63504 = N 3 0
+ 63552 = N 2 0
+ 63600 = N 1 0
+ 63648 = N 0 0
+ 63744 = N 0 0
+ 63840 = N 1 0
+ 63936 = N 2 0
+ 64032 = N 0 0
+ 64128 = N 1 0
+ 64224 = N 2 0
+ 64272 = N 3 144
+ 64512 = N 4 0
+ 64608 = N 2 0
+ 64656 = N 4 0
+ 64704 = N 3 0
+ 64800 = N 1 0
+ 64848 = N 0 112
+ 64992 = N 1 0
+ 65040 = N 2 0
+ 65088 = N 1 0
+ 65184 = N 0 0
+ 65232 = N 1 0
+ 65280 = N 2 576
+ 66048 = N 3 0
+ 66096 = N 2 0
+ 66144 = N 1 0
+ 66240 = N 2 0
+ 66288 = N 1 0
+ 66336 = N 0 0
+ 66432 = N 1 0
+ 66528 = N 4 0
+ 66576 = N 3 0
+ 66624 = N 2 0
+ 66720 = N 3 0
+ 66816 = N 2 0
+ 66864 = N 1 0
+ 66912 = N 0 0
+ 67008 = N 2 0
+ 67104 = N 3 0
+ 67200 = N 2 0
+ 67296 = N 0 0
+ 67344 = N 1 0
+ 67584 = N 1 0
+ 67632 = N 2 0
+ 67680 = N 3 0
+ 67776 = N 4 0
+ 67824 = N 3 0
+ 67872 = N 2 0
+ 67968 = N 3 0
+ 68064 = N 2 0
+ 68160 = N 1 0
+ 68256 = N 2 0
+ 68304 = N 3 592
+ 68928 = N 0 0
+ 68928 = S 2 1536
+ 68976 = N 1 0
+ 69024 = N 2 0
+ 69120 = N 3 160
+ 69312 = N 1 0
+ 69408 = N 2 448
+ 69888 = N 1 0
+ 69936 = N 2 0
+ 69984 = N 3 0
+ 70080 = N 4 160
+ 70272 = N 2 0
+ 70368 = N 3 336
+ 70848 = N 0 0
+ 70896 = N 1 0
+ 70944 = N 2 0
+ 71040 = N 3 0
+ 71088 = N 4 1488
+ 73152 = N 0 0
+ 73200 = N 1 0
+ 73248 = N 2 0
+ 73296 = N 3 0
+ 73344 = N 4 0
+ 73392 = N 3 0
+ 73440 = N 2 0
+ 73488 = N 1 0
+ 73536 = N 0 0
+ 73584 = N 1 0
+ 73632 = N 2 0
+ 73680 = N 3 0
+ 73728 = N 4 0
+ 73776 = N 3 0
+ 73824 = N 2 0
+ 73872 = N 1 0
+ 73920 = N 0 0
+ 73968 = N 3 352
+ 74352 = N 3 336
+ 74784 = N 4 448
+ 75264 = N 3 0
+ 75264 = N 4 0
+ 75408 = N 3 0
+ 75408 = N 4 0
+ 75552 = N 2 0
+ 75552 = N 4 0
+ 75696 = N 2 0
+ 75696 = N 4 0
+ 75840 = N 2 0
+ 75840 = N 3 0
+ 75984 = N 2 0
+ 75984 = N 3 0
+ 76128 = N 1 0
+ 76128 = N 3 0
+ 76272 = N 1 0
+ 76272 = N 3 0
+ 76416 = N 2 0
+ 76416 = N 4 0
+ 76608 = N 2 0
+ 76608 = N 3 0
+ 76800 = N 0 160
+ 76800 = N 3 160
+ 76992 = N 0 0
+ 77040 = N 1 0
+ 77088 = N 2 0
+ 77184 = N 3 160
+ 77376 = N 1 0
+ 77472 = N 2 448
+ 77952 = N 1 0
+ 78000 = N 2 0
+ 78048 = N 3 0
+ 78144 = N 4 160
+ 78336 = N 2 0
+ 78432 = N 3 336
+ 78912 = N 0 0
+ 78912 = S 2 1152
+ 79040 = N 1 0
+ 79168 = N 2 0
+ 79296 = N 3 0
+ 79488 = N 4 1344
+ 81360 = N 0 0
+ 81504 = N 1 0
+ 81552 = N 2 0
+ 81600 = N 3 0
+ 81696 = N 2 0
+ 81792 = N 3 0
+ 81888 = N 2 0
+ 81936 = N 1 0
+ 81984 = N 0 0
+ 82032 = N 3 112
+ 82176 = N 2 0
+ 82272 = N 3 0
+ 82368 = N 2 0
+ 82416 = N 1 0
+ 82464 = N 0 0
+ 82608 = N 3 0
+ 82656 = N 2 0
+ 82704 = N 1 0
+ 82752 = N 2 0
+ 82800 = N 1 0
+ 82848 = N 0 0
+ 82944 = N 2 0
+ 83040 = N 1 0
+ 83136 = N 2 0
+ 83232 = N 2 0
+ 83328 = N 2 0
+ 83424 = N 3 0
+ 83472 = N 4 0
+ 83616 = N 1 0
+ 83712 = N 2 0
+ 83760 = N 4 0
+ 83904 = N 1 0
+ 84000 = N 2 0
+ 84048 = N 3 0
+ 84192 = N 0 0
+ 84288 = N 1 0
+ 84336 = N 2 0
+ 84480 = N 2 160
+ 84480 = N 4 160
+ 84672 = N 2 160
+ 84672 = N 3 160
+ 84864 = N 0 160
+ 85056 = N 2 0
+ 85152 = N 3 0
+ 85200 = N 4 0
+ 85344 = N 1 0
+ 85440 = N 2 0
+ 85488 = N 4 0
+ 85632 = N 1 0
+ 85728 = N 2 0
+ 85776 = N 3 0
+ 85920 = N 0 0
+ 86016 = N 1 0
+ 86064 = N 2 0
+ 86208 = N 2 0
+ 86208 = N 4 0
+ 86400 = N 2 0
+ 86400 = N 3 0
+ 86592 = N 0 0
+ 86688 = N 0 0
+ 86784 = N 2 0
+ 86880 = N 3 0
+ 86928 = N 4 0
+ 87072 = N 1 0
+ 87168 = N 2 0
+ 87216 = N 4 0
+ 87360 = N 1 0
+ 87456 = N 2 0
+ 87504 = N 3 0
+ 87648 = N 0 0
+ 87744 = N 1 0
+ 87792 = N 2 0
+ 87936 = N 1 0
+ 87984 = N 2 0
+ 88032 = N 3 0
+ 88128 = N 0 0
+ 88176 = N 1 0
+ 88224 = N 2 0
+ 88512 = N 2 0
+ 88608 = N 3 0
+ 88656 = N 4 0
+ 88800 = N 1 0
+ 88896 = N 2 0
+ 88944 = N 4 0
+ 89088 = N 1 0
+ 89184 = N 2 0
+ 89232 = N 3 0
+ 89376 = N 0 0
+ 89472 = N 1 0
+ 89520 = N 2 0
+ 89664 = N 1 0
+ 89712 = N 2 0
+ 89760 = N 3 0
+ 89856 = N 0 0
+ 89904 = N 1 0
+ 89952 = N 2 0
+ 90240 = N 2 0
+ 90336 = N 3 0
+ 90384 = N 4 0
+ 90528 = N 1 0
+ 90624 = N 2 0
+ 90672 = N 4 0
+ 90816 = N 1 0
+ 90912 = N 2 0
+ 90960 = N 3 0
+ 91104 = N 0 0
+ 91200 = N 1 0
+ 91248 = N 2 0
+ 91392 = N 1 0
+ 91440 = N 2 0
+ 91488 = N 3 0
+ 91584 = N 0 0
+ 91632 = N 1 0
+ 91680 = N 2 0
+ 91776 = N 0 544
+ 92352 = N 4 544
+ 92352 = N 6 0
+ 92928 = N 3 352
+ 92928 = N 6 0
+ 93312 = N 2 352
+ 93312 = N 6 0
+ 93696 = N 1 352
+ 93696 = N 6 0
+ 94080 = N 0 0
+ 94080 = N 6 0
+}
+[MediumSingle]
+{
+ 1536 = N 3 0
+ 1680 = N 2 0
+ 2112 = N 1 0
+ 2208 = N 1 0
+ 2304 = N 1 0
+ 2400 = N 1 0
+ 2496 = N 1 0
+ 2592 = N 1 0
+ 2688 = N 1 0
+ 2784 = N 1 0
+ 2880 = N 1 0
+ 3072 = N 3 0
+ 3216 = N 2 0
+ 3504 = N 1 0
+ 3648 = N 1 0
+ 3840 = N 1 0
+ 3936 = N 1 0
+ 4032 = N 1 0
+ 4128 = N 1 0
+ 4224 = N 1 0
+ 4320 = N 1 0
+ 4416 = N 1 0
+ 4608 = N 3 0
+ 4752 = N 2 0
+ 5040 = N 1 0
+ 5184 = N 1 0
+ 5424 = N 1 0
+ 5616 = N 1 0
+ 5760 = N 1 0
+ 5952 = N 1 0
+ 6144 = N 3 0
+ 6144 = S 2 1536
+ 6288 = N 2 0
+ 6624 = N 1 0
+ 6720 = N 1 0
+ 6912 = N 1 0
+ 7056 = N 1 0
+ 7200 = N 1 0
+ 7392 = N 1 0
+ 7488 = N 1 0
+ 7680 = N 3 0
+ 7824 = N 2 0
+ 8064 = N 1 0
+ 8256 = N 1 0
+ 8448 = N 1 0
+ 8544 = N 1 0
+ 8640 = N 1 0
+ 8736 = N 1 0
+ 8832 = N 1 0
+ 8928 = N 1 0
+ 9216 = N 3 0
+ 9360 = N 2 0
+ 9600 = N 1 0
+ 9744 = N 1 0
+ 9888 = N 1 0
+ 10032 = N 1 0
+ 10176 = N 1 0
+ 10368 = N 1 0
+ 10464 = N 1 0
+ 10560 = N 2 736
+ 11328 = N 0 0
+ 11424 = N 1 0
+ 11520 = N 2 160
+ 11712 = N 0 0
+ 11808 = N 1 448
+ 12288 = N 1 0
+ 12384 = N 2 0
+ 12480 = N 3 160
+ 12672 = N 1 0
+ 12768 = N 2 336
+ 13248 = N 1 0
+ 13344 = N 2 0
+ 13440 = N 3 2064
+ 15360 = S 2 768
+ 15600 = N 2 0
+ 15744 = N 0 0
+ 15888 = N 1 0
+ 15984 = N 2 0
+ 16128 = N 0 0
+ 16224 = N 1 0
+ 16320 = N 0 0
+ 16416 = N 1 0
+ 16704 = N 0 0
+ 16800 = N 1 0
+ 16896 = N 0 0
+ 16992 = N 1 0
+ 17280 = N 0 0
+ 17376 = N 1 0
+ 17472 = N 0 0
+ 17664 = N 3 0
+ 17808 = N 3 0
+ 17952 = N 2 0
+ 18096 = N 2 0
+ 18240 = N 1 0
+ 18384 = N 1 0
+ 18528 = N 0 0
+ 18672 = N 0 0
+ 18816 = N 2 0
+ 18816 = N 3 0
+ 19008 = N 1 0
+ 19008 = N 2 0
+ 19200 = N 0 0
+ 19200 = N 1 0
+ 19392 = N 0 0
+ 19488 = N 1 0
+ 19584 = N 2 160
+ 19776 = N 0 0
+ 19872 = N 1 448
+ 20352 = N 1 0
+ 20448 = N 2 0
+ 20544 = N 3 160
+ 20736 = N 1 0
+ 20832 = N 2 336
+ 21312 = N 1 0
+ 21408 = N 2 0
+ 21504 = N 3 1536
+ 23664 = N 2 0
+ 23856 = N 2 0
+ 23952 = N 2 0
+ 24096 = N 2 0
+ 24192 = N 0 0
+ 24288 = N 1 0
+ 24384 = N 0 0
+ 24480 = N 1 0
+ 24768 = N 0 0
+ 24864 = N 1 0
+ 24960 = N 0 0
+ 25056 = N 1 0
+ 25344 = N 0 0
+ 25440 = N 1 0
+ 25536 = N 0 0
+ 25728 = N 3 0
+ 25728 = S 2 1920
+ 25872 = N 3 0
+ 26016 = N 2 0
+ 26160 = N 2 0
+ 26304 = N 1 0
+ 26448 = N 1 0
+ 26592 = N 0 0
+ 26688 = N 0 0
+ 26880 = N 2 0
+ 26880 = N 3 0
+ 27072 = N 1 0
+ 27072 = N 2 0
+ 27264 = N 0 576
+ 27264 = N 1 576
+ 28032 = N 3 0
+ 28128 = N 2 0
+ 28224 = N 1 0
+ 28320 = N 3 0
+ 28416 = N 2 0
+ 28512 = N 3 0
+ 28608 = N 2 0
+ 28704 = N 1 0
+ 28800 = N 0 0
+ 28896 = N 1 0
+ 28992 = N 2 0
+ 29088 = N 0 0
+ 29184 = N 1 0
+ 29328 = N 2 144
+ 29568 = N 3 0
+ 29664 = N 1 0
+ 29760 = N 2 0
+ 29904 = N 0 112
+ 30048 = N 1 0
+ 30144 = N 1 0
+ 30288 = N 2 624
+ 31104 = N 2 0
+ 31200 = N 3 0
+ 31296 = N 2 0
+ 31392 = N 1 0
+ 31488 = N 0 0
+ 31584 = N 3 0
+ 31680 = N 2 0
+ 31776 = N 1 0
+ 31872 = N 2 0
+ 31968 = N 1 0
+ 32064 = N 2 0
+ 32160 = N 3 0
+ 32256 = N 2 0
+ 32400 = N 0 0
+ 32640 = N 1 0
+ 32736 = N 2 0
+ 32832 = N 3 0
+ 32928 = N 2 0
+ 33024 = N 3 0
+ 33120 = N 2 0
+ 33216 = N 0 0
+ 33360 = N 1 624
+ 34176 = N 3 0
+ 34272 = N 2 0
+ 34368 = N 1 0
+ 34464 = N 3 0
+ 34560 = N 2 0
+ 34656 = N 3 0
+ 34752 = N 2 0
+ 34848 = N 1 0
+ 34944 = N 0 0
+ 35040 = N 1 0
+ 35136 = N 2 0
+ 35232 = N 0 0
+ 35328 = N 1 0
+ 35472 = N 2 144
+ 35712 = N 3 0
+ 35808 = N 1 0
+ 35904 = N 2 0
+ 36048 = N 0 112
+ 36192 = N 1 0
+ 36288 = N 1 0
+ 36432 = N 2 624
+ 37248 = N 2 0
+ 37248 = S 2 768
+ 37344 = N 3 0
+ 37440 = N 2 0
+ 37536 = N 1 0
+ 37632 = N 0 0
+ 37728 = N 3 0
+ 37824 = N 2 0
+ 37920 = N 1 0
+ 38016 = N 2 0
+ 38112 = N 1 0
+ 38208 = N 2 0
+ 38304 = N 3 0
+ 38400 = N 2 0
+ 38544 = N 0 0
+ 38784 = N 1 0
+ 38880 = N 2 0
+ 38976 = N 3 0
+ 39072 = N 2 0
+ 39168 = N 3 0
+ 39264 = N 2 0
+ 39360 = N 0 0
+ 39504 = N 1 592
+ 40128 = N 0 0
+ 40224 = N 1 0
+ 40320 = N 2 160
+ 40512 = N 0 0
+ 40608 = N 1 448
+ 41088 = N 1 0
+ 41184 = N 2 0
+ 41280 = N 3 160
+ 41472 = N 1 0
+ 41568 = N 2 336
+ 42048 = N 1 0
+ 42144 = N 2 0
+ 42240 = N 3 1536
+ 44256 = N 2 0
+ 44352 = N 2 0
+ 44640 = N 2 0
+ 44784 = N 2 0
+ 44928 = N 0 0
+ 45024 = N 1 0
+ 45120 = N 0 0
+ 45216 = N 1 0
+ 45312 = N 1 0
+ 45504 = N 0 0
+ 45600 = N 1 0
+ 45696 = N 0 0
+ 45792 = N 1 0
+ 46080 = N 0 0
+ 46176 = N 1 0
+ 46320 = N 0 0
+ 46464 = N 3 0
+ 46608 = N 3 0
+ 46752 = N 2 0
+ 46896 = N 2 0
+ 47040 = N 1 0
+ 47184 = N 1 0
+ 47328 = N 0 0
+ 47472 = N 0 0
+ 47616 = N 2 0
+ 47616 = N 3 0
+ 47808 = N 1 0
+ 47808 = N 2 0
+ 48000 = N 0 160
+ 48000 = N 1 160
+ 48192 = N 0 0
+ 48192 = S 2 1728
+ 48288 = N 1 0
+ 48384 = N 2 160
+ 48576 = N 0 0
+ 48672 = N 1 448
+ 49152 = N 1 0
+ 49248 = N 2 0
+ 49344 = N 3 160
+ 49536 = N 1 0
+ 49632 = N 2 336
+ 50112 = N 1 0
+ 50208 = N 2 0
+ 50304 = N 3 1536
+ 52320 = N 1 0
+ 52416 = N 2 0
+ 52512 = N 3 0
+ 52608 = N 2 0
+ 52704 = N 1 0
+ 52800 = N 0 0
+ 52896 = N 1 0
+ 52992 = N 2 0
+ 53088 = N 1 0
+ 53184 = N 0 0
+ 53280 = N 1 0
+ 53376 = N 2 0
+ 53472 = N 3 0
+ 53568 = N 2 0
+ 53664 = N 1 0
+ 53760 = N 0 0
+ 53856 = N 1 0
+ 53952 = N 2 0
+ 54048 = N 1 0
+ 54144 = N 3 160
+ 54336 = N 2 0
+ 54432 = N 2 0
+ 54528 = N 3 0
+ 54672 = N 3 0
+ 54816 = N 2 0
+ 54960 = N 2 0
+ 55104 = N 1 0
+ 55248 = N 1 0
+ 55392 = N 0 0
+ 55536 = N 0 0
+ 55680 = N 2 0
+ 55680 = N 3 0
+ 55872 = N 1 0
+ 55872 = N 2 0
+ 56064 = N 0 576
+ 56064 = N 1 576
+ 56832 = N 3 0
+ 56928 = N 2 0
+ 57024 = N 1 0
+ 57120 = N 3 0
+ 57216 = N 2 0
+ 57312 = N 3 0
+ 57408 = N 2 0
+ 57504 = N 1 0
+ 57600 = N 0 0
+ 57696 = N 1 0
+ 57792 = N 2 0
+ 57888 = N 0 0
+ 57984 = N 1 0
+ 58128 = N 2 144
+ 58368 = N 3 0
+ 58368 = S 2 1152
+ 58464 = N 1 0
+ 58560 = N 2 0
+ 58704 = N 0 112
+ 58848 = N 1 0
+ 58944 = N 1 0
+ 59088 = N 2 624
+ 59904 = N 2 0
+ 60000 = N 3 0
+ 60096 = N 2 0
+ 60192 = N 1 0
+ 60288 = N 0 0
+ 60384 = N 3 0
+ 60480 = N 2 0
+ 60576 = N 1 0
+ 60672 = N 2 0
+ 60768 = N 1 0
+ 60864 = N 2 0
+ 60960 = N 3 0
+ 61056 = N 2 0
+ 61200 = N 0 0
+ 61440 = N 1 0
+ 61536 = N 2 0
+ 61632 = N 3 0
+ 61728 = N 2 0
+ 61824 = N 3 0
+ 61920 = N 2 0
+ 62016 = N 0 0
+ 62160 = N 1 624
+ 62976 = N 3 0
+ 63072 = N 2 0
+ 63168 = N 1 0
+ 63264 = N 3 0
+ 63360 = N 2 0
+ 63456 = N 3 0
+ 63552 = N 2 0
+ 63648 = N 1 0
+ 63744 = N 0 0
+ 63840 = N 1 0
+ 63936 = N 2 0
+ 64032 = N 0 0
+ 64128 = N 1 0
+ 64272 = N 2 144
+ 64512 = N 3 0
+ 64608 = N 1 0
+ 64704 = N 2 0
+ 64848 = N 0 112
+ 64992 = N 1 0
+ 65088 = N 1 0
+ 65232 = N 2 624
+ 66048 = N 2 0
+ 66144 = N 3 0
+ 66240 = N 2 0
+ 66336 = N 1 0
+ 66432 = N 0 0
+ 66528 = N 3 0
+ 66624 = N 2 0
+ 66720 = N 1 0
+ 66816 = N 2 0
+ 66912 = N 1 0
+ 67008 = N 2 0
+ 67104 = N 3 0
+ 67200 = N 2 0
+ 67344 = N 0 0
+ 67584 = N 1 0
+ 67680 = N 2 0
+ 67776 = N 3 0
+ 67872 = N 2 0
+ 67968 = N 3 0
+ 68064 = N 2 0
+ 68160 = N 0 0
+ 68304 = N 1 592
+ 68928 = N 0 0
+ 68928 = S 2 1536
+ 69024 = N 1 0
+ 69120 = N 2 160
+ 69312 = N 0 0
+ 69408 = N 1 448
+ 69888 = N 1 0
+ 69984 = N 2 0
+ 70080 = N 3 160
+ 70272 = N 1 0
+ 70368 = N 2 336
+ 70848 = N 1 0
+ 70944 = N 2 0
+ 71040 = N 3 1536
+ 73152 = N 0 0
+ 73248 = N 1 0
+ 73344 = N 2 0
+ 73440 = N 1 0
+ 73536 = N 0 0
+ 73632 = N 1 0
+ 73728 = N 2 0
+ 73824 = N 1 0
+ 73968 = N 2 352
+ 74352 = N 2 336
+ 74784 = N 3 448
+ 75264 = N 3 0
+ 75408 = N 3 0
+ 75552 = N 2 0
+ 75696 = N 2 0
+ 75840 = N 1 0
+ 75984 = N 1 0
+ 76128 = N 0 0
+ 76272 = N 0 0
+ 76416 = N 2 0
+ 76416 = N 3 0
+ 76608 = N 1 0
+ 76608 = N 2 0
+ 76800 = N 0 160
+ 76800 = N 1 160
+ 76992 = N 0 0
+ 77088 = N 1 0
+ 77184 = N 2 160
+ 77376 = N 0 0
+ 77472 = N 1 448
+ 77952 = N 1 0
+ 78048 = N 2 0
+ 78144 = N 3 160
+ 78336 = N 1 0
+ 78432 = N 2 336
+ 78912 = N 0 0
+ 78912 = S 2 1152
+ 79040 = N 1 0
+ 79168 = N 2 0
+ 79296 = N 3 0
+ 79488 = N 3 1344
+ 81360 = N 0 0
+ 81504 = N 1 0
+ 81600 = N 2 0
+ 81696 = N 1 0
+ 81792 = N 2 0
+ 81888 = N 1 0
+ 82032 = N 3 112
+ 82176 = N 1 0
+ 82272 = N 2 0
+ 82368 = N 1 0
+ 82464 = N 0 0
+ 82656 = N 2 0
+ 82752 = N 1 0
+ 82848 = N 0 0
+ 82944 = N 2 0
+ 83040 = N 1 0
+ 83136 = N 2 0
+ 83232 = N 2 0
+ 83328 = N 2 0
+ 83472 = N 3 0
+ 83616 = N 1 0
+ 83760 = N 3 0
+ 83904 = N 1 0
+ 84048 = N 2 0
+ 84192 = N 0 0
+ 84336 = N 1 0
+ 84480 = N 2 0
+ 84480 = N 3 0
+ 84672 = N 1 0
+ 84672 = N 2 0
+ 84864 = N 0 0
+ 85056 = N 2 0
+ 85200 = N 3 0
+ 85344 = N 1 0
+ 85488 = N 3 0
+ 85632 = N 1 0
+ 85776 = N 2 0
+ 85920 = N 0 0
+ 86064 = N 1 0
+ 86208 = N 2 0
+ 86208 = N 3 0
+ 86400 = N 1 0
+ 86400 = N 2 0
+ 86592 = N 0 0
+ 86784 = N 2 0
+ 86928 = N 3 0
+ 87072 = N 1 0
+ 87216 = N 3 0
+ 87360 = N 1 0
+ 87504 = N 2 0
+ 87648 = N 0 0
+ 87792 = N 1 0
+ 87936 = N 1 0
+ 88032 = N 2 0
+ 88128 = N 0 0
+ 88224 = N 1 0
+ 88512 = N 2 0
+ 88656 = N 3 0
+ 88800 = N 1 0
+ 88944 = N 3 0
+ 89088 = N 1 0
+ 89232 = N 2 0
+ 89376 = N 0 0
+ 89520 = N 1 0
+ 89664 = N 1 0
+ 89760 = N 2 0
+ 89856 = N 0 0
+ 89952 = N 1 0
+ 90240 = N 2 0
+ 90384 = N 3 0
+ 90528 = N 1 0
+ 90672 = N 3 0
+ 90816 = N 1 0
+ 90960 = N 2 0
+ 91104 = N 0 0
+ 91248 = N 1 0
+ 91392 = N 1 0
+ 91488 = N 2 0
+ 91584 = N 0 0
+ 91680 = N 1 0
+ 91776 = N 0 544
+ 92352 = N 3 544
+ 92352 = N 6 0
+ 92928 = N 2 352
+ 92928 = N 6 0
+ 93312 = N 1 352
+ 93312 = N 6 0
+ 93696 = N 0 352
+ 93696 = N 6 0
+}
+[EasySingle]
+{
+ 1536 = N 2 0
+ 1680 = N 1 0
+ 2112 = N 0 0
+ 2304 = N 0 0
+ 2496 = N 0 0
+ 2688 = N 0 0
+ 2880 = N 0 0
+ 3072 = N 2 0
+ 3216 = N 1 0
+ 3504 = N 0 0
+ 3648 = N 0 0
+ 3840 = N 0 0
+ 4032 = N 0 0
+ 4224 = N 0 0
+ 4416 = N 0 0
+ 4608 = N 2 0
+ 4752 = N 1 0
+ 5040 = N 0 0
+ 5424 = N 0 0
+ 5760 = N 0 0
+ 5952 = N 0 0
+ 6144 = N 2 0
+ 6144 = S 2 1536
+ 6288 = N 1 0
+ 6624 = N 0 0
+ 6720 = N 0 0
+ 6912 = N 0 0
+ 7200 = N 0 0
+ 7488 = N 0 0
+ 7680 = N 2 0
+ 7824 = N 1 0
+ 8064 = N 0 0
+ 8256 = N 0 0
+ 8448 = N 0 0
+ 8640 = N 0 0
+ 8832 = N 0 0
+ 9216 = N 2 0
+ 9360 = N 1 0
+ 9600 = N 0 0
+ 9888 = N 0 0
+ 10176 = N 0 0
+ 10368 = N 0 0
+ 10560 = N 1 736
+ 11328 = N 0 0
+ 11520 = N 1 160
+ 11808 = N 0 448
+ 12288 = N 1 0
+ 12480 = N 2 160
+ 12768 = N 1 336
+ 13248 = N 1 0
+ 13440 = N 2 2064
+ 15360 = S 2 768
+ 15600 = N 2 0
+ 15984 = N 2 0
+ 16128 = N 0 0
+ 16320 = N 0 0
+ 16704 = N 0 0
+ 16896 = N 0 0
+ 17280 = N 0 0
+ 17472 = N 0 0
+ 17664 = N 2 0
+ 17952 = N 1 0
+ 18240 = N 2 0
+ 18528 = N 0 0
+ 18816 = N 2 0
+ 19008 = N 1 0
+ 19200 = N 0 0
+ 19392 = N 0 0
+ 19584 = N 1 160
+ 19872 = N 0 448
+ 20352 = N 1 0
+ 20544 = N 2 160
+ 20832 = N 1 336
+ 21312 = N 1 0
+ 21504 = N 2 1536
+ 23664 = N 2 0
+ 23856 = N 2 0
+ 24192 = N 0 0
+ 24384 = N 0 0
+ 24768 = N 0 0
+ 24960 = N 0 0
+ 25344 = N 0 0
+ 25536 = N 0 0
+ 25728 = N 2 0
+ 25728 = S 2 1920
+ 26016 = N 1 0
+ 26304 = N 2 0
+ 26592 = N 0 0
+ 26880 = N 2 0
+ 27072 = N 1 0
+ 27264 = N 0 576
+ 28032 = N 2 0
+ 28224 = N 1 0
+ 28416 = N 0 0
+ 28608 = N 1 0
+ 28800 = N 0 0
+ 28992 = N 1 0
+ 29184 = N 0 0
+ 29328 = N 1 144
+ 29568 = N 2 0
+ 29760 = N 1 0
+ 29904 = N 0 112
+ 30144 = N 1 0
+ 30288 = N 2 624
+ 31104 = N 1 0
+ 31296 = N 1 0
+ 31488 = N 0 0
+ 31680 = N 2 0
+ 31872 = N 1 0
+ 32064 = N 1 0
+ 32256 = N 1 0
+ 32400 = N 0 0
+ 32640 = N 1 0
+ 32832 = N 2 0
+ 33024 = N 2 0
+ 33216 = N 0 0
+ 33360 = N 1 624
+ 34176 = N 2 0
+ 34368 = N 1 0
+ 34560 = N 0 0
+ 34752 = N 1 0
+ 34944 = N 0 0
+ 35136 = N 1 0
+ 35328 = N 0 0
+ 35472 = N 1 144
+ 35712 = N 2 0
+ 35904 = N 1 0
+ 36048 = N 0 112
+ 36288 = N 1 0
+ 36432 = N 2 624
+ 37248 = N 1 0
+ 37248 = S 2 768
+ 37440 = N 1 0
+ 37632 = N 0 0
+ 37824 = N 2 0
+ 38016 = N 1 0
+ 38208 = N 1 0
+ 38400 = N 1 0
+ 38544 = N 0 0
+ 38784 = N 1 0
+ 38976 = N 2 0
+ 39168 = N 2 0
+ 39360 = N 0 0
+ 39504 = N 1 592
+ 40128 = N 0 0
+ 40320 = N 1 160
+ 40608 = N 0 448
+ 41088 = N 1 0
+ 41280 = N 2 160
+ 41568 = N 1 336
+ 42048 = N 1 0
+ 42240 = N 2 1536
+ 44352 = N 2 0
+ 44640 = N 2 0
+ 44928 = N 0 0
+ 45120 = N 0 0
+ 45504 = N 0 0
+ 45696 = N 0 0
+ 46080 = N 0 0
+ 46320 = N 0 0
+ 46464 = N 2 0
+ 46752 = N 1 0
+ 47040 = N 2 0
+ 47328 = N 0 0
+ 47616 = N 2 0
+ 47808 = N 1 0
+ 48000 = N 0 160
+ 48192 = N 0 0
+ 48192 = S 2 1728
+ 48384 = N 1 160
+ 48672 = N 0 448
+ 49152 = N 1 0
+ 49344 = N 2 160
+ 49632 = N 1 336
+ 50112 = N 1 0
+ 50304 = N 2 1536
+ 52416 = N 2 0
+ 52608 = N 1 0
+ 52800 = N 0 0
+ 52992 = N 2 0
+ 53184 = N 1 0
+ 53376 = N 2 0
+ 53568 = N 1 0
+ 53760 = N 0 0
+ 53952 = N 1 0
+ 54144 = N 2 160
+ 54336 = N 1 0
+ 54528 = N 2 0
+ 54816 = N 1 0
+ 55104 = N 2 0
+ 55392 = N 0 0
+ 55680 = N 2 0
+ 55872 = N 1 0
+ 56064 = N 0 576
+ 56832 = N 2 0
+ 57024 = N 1 0
+ 57216 = N 0 0
+ 57408 = N 1 0
+ 57600 = N 0 0
+ 57792 = N 1 0
+ 57984 = N 0 0
+ 58128 = N 1 144
+ 58368 = N 2 0
+ 58368 = S 2 1152
+ 58560 = N 1 0
+ 58704 = N 0 112
+ 58944 = N 1 0
+ 59088 = N 2 624
+ 59904 = N 1 0
+ 60096 = N 1 0
+ 60288 = N 0 0
+ 60480 = N 2 0
+ 60672 = N 1 0
+ 60864 = N 1 0
+ 61056 = N 1 0
+ 61200 = N 0 0
+ 61440 = N 1 0
+ 61632 = N 2 0
+ 61824 = N 2 0
+ 62016 = N 0 0
+ 62160 = N 1 624
+ 62976 = N 2 0
+ 63168 = N 1 0
+ 63360 = N 0 0
+ 63552 = N 1 0
+ 63744 = N 0 0
+ 63936 = N 1 0
+ 64128 = N 0 0
+ 64272 = N 1 144
+ 64512 = N 2 0
+ 64704 = N 1 0
+ 64848 = N 0 112
+ 65088 = N 1 0
+ 65232 = N 2 624
+ 66048 = N 1 0
+ 66240 = N 1 0
+ 66432 = N 0 0
+ 66624 = N 2 0
+ 66816 = N 1 0
+ 67008 = N 1 0
+ 67200 = N 1 0
+ 67344 = N 0 0
+ 67584 = N 1 0
+ 67776 = N 2 0
+ 67968 = N 2 0
+ 68160 = N 0 0
+ 68304 = N 1 592
+ 68928 = N 0 0
+ 68928 = S 2 1536
+ 69120 = N 1 160
+ 69408 = N 0 448
+ 69888 = N 1 0
+ 70080 = N 2 160
+ 70368 = N 1 336
+ 70848 = N 1 0
+ 71040 = N 2 1536
+ 73152 = N 0 0
+ 73344 = N 1 0
+ 73536 = N 0 0
+ 73728 = N 1 0
+ 73968 = N 1 352
+ 74352 = N 1 336
+ 74784 = N 2 448
+ 75264 = N 2 0
+ 75552 = N 1 0
+ 75840 = N 2 0
+ 76128 = N 0 0
+ 76416 = N 2 0
+ 76608 = N 1 0
+ 76800 = N 0 160
+ 76992 = N 0 0
+ 77184 = N 1 160
+ 77472 = N 0 448
+ 77952 = N 1 0
+ 78144 = N 2 160
+ 78432 = N 1 336
+ 78912 = N 0 0
+ 78912 = S 2 1152
+ 79168 = N 1 0
+ 79488 = N 2 1344
+ 81360 = N 0 0
+ 81600 = N 1 0
+ 81792 = N 1 0
+ 82032 = N 2 112
+ 82176 = N 1 0
+ 82368 = N 1 0
+ 82560 = N 0 0
+ 82752 = N 0 0
+ 82944 = N 1 0
+ 83136 = N 1 0
+ 83328 = N 2 0
+ 83616 = N 1 0
+ 83904 = N 2 0
+ 84192 = N 0 0
+ 84480 = N 2 0
+ 84672 = N 1 0
+ 84864 = N 0 0
+ 85056 = N 2 0
+ 85344 = N 1 0
+ 85632 = N 2 0
+ 85920 = N 0 0
+ 86208 = N 2 0
+ 86400 = N 1 0
+ 86592 = N 0 0
+ 86784 = N 2 0
+ 87072 = N 1 0
+ 87360 = N 2 0
+ 87648 = N 0 0
+ 87936 = N 2 0
+ 88128 = N 1 0
+ 88320 = N 0 0
+ 88512 = N 2 0
+ 88800 = N 1 0
+ 89088 = N 2 0
+ 89376 = N 0 0
+ 89664 = N 2 0
+ 89856 = N 1 0
+ 90048 = N 0 0
+ 90240 = N 2 0
+ 90528 = N 1 0
+ 90816 = N 2 0
+ 91104 = N 0 0
+ 91392 = N 2 0
+ 91584 = N 1 0
+ 91776 = N 0 544
+ 92352 = N 2 544
+ 92352 = N 6 0
+ 92928 = N 1 352
+ 92928 = N 6 0
+ 93312 = N 0 768
+ 93312 = N 6 0
+}