blob: 5e0baa2eb46afe101ce5481bb27a318ca6b62c3d (
plain)
1
2
3
4
5
6
7
8
9
10
11
12
13
14
15
16
17
18
19
20
21
22
23
24
25
26
27
28
29
30
31
32
33
34
35
36
37
38
39
40
41
42
43
44
45
46
47
48
49
50
51
52
53
54
55
56
57
58
59
60
61
62
63
64
65
66
67
68
69
70
71
72
73
74
75
76
77
78
79
80
81
82
83
84
85
86
87
88
89
90
91
92
93
94
95
96
97
98
99
100
101
102
103
104
105
106
107
108
109
110
111
112
113
114
115
116
117
118
119
120
121
122
123
124
125
126
127
128
129
130
131
132
133
134
135
136
137
138
139
140
141
142
143
144
145
146
147
148
149
150
151
152
153
154
155
156
157
158
159
160
161
162
163
164
165
166
167
168
169
170
171
172
173
174
175
176
177
178
179
180
181
182
183
184
185
186
187
188
189
190
191
192
193
194
195
196
197
198
199
200
201
202
203
204
205
206
207
208
209
210
211
212
213
214
215
216
217
218
219
220
221
222
223
224
225
226
227
228
229
230
231
232
233
234
235
236
237
238
239
240
241
242
243
244
245
246
247
248
249
250
251
252
253
254
255
256
257
258
259
260
261
262
263
264
265
266
267
268
269
270
271
272
273
274
275
276
277
278
279
280
281
282
283
284
285
286
287
288
289
290
291
292
293
294
295
296
297
298
299
300
301
302
303
304
305
306
307
308
309
310
311
312
313
314
315
316
317
318
319
320
321
322
323
324
325
326
327
328
329
330
331
332
333
334
335
336
337
338
339
340
341
342
343
344
345
346
347
348
349
350
351
352
353
354
355
356
357
358
359
360
361
362
363
364
365
366
367
368
369
370
371
372
373
374
375
376
377
378
379
380
381
382
383
384
385
386
387
388
389
390
391
392
393
394
395
396
397
398
399
400
401
402
403
404
405
406
407
408
409
410
411
412
413
414
415
416
417
418
419
420
421
422
423
424
425
426
427
428
429
430
431
432
433
434
435
436
437
438
439
440
441
442
443
444
445
446
447
448
449
450
451
452
453
454
455
456
457
458
459
460
461
462
463
464
465
466
467
468
469
470
471
472
473
474
475
476
477
478
479
480
481
482
483
484
485
486
487
488
489
490
491
492
493
494
495
496
497
498
499
500
501
502
503
504
505
506
507
508
509
510
511
512
513
514
515
516
517
518
519
520
521
522
523
524
525
526
527
528
529
530
531
532
533
534
535
536
537
538
539
540
541
542
543
544
545
546
547
548
549
550
551
552
553
554
555
556
557
558
559
560
561
562
563
564
565
566
567
568
569
570
571
572
573
574
575
576
577
578
579
580
581
582
583
584
585
586
587
588
589
590
591
592
593
594
595
596
597
598
599
600
601
602
603
604
605
606
607
608
609
610
611
612
613
614
615
616
617
618
619
620
621
622
623
624
625
626
627
628
629
630
631
632
633
634
635
636
637
638
639
640
641
642
643
644
645
646
647
648
649
650
651
652
653
654
655
656
657
658
659
660
661
662
663
664
665
666
667
668
669
670
671
672
673
674
675
676
677
678
679
680
681
682
683
684
685
686
687
688
689
690
691
692
693
694
695
696
697
698
699
700
701
702
703
704
705
706
707
708
709
710
711
712
713
714
715
716
717
718
719
720
721
722
723
724
725
726
727
728
729
730
731
732
733
734
735
736
737
738
739
740
741
742
743
744
745
746
747
748
749
750
751
752
753
754
755
756
757
758
759
760
761
762
763
764
765
766
767
768
769
770
771
772
773
774
775
776
777
778
779
780
781
782
783
784
785
786
787
788
789
790
791
792
793
794
795
796
797
798
799
800
801
802
803
804
805
806
807
808
809
810
811
812
813
814
815
816
817
818
819
820
821
822
823
824
825
826
827
828
829
830
831
832
833
834
835
836
837
838
839
840
841
842
843
844
845
846
847
848
849
850
851
852
853
854
855
856
857
858
859
860
861
862
863
864
865
866
867
868
869
870
871
872
873
874
875
876
877
878
879
880
881
882
883
884
885
886
887
888
889
890
891
892
893
894
895
896
897
898
899
900
901
902
903
904
905
906
907
908
909
910
911
912
913
914
915
916
917
918
919
920
921
922
923
924
925
926
927
928
929
930
931
932
933
934
935
936
937
938
939
940
941
942
943
944
945
946
947
948
949
950
951
952
953
954
955
956
957
958
959
960
961
962
963
964
965
966
967
968
969
970
971
972
973
974
975
976
977
978
979
980
981
982
983
984
985
986
987
988
989
990
991
992
993
994
995
996
997
998
999
1000
1001
1002
1003
1004
1005
1006
1007
1008
1009
1010
1011
1012
1013
1014
1015
1016
1017
1018
1019
1020
1021
1022
1023
1024
1025
1026
1027
1028
1029
1030
1031
1032
1033
1034
1035
1036
1037
1038
1039
1040
1041
1042
1043
1044
1045
1046
1047
1048
1049
1050
1051
1052
1053
1054
1055
1056
1057
1058
1059
1060
1061
1062
1063
1064
1065
1066
1067
1068
1069
1070
1071
1072
1073
1074
1075
1076
1077
1078
1079
1080
1081
1082
1083
1084
1085
1086
1087
1088
1089
1090
1091
1092
1093
1094
1095
1096
1097
1098
1099
1100
1101
1102
1103
1104
1105
1106
1107
1108
1109
1110
1111
1112
1113
1114
1115
1116
1117
1118
1119
1120
1121
1122
1123
1124
1125
1126
1127
1128
1129
1130
1131
1132
1133
1134
1135
1136
1137
1138
1139
1140
1141
1142
1143
1144
1145
1146
1147
1148
1149
1150
1151
1152
1153
1154
1155
1156
1157
1158
1159
1160
1161
1162
1163
1164
1165
1166
1167
1168
1169
1170
1171
1172
1173
1174
1175
1176
1177
1178
1179
1180
1181
1182
1183
1184
1185
1186
1187
1188
1189
1190
1191
1192
1193
1194
1195
1196
1197
1198
1199
1200
1201
1202
1203
1204
1205
1206
1207
1208
1209
1210
1211
1212
1213
1214
1215
1216
1217
1218
1219
1220
1221
1222
1223
1224
1225
1226
1227
1228
1229
1230
1231
1232
1233
1234
1235
1236
1237
1238
1239
1240
1241
1242
1243
1244
1245
1246
1247
1248
1249
1250
1251
1252
1253
1254
1255
1256
1257
1258
1259
1260
1261
1262
1263
1264
1265
1266
1267
1268
1269
1270
1271
1272
1273
1274
1275
1276
1277
1278
1279
1280
1281
1282
1283
1284
1285
1286
1287
1288
1289
1290
1291
1292
1293
1294
1295
1296
1297
1298
1299
1300
1301
1302
1303
1304
1305
1306
1307
1308
1309
1310
1311
1312
1313
1314
1315
1316
1317
1318
1319
1320
1321
1322
1323
1324
1325
1326
1327
1328
1329
1330
1331
1332
1333
1334
1335
1336
1337
1338
1339
1340
1341
1342
1343
1344
1345
1346
1347
1348
1349
1350
1351
1352
1353
1354
1355
1356
1357
1358
1359
1360
1361
1362
1363
1364
1365
1366
1367
1368
1369
1370
1371
1372
1373
1374
1375
1376
1377
1378
1379
1380
1381
1382
1383
1384
1385
1386
1387
1388
1389
1390
1391
1392
1393
1394
1395
1396
1397
1398
1399
1400
1401
1402
1403
1404
1405
1406
1407
1408
1409
1410
1411
1412
1413
1414
1415
1416
1417
1418
1419
1420
1421
1422
1423
1424
1425
1426
1427
1428
1429
1430
1431
1432
1433
1434
1435
1436
1437
1438
1439
1440
1441
1442
1443
1444
1445
1446
1447
1448
1449
1450
1451
1452
1453
1454
1455
1456
1457
1458
1459
1460
1461
1462
1463
1464
1465
1466
1467
1468
1469
1470
1471
1472
1473
1474
1475
1476
1477
1478
1479
1480
1481
1482
1483
1484
1485
1486
1487
1488
1489
1490
1491
1492
1493
1494
1495
1496
1497
1498
1499
1500
1501
1502
1503
1504
1505
1506
1507
1508
1509
1510
1511
1512
1513
1514
1515
1516
1517
1518
1519
1520
1521
1522
1523
1524
1525
1526
1527
1528
1529
1530
1531
1532
1533
1534
1535
1536
1537
1538
1539
1540
1541
1542
1543
1544
1545
1546
1547
1548
1549
1550
1551
1552
1553
1554
1555
1556
1557
1558
1559
1560
1561
1562
1563
1564
1565
1566
1567
1568
1569
1570
1571
1572
1573
1574
1575
1576
1577
1578
1579
1580
1581
1582
1583
1584
1585
1586
1587
1588
1589
1590
1591
1592
1593
1594
1595
1596
1597
1598
1599
1600
1601
1602
1603
1604
1605
1606
1607
1608
1609
1610
1611
1612
1613
1614
1615
1616
1617
1618
1619
1620
1621
1622
1623
1624
1625
1626
1627
1628
1629
1630
1631
1632
1633
1634
1635
1636
1637
1638
1639
1640
1641
1642
1643
1644
1645
1646
1647
1648
1649
1650
1651
1652
1653
1654
1655
1656
1657
1658
1659
1660
1661
1662
1663
1664
1665
1666
1667
1668
1669
1670
1671
1672
1673
1674
1675
1676
1677
1678
1679
1680
1681
1682
1683
1684
1685
1686
1687
1688
1689
1690
1691
1692
1693
1694
1695
1696
1697
1698
1699
1700
1701
1702
1703
1704
1705
1706
1707
1708
1709
1710
1711
1712
1713
1714
1715
1716
1717
1718
1719
1720
1721
1722
1723
1724
1725
1726
1727
1728
1729
1730
1731
1732
1733
1734
1735
1736
1737
1738
1739
1740
1741
1742
1743
1744
1745
1746
1747
1748
1749
1750
1751
1752
1753
1754
1755
1756
1757
1758
1759
1760
1761
1762
1763
1764
1765
1766
1767
1768
1769
1770
1771
1772
1773
1774
1775
1776
1777
1778
1779
1780
1781
1782
1783
1784
1785
1786
1787
1788
1789
1790
1791
1792
1793
1794
1795
1796
1797
1798
1799
1800
1801
1802
1803
1804
1805
1806
1807
1808
1809
1810
1811
1812
1813
1814
1815
1816
1817
1818
1819
1820
1821
1822
1823
1824
1825
1826
1827
1828
1829
1830
1831
1832
1833
1834
1835
1836
1837
1838
1839
1840
1841
1842
1843
1844
1845
1846
1847
1848
1849
1850
1851
1852
1853
1854
1855
1856
1857
1858
1859
1860
1861
1862
1863
1864
1865
1866
1867
1868
1869
1870
1871
1872
1873
1874
1875
1876
1877
1878
1879
1880
1881
1882
1883
1884
1885
1886
1887
1888
1889
1890
1891
1892
1893
1894
1895
1896
1897
1898
1899
1900
1901
1902
1903
1904
1905
1906
1907
1908
1909
1910
1911
1912
1913
1914
1915
1916
1917
1918
1919
1920
1921
1922
1923
1924
1925
1926
1927
1928
1929
1930
1931
1932
1933
1934
1935
1936
1937
1938
1939
1940
1941
1942
1943
1944
1945
1946
1947
1948
1949
1950
1951
1952
1953
1954
1955
1956
1957
1958
1959
1960
1961
1962
1963
1964
1965
1966
1967
1968
1969
1970
1971
1972
1973
1974
1975
1976
1977
1978
1979
1980
1981
1982
1983
1984
1985
1986
1987
1988
1989
1990
1991
1992
1993
1994
1995
1996
1997
1998
1999
2000
2001
2002
2003
2004
2005
2006
2007
2008
2009
2010
2011
2012
2013
2014
2015
2016
2017
2018
2019
2020
2021
2022
2023
2024
2025
2026
2027
2028
2029
2030
2031
2032
2033
2034
2035
2036
2037
2038
2039
2040
2041
2042
2043
2044
2045
2046
2047
2048
2049
2050
2051
2052
2053
2054
2055
2056
2057
2058
2059
2060
2061
2062
2063
2064
2065
2066
2067
2068
2069
2070
2071
2072
2073
2074
2075
2076
2077
2078
2079
2080
2081
2082
2083
2084
2085
2086
2087
2088
2089
2090
2091
2092
2093
2094
2095
2096
2097
2098
2099
2100
2101
2102
2103
2104
2105
2106
2107
2108
2109
2110
2111
2112
2113
2114
2115
2116
2117
2118
2119
2120
2121
2122
2123
2124
2125
2126
2127
2128
2129
2130
2131
2132
2133
2134
2135
2136
2137
2138
2139
2140
2141
2142
2143
2144
2145
2146
2147
2148
2149
2150
2151
2152
2153
2154
2155
2156
2157
2158
2159
2160
2161
2162
2163
2164
2165
2166
2167
2168
2169
2170
2171
2172
2173
2174
2175
2176
2177
2178
2179
2180
2181
2182
2183
2184
2185
2186
2187
2188
2189
2190
2191
2192
2193
2194
2195
2196
2197
2198
2199
2200
2201
2202
2203
2204
2205
2206
2207
2208
2209
2210
2211
2212
2213
2214
2215
2216
2217
2218
2219
2220
2221
2222
2223
2224
2225
2226
2227
2228
2229
2230
2231
2232
2233
2234
2235
2236
2237
2238
2239
2240
2241
2242
2243
2244
2245
2246
2247
2248
2249
2250
2251
2252
2253
2254
2255
2256
2257
2258
2259
2260
2261
2262
2263
2264
2265
2266
2267
2268
2269
2270
2271
2272
2273
2274
2275
2276
2277
2278
2279
2280
2281
2282
2283
2284
2285
2286
2287
2288
2289
2290
2291
2292
2293
2294
2295
2296
2297
2298
2299
2300
2301
2302
2303
2304
2305
2306
2307
2308
2309
2310
2311
2312
2313
2314
2315
2316
2317
2318
2319
2320
2321
2322
2323
2324
2325
2326
2327
2328
2329
2330
2331
2332
2333
2334
2335
2336
2337
2338
2339
2340
2341
2342
2343
2344
2345
2346
2347
2348
2349
2350
2351
2352
2353
2354
2355
2356
2357
2358
2359
2360
2361
2362
2363
2364
2365
2366
2367
2368
2369
2370
2371
2372
2373
2374
2375
2376
2377
2378
2379
2380
2381
2382
2383
2384
2385
2386
2387
2388
2389
2390
2391
2392
2393
2394
2395
2396
2397
2398
2399
2400
2401
2402
2403
2404
2405
2406
2407
2408
2409
2410
2411
2412
2413
2414
2415
2416
2417
2418
2419
2420
2421
2422
2423
2424
2425
2426
2427
2428
2429
2430
2431
2432
2433
2434
2435
2436
2437
2438
2439
2440
2441
2442
2443
2444
2445
2446
2447
2448
2449
2450
2451
2452
2453
2454
2455
2456
2457
2458
2459
2460
2461
2462
2463
2464
2465
2466
2467
2468
2469
2470
2471
2472
2473
2474
2475
2476
2477
2478
2479
2480
2481
2482
2483
2484
2485
2486
2487
2488
2489
2490
2491
2492
2493
2494
2495
2496
2497
2498
2499
2500
2501
2502
2503
2504
2505
2506
2507
2508
2509
2510
2511
2512
2513
2514
2515
2516
2517
2518
2519
2520
2521
2522
2523
2524
2525
2526
2527
2528
2529
2530
2531
2532
2533
2534
2535
2536
2537
2538
2539
2540
2541
2542
2543
2544
2545
2546
2547
2548
2549
2550
2551
2552
2553
2554
2555
2556
2557
2558
2559
2560
2561
2562
2563
2564
2565
2566
2567
2568
2569
2570
2571
2572
2573
2574
2575
2576
2577
2578
2579
2580
2581
2582
2583
2584
2585
2586
2587
2588
2589
2590
2591
2592
2593
2594
2595
2596
2597
2598
2599
2600
2601
2602
2603
2604
2605
2606
2607
2608
2609
2610
2611
2612
2613
2614
2615
2616
2617
2618
2619
2620
2621
2622
2623
2624
2625
2626
2627
2628
2629
2630
2631
2632
2633
2634
2635
2636
2637
2638
2639
2640
2641
2642
2643
2644
2645
2646
2647
2648
2649
2650
2651
2652
2653
2654
2655
2656
2657
2658
2659
2660
2661
2662
2663
2664
2665
2666
2667
2668
2669
2670
2671
2672
2673
2674
2675
2676
2677
2678
2679
2680
2681
2682
2683
2684
2685
2686
2687
2688
2689
2690
2691
2692
2693
2694
2695
2696
2697
2698
2699
2700
2701
2702
2703
2704
2705
2706
2707
2708
2709
2710
2711
2712
2713
2714
2715
2716
2717
2718
2719
2720
2721
2722
2723
2724
2725
2726
2727
2728
2729
2730
2731
2732
2733
2734
2735
2736
2737
2738
2739
2740
2741
2742
2743
2744
2745
2746
2747
2748
2749
2750
|
[Song]
{
Name = "Highway Tune"
Artist = "Greta Van Fleet"
Charter = "GuitarZero132"
Album = "Black Smoke Rising"
Year = ", 2015"
Offset = 0
Resolution = 192
Player2 = bass
Difficulty = 3
PreviewStart = 0
PreviewEnd = 0
Genre = "Modern Rock"
MediaType = "cd"
MusicStream = "song.ogg"
}
[SyncTrack]
{
0 = TS 4
0 = B 123000
768 = B 124000
1536 = B 124000
2688 = B 124000
5376 = B 123000
6144 = B 122000
6912 = B 122000
7008 = B 122000
7296 = B 121000
7488 = B 122000
7680 = B 124000
9984 = B 124000
11904 = B 124000
14976 = B 124000
15360 = B 124000
}
[Events]
{
1536 = E "section Intro"
7680 = E "section Band Enters"
13824 = E "section Verse 1"
19968 = E "section Chorus 1"
26112 = E "section Main Riff 1"
32256 = E "section Verse 2"
38400 = E "section Chorus 2"
44544 = E "section Guitar Solo"
50688 = E "section Bridge"
56832 = E "section Main Riff 2"
62976 = E "section Chorus 3"
}
[ExpertSingle]
{
1536 = N 0 0
1632 = N 2 0
1728 = N 3 0
1752 = N 4 0
1824 = N 2 0
1920 = N 0 0
1944 = N 1 0
2016 = N 2 0
2112 = N 3 0
2160 = N 2 0
2208 = N 0 144
2400 = N 4 0
2496 = N 3 0
2592 = N 4 0
2688 = N 2 0
2784 = N 3 0
2880 = N 1 0
2976 = N 0 144
3168 = N 2 0
3264 = N 3 0
3288 = N 4 0
3360 = N 2 0
3456 = N 0 0
3480 = N 1 0
3552 = N 2 0
3648 = N 3 0
3696 = N 2 0
3744 = N 0 144
3936 = N 4 0
4032 = N 3 0
4128 = N 4 0
4224 = N 2 0
4320 = N 3 0
4416 = N 1 0
4512 = N 0 144
4512 = S 2 864
4704 = N 2 0
4800 = N 3 0
4824 = N 4 0
4896 = N 2 0
4992 = N 0 0
5016 = N 1 0
5088 = N 2 0
5184 = N 3 0
5232 = N 2 0
5280 = N 0 144
5472 = N 4 0
5568 = N 3 0
5664 = N 4 0
5760 = N 2 0
5856 = N 3 0
5952 = N 1 0
6048 = N 0 144
6240 = N 2 0
6336 = N 3 0
6360 = N 4 0
6432 = N 2 0
6528 = N 0 0
6552 = N 1 0
6624 = N 2 0
6720 = N 3 0
6768 = N 2 0
6816 = N 0 144
7008 = N 1 0
7056 = N 2 0
7104 = N 3 0
7200 = N 1 0
7296 = N 0 0
7392 = N 3 0
7488 = N 4 0
7536 = N 3 0
7584 = N 2 0
7632 = N 1 0
7680 = N 0 0
7776 = N 2 0
7872 = N 3 0
7896 = N 4 0
7968 = N 2 0
8064 = N 0 0
8088 = N 1 0
8160 = N 2 0
8256 = N 3 0
8304 = N 2 0
8352 = N 0 144
8544 = N 4 0
8640 = N 3 0
8736 = N 4 0
8832 = N 2 0
8928 = N 3 0
9024 = N 1 0
9120 = N 0 144
9312 = N 2 0
9408 = N 3 0
9432 = N 4 0
9504 = N 2 0
9600 = N 0 0
9624 = N 1 0
9696 = N 2 0
9792 = N 3 0
9840 = N 2 0
9888 = N 0 144
10080 = N 4 0
10176 = N 3 0
10272 = N 4 0
10368 = N 2 0
10464 = N 3 0
10560 = N 1 0
10656 = N 0 144
10848 = N 2 0
10944 = N 3 0
10968 = N 4 0
11040 = N 2 0
11136 = N 0 0
11160 = N 1 0
11232 = N 2 0
11328 = N 3 0
11376 = N 2 0
11424 = N 0 144
11616 = N 4 0
11616 = S 2 672
11712 = N 3 0
11808 = N 4 0
11904 = N 2 0
12000 = N 3 0
12096 = N 1 0
12192 = N 0 144
12384 = N 2 0
12480 = N 3 0
12504 = N 4 0
12576 = N 2 0
12672 = N 0 0
12696 = N 1 0
12768 = N 2 0
12864 = N 3 0
12912 = N 2 0
12960 = N 0 144
13152 = N 4 0
13248 = N 3 0
13344 = N 4 0
13440 = N 2 0
13536 = N 3 0
13632 = N 1 0
13728 = N 0 144
13920 = N 2 0
14016 = N 3 0
14040 = N 4 0
14112 = N 2 0
14208 = N 0 0
14232 = N 1 0
14304 = N 2 0
14400 = N 3 0
14448 = N 2 0
14496 = N 0 144
14688 = N 4 0
14784 = N 3 0
14880 = N 4 0
14976 = N 2 0
15072 = N 3 0
15168 = N 1 0
15264 = N 0 144
15456 = N 2 0
15552 = N 3 0
15576 = N 4 0
15648 = N 2 0
15744 = N 0 0
15768 = N 1 0
15840 = N 2 0
15936 = N 3 0
15984 = N 2 0
16032 = N 0 144
16224 = N 4 0
16320 = N 3 0
16416 = N 4 0
16512 = N 2 0
16608 = N 3 0
16704 = N 1 0
16800 = N 0 144
16992 = N 2 0
17088 = N 3 0
17112 = N 4 0
17184 = N 2 0
17280 = N 0 0
17304 = N 1 0
17376 = N 2 0
17472 = N 3 0
17520 = N 2 0
17568 = N 0 144
17760 = N 4 0
17856 = N 3 0
17952 = N 4 0
18048 = N 2 0
18144 = N 3 0
18240 = N 1 0
18336 = N 0 144
18528 = N 2 0
18528 = S 2 1344
18624 = N 3 0
18648 = N 4 0
18720 = N 2 0
18816 = N 0 0
18840 = N 1 0
18912 = N 2 0
19008 = N 3 0
19056 = N 2 0
19104 = N 0 144
19296 = N 4 0
19392 = N 3 0
19488 = N 4 0
19584 = N 2 0
19680 = N 3 0
19776 = N 0 0
19872 = N 0 0
19920 = N 0 0
19968 = N 1 0
19968 = N 5 0
20016 = N 1 0
20016 = N 2 0
20064 = N 1 0
20064 = N 2 0
20112 = N 1 0
20112 = N 2 0
20160 = N 1 0
20160 = N 3 0
20256 = N 1 0
20256 = N 2 0
20304 = N 1 0
20304 = N 2 0
20352 = N 1 0
20352 = N 3 0
20400 = N 1 0
20400 = N 3 0
20448 = N 1 0
20448 = N 2 0
20496 = N 1 0
20496 = N 2 0
20544 = N 1 0
20544 = N 5 0
20592 = N 1 0
20640 = N 1 0
20784 = N 1 0
20784 = N 2 0
20832 = N 1 0
20832 = N 2 0
20880 = N 1 0
20880 = N 2 0
20928 = N 1 0
20928 = N 3 0
21024 = N 1 0
21024 = N 2 0
21072 = N 1 0
21072 = N 2 0
21120 = N 1 0
21120 = N 3 0
21168 = N 1 0
21168 = N 3 0
21216 = N 1 0
21216 = N 2 0
21264 = N 1 0
21264 = N 2 0
21312 = N 1 0
21312 = N 5 0
21360 = N 1 0
21408 = N 0 0
21408 = N 5 0
21456 = N 0 0
21504 = N 1 0
21504 = N 5 0
21552 = N 1 0
21552 = N 2 0
21600 = N 1 0
21600 = N 2 0
21648 = N 1 0
21648 = N 2 0
21696 = N 1 0
21696 = N 3 0
21792 = N 1 0
21792 = N 2 0
21840 = N 1 0
21840 = N 2 0
21888 = N 1 0
21888 = N 3 0
21936 = N 1 0
21936 = N 3 0
21984 = N 1 0
21984 = N 5 0
22032 = N 1 0
22080 = N 1 0
22128 = N 1 0
22176 = N 0 0
22176 = N 5 0
22320 = N 1 0
22320 = N 2 0
22368 = N 1 0
22368 = N 2 0
22416 = N 1 0
22416 = N 2 0
22464 = N 1 0
22464 = N 3 0
22512 = N 1 0
22512 = N 3 0
22560 = N 1 0
22560 = N 5 0
22608 = N 1 0
22656 = N 1 0
22656 = N 3 0
22704 = N 1 0
22704 = N 5 0
22752 = N 1 0
22752 = N 2 0
22800 = N 1 0
22800 = N 2 0
22848 = N 0 0
22848 = N 5 0
22896 = N 1 0
22896 = N 5 0
22944 = N 1 0
22992 = N 1 0
23040 = N 3 0
23040 = N 5 0
23088 = N 3 0
23136 = N 1 0
23136 = N 5 0
23184 = N 1 0
23232 = N 4 0
23280 = N 3 0
23328 = N 1 0
23376 = N 3 0
23424 = N 2 0
23472 = N 1 0
23520 = N 1 0
23568 = N 1 0
23616 = N 0 0
23712 = N 0 0
23808 = N 0 0
23856 = N 0 0
23904 = N 0 0
24000 = N 4 0
24048 = N 2 0
24096 = N 2 0
24144 = N 2 0
24192 = N 3 0
24240 = N 2 0
24288 = N 1 0
24384 = N 0 0
24480 = N 0 0
24576 = N 0 0
24624 = N 0 0
24672 = N 0 0
24768 = N 4 0
24816 = N 3 0
24864 = N 1 0
24912 = N 1 0
24960 = N 2 0
25008 = N 1 0
25056 = N 3 0
25104 = N 3 0
25152 = N 4 0
25200 = N 3 0
25248 = N 1 0
25296 = N 3 0
25344 = N 2 0
25392 = N 1 0
25440 = N 1 0
25488 = N 2 0
25536 = N 4 0
25584 = N 2 0
25632 = N 2 0
25680 = N 3 0
25728 = N 2 0
25776 = N 1 0
25824 = N 0 0
26112 = N 0 0
26112 = S 2 816
26208 = N 2 0
26304 = N 3 0
26328 = N 4 0
26400 = N 2 0
26496 = N 0 0
26520 = N 1 0
26592 = N 2 0
26688 = N 3 0
26736 = N 2 0
26784 = N 0 144
26976 = N 4 0
27072 = N 3 0
27168 = N 4 0
27264 = N 2 0
27360 = N 3 0
27456 = N 1 0
27552 = N 0 144
27744 = N 2 0
27840 = N 3 0
27864 = N 4 0
27936 = N 2 0
28032 = N 0 0
28056 = N 1 0
28128 = N 2 0
28224 = N 3 0
28272 = N 2 0
28320 = N 0 144
28512 = N 4 0
28608 = N 3 0
28704 = N 4 0
28800 = N 2 0
28896 = N 3 0
28992 = N 1 0
29088 = N 0 144
29280 = N 2 0
29376 = N 3 0
29400 = N 4 0
29472 = N 2 0
29568 = N 0 0
29592 = N 1 0
29664 = N 2 0
29760 = N 3 0
29808 = N 2 0
29856 = N 0 144
30048 = N 4 0
30144 = N 3 0
30240 = N 4 0
30336 = N 2 0
30432 = N 3 0
30528 = N 1 0
30624 = N 0 144
30816 = N 2 0
30912 = N 3 0
30936 = N 4 0
31008 = N 2 0
31104 = N 0 0
31128 = N 1 0
31200 = N 2 0
31296 = N 3 0
31344 = N 2 0
31392 = N 0 144
31584 = N 4 0
31680 = N 3 0
31776 = N 4 0
31872 = N 2 0
31968 = N 3 0
32064 = N 1 0
32160 = N 0 144
32352 = N 2 0
32448 = N 3 0
32472 = N 4 0
32544 = N 2 0
32640 = N 0 0
32664 = N 1 0
32736 = N 2 0
32832 = N 3 0
32880 = N 2 0
32928 = N 0 144
33120 = N 4 0
33216 = N 3 0
33312 = N 4 0
33408 = N 2 0
33504 = N 3 0
33600 = N 1 0
33696 = N 0 144
33888 = N 2 0
33984 = N 3 0
34008 = N 4 0
34080 = N 2 0
34176 = N 0 0
34200 = N 1 0
34272 = N 2 0
34368 = N 3 0
34416 = N 2 0
34464 = N 0 144
34656 = N 4 0
34656 = S 2 672
34752 = N 3 0
34848 = N 4 0
34944 = N 2 0
35040 = N 3 0
35136 = N 1 0
35232 = N 0 144
35424 = N 2 0
35520 = N 3 0
35544 = N 4 0
35616 = N 2 0
35712 = N 0 0
35736 = N 1 0
35808 = N 2 0
35904 = N 3 0
35952 = N 2 0
36000 = N 0 144
36192 = N 4 0
36288 = N 3 0
36384 = N 4 0
36480 = N 2 0
36576 = N 3 0
36672 = N 1 0
36768 = N 0 144
36960 = N 2 0
37056 = N 3 0
37080 = N 4 0
37152 = N 2 0
37248 = N 0 0
37272 = N 1 0
37344 = N 2 0
37440 = N 3 0
37488 = N 2 0
37536 = N 0 144
37728 = N 4 0
37824 = N 3 0
37920 = N 4 0
38016 = N 2 0
38112 = N 3 0
38208 = N 1 0
38304 = N 0 0
38352 = N 0 0
38400 = N 1 0
38400 = N 5 0
38448 = N 1 0
38448 = N 2 0
38496 = N 1 0
38496 = N 2 0
38544 = N 1 0
38544 = N 2 0
38592 = N 1 0
38592 = N 3 0
38688 = N 1 0
38736 = N 1 0
38784 = N 1 0
38784 = N 3 0
38832 = N 1 0
38832 = N 3 0
38880 = N 1 0
38880 = N 2 0
38928 = N 1 0
38928 = N 2 0
38976 = N 1 0
38976 = N 5 0
39024 = N 1 0
39072 = N 1 0
39216 = N 1 0
39216 = N 2 0
39264 = N 1 0
39264 = N 2 0
39312 = N 1 0
39312 = N 2 0
39360 = N 1 0
39360 = N 3 0
39456 = N 1 0
39456 = N 2 0
39504 = N 1 0
39504 = N 2 0
39552 = N 1 0
39552 = N 3 0
39600 = N 1 0
39600 = N 3 0
39648 = N 1 0
39648 = N 2 0
39696 = N 1 0
39696 = N 2 0
39744 = N 1 0
39744 = N 2 0
39792 = N 1 0
39792 = N 5 0
39840 = N 1 0
39936 = N 1 0
39984 = N 1 0
39984 = N 2 0
40032 = N 1 0
40032 = N 2 0
40080 = N 1 0
40080 = N 2 0
40128 = N 1 0
40128 = N 3 0
40224 = N 1 0
40224 = N 2 0
40272 = N 1 0
40272 = N 2 0
40320 = N 1 0
40320 = N 3 0
40368 = N 1 0
40368 = N 3 0
40416 = N 1 0
40416 = N 2 0
40464 = N 1 0
40464 = N 2 0
40512 = N 1 0
40512 = N 2 0
40560 = N 1 0
40560 = N 2 0
40608 = N 0 0
40608 = N 5 0
40704 = N 1 0
40752 = N 1 0
40752 = N 2 0
40800 = N 1 0
40800 = N 2 0
40848 = N 1 0
40848 = N 2 0
40896 = N 1 0
40896 = N 3 0
40992 = N 1 0
40992 = N 2 0
41040 = N 1 0
41040 = N 5 0
41088 = N 1 0
41088 = N 3 0
41136 = N 1 0
41136 = N 5 0
41184 = N 1 0
41232 = N 1 0
41280 = N 0 0
41280 = N 5 0
41328 = N 1 0
41328 = N 5 0
41376 = N 1 0
41424 = N 1 0
41472 = N 2 0
41472 = S 2 912
41520 = N 3 0
41568 = N 3 0
41616 = N 3 0
41664 = N 4 0
41712 = N 3 0
41760 = N 1 0
41808 = N 3 0
41856 = N 2 0
41904 = N 1 0
41952 = N 1 0
42000 = N 1 0
42048 = N 0 0
42144 = N 0 0
42240 = N 0 0
42288 = N 0 0
42336 = N 0 0
42432 = N 4 0
42480 = N 3 0
42528 = N 1 0
42576 = N 3 0
42624 = N 2 0
42672 = N 1 0
42720 = N 1 0
42768 = N 1 0
42816 = N 0 0
42912 = N 0 0
43008 = N 0 0
43056 = N 0 0
43104 = N 0 0
43200 = N 4 0
43248 = N 3 0
43296 = N 1 0
43344 = N 3 0
43392 = N 2 0
43440 = N 1 0
43488 = N 1 0
43536 = N 2 0
43584 = N 4 0
43632 = N 3 0
43680 = N 1 0
43728 = N 3 0
43776 = N 2 0
43824 = N 1 0
43872 = N 1 0
43920 = N 2 0
43968 = N 4 0
44016 = N 3 0
44064 = N 1 0
44112 = N 1 0
44160 = N 2 0
44208 = N 1 0
44256 = N 0 0
44448 = N 2 0
44448 = E solo
44480 = N 3 128
44640 = N 3 0
44640 = N 4 0
44736 = N 3 0
44736 = N 4 0
44832 = N 3 0
44832 = N 4 0
44928 = N 3 0
44928 = N 4 0
45024 = N 3 0
45024 = N 4 0
45120 = N 3 0
45120 = N 4 0
45216 = N 3 0
45216 = N 4 0
45312 = N 3 0
45312 = N 4 0
45408 = N 3 0
45408 = N 4 0
45504 = N 3 0
45504 = N 4 0
45600 = N 3 0
45600 = N 4 0
45696 = N 2 0
45696 = N 3 0
45744 = N 2 0
45824 = N 1 0
45856 = N 2 0
45888 = N 2 0
45936 = N 1 0
45984 = N 0 112
46128 = N 1 0
46176 = N 2 0
46272 = N 3 0
46368 = N 4 0
46416 = N 3 0
46464 = N 3 0
46512 = N 2 0
46560 = N 3 0
46608 = N 2 0
46656 = N 1 0
46704 = N 0 0
46752 = N 3 0
46848 = N 2 0
46896 = N 1 0
46944 = N 1 0
46992 = N 4 0
47040 = N 1 0
47088 = N 1 0
47136 = N 0 0
47184 = N 1 0
47232 = N 2 0
47280 = N 2 0
47328 = N 1 0
47376 = N 0 0
47472 = N 0 0
47568 = N 1 0
47616 = N 2 0
47616 = S 2 816
47648 = N 3 128
47808 = N 4 0
47904 = N 4 0
48000 = N 3 144
48192 = N 4 240
48480 = N 4 0
48576 = N 3 0
48608 = N 2 0
48720 = N 1 0
48800 = N 3 0
48864 = N 2 144
49056 = N 3 0
49104 = N 2 0
49152 = N 0 0
49248 = N 1 0
49296 = N 2 0
49392 = N 3 0
49392 = N 4 0
49440 = N 2 0
49536 = N 3 0
49584 = N 2 0
49632 = N 1 0
49680 = N 2 0
49728 = N 1 0
49776 = N 0 0
49824 = N 1 0
49872 = N 2 0
49920 = N 2 0
49968 = N 3 0
50016 = N 2 0
50064 = N 4 0
50112 = N 2 0
50160 = N 4 0
50208 = N 2 0
50256 = N 4 0
50304 = N 4 0
50352 = N 4 0
50400 = N 2 0
50448 = N 4 0
50496 = N 2 0
50544 = N 4 0
50592 = N 1 0
50640 = N 4 0
50736 = N 4 1152
52032 = E soloend
52320 = N 2 0
52416 = N 3 0
52440 = N 4 0
52512 = N 2 0
52608 = N 0 0
52632 = N 1 0
52704 = N 2 0
52800 = N 3 0
52848 = N 2 0
52896 = N 0 144
53088 = N 4 0
53184 = N 3 144
53376 = N 2 0
53472 = N 3 0
53568 = N 1 0
53664 = N 0 144
53664 = S 2 864
53856 = N 2 0
53952 = N 3 0
53976 = N 4 0
54048 = N 2 0
54144 = N 0 0
54168 = N 1 0
54240 = N 2 0
54336 = N 3 0
54384 = N 2 0
54432 = N 0 144
54624 = N 4 0
54720 = N 3 144
54912 = N 2 0
55008 = N 3 0
55104 = N 1 0
55200 = N 0 144
55392 = N 2 0
55488 = N 3 0
55512 = N 4 0
55584 = N 2 0
55680 = N 0 0
55704 = N 1 0
55776 = N 2 0
55872 = N 3 0
55920 = N 2 0
55968 = N 0 144
56160 = N 1 0
56208 = N 2 0
56256 = N 3 0
56352 = N 1 0
56448 = N 0 0
56544 = N 3 0
56640 = N 4 0
56688 = N 3 0
56736 = N 2 0
56784 = N 1 0
56832 = N 0 0
56928 = N 2 0
57024 = N 3 0
57048 = N 4 0
57120 = N 2 0
57216 = N 0 0
57240 = N 1 0
57312 = N 2 0
57408 = N 3 0
57456 = N 2 0
57504 = N 0 144
57696 = N 4 0
57792 = N 3 0
57888 = N 4 0
57984 = N 2 0
58080 = N 3 0
58176 = N 1 0
58272 = N 0 144
58464 = N 2 0
58560 = N 3 0
58584 = N 4 0
58656 = N 2 0
58752 = N 0 0
58776 = N 1 0
58848 = N 2 0
58944 = N 3 0
58992 = N 2 0
59040 = N 0 144
59232 = N 4 0
59328 = N 3 0
59424 = N 4 0
59520 = N 2 0
59616 = N 3 0
59712 = N 1 0
59808 = N 0 144
60000 = N 2 0
60096 = N 3 0
60120 = N 4 0
60192 = N 2 0
60288 = N 0 0
60312 = N 1 0
60384 = N 2 0
60480 = N 3 0
60528 = N 2 0
60576 = N 0 144
60768 = N 4 0
60864 = N 3 0
60960 = N 4 0
61056 = N 2 0
61152 = N 3 0
61248 = N 1 0
61344 = N 0 144
61536 = N 2 0
61632 = N 3 0
61656 = N 4 0
61728 = N 2 0
61824 = N 0 0
61848 = N 1 0
61920 = N 2 0
62016 = N 3 0
62064 = N 2 0
62112 = N 0 144
62304 = N 4 0
62304 = S 2 672
62400 = N 3 0
62496 = N 4 0
62592 = N 2 0
62688 = N 3 0
62784 = N 1 0
63024 = N 1 0
63024 = N 2 0
63072 = N 1 0
63072 = N 2 0
63120 = N 1 0
63120 = N 2 0
63168 = N 1 0
63168 = N 3 0
63264 = N 1 0
63312 = N 1 0
63360 = N 1 0
63360 = N 3 0
63408 = N 1 0
63408 = N 3 0
63456 = N 1 0
63456 = N 2 0
63504 = N 1 0
63504 = N 2 0
63552 = N 1 0
63552 = N 5 0
63600 = N 1 0
63648 = N 1 0
63792 = N 1 0
63792 = N 2 0
63840 = N 1 0
63840 = N 2 0
63888 = N 1 0
63888 = N 2 0
63936 = N 1 0
63936 = N 3 0
64032 = N 1 0
64032 = N 2 0
64080 = N 1 0
64080 = N 5 0
64128 = N 1 0
64128 = N 3 0
64176 = N 1 0
64176 = N 3 0
64224 = N 1 0
64224 = N 2 0
64272 = N 1 0
64272 = N 2 0
64320 = N 1 0
64320 = N 5 0
64368 = N 1 0
64416 = N 1 0
64464 = N 1 0
64560 = N 1 0
64560 = N 2 0
64608 = N 1 0
64608 = N 2 0
64656 = N 1 0
64656 = N 2 0
64704 = N 1 0
64704 = N 3 0
64800 = N 1 0
64800 = N 2 0
64848 = N 1 0
64848 = N 2 0
64896 = N 1 0
64896 = N 3 0
64944 = N 1 0
64944 = N 3 0
64992 = N 1 0
64992 = N 2 0
65040 = N 1 0
65040 = N 2 0
65088 = N 1 0
65088 = N 5 0
65136 = N 1 0
65184 = N 1 0
65280 = N 4 0
65376 = N 1 0
65376 = N 2 0
65472 = N 1 0
65472 = N 3 0
65568 = N 1 0
65616 = N 1 0
65664 = N 1 0
65664 = N 3 0
65712 = N 1 0
65712 = N 5 0
65760 = N 1 0
65808 = N 1 0
65856 = N 0 0
65856 = N 5 0
65904 = N 1 0
65904 = N 5 0
65952 = N 1 0
66000 = N 1 0
66048 = N 2 0
66096 = N 3 0
66144 = N 2 0
66192 = N 3 0
66240 = N 4 0
66288 = N 3 0
66336 = N 1 0
66384 = N 3 0
66432 = N 2 0
66480 = N 1 0
66528 = N 1 0
66576 = N 1 0
66624 = N 0 0
66720 = N 0 0
66816 = N 0 0
66864 = N 0 0
66912 = N 0 0
67008 = N 4 0
67056 = N 2 0
67104 = N 2 0
67152 = N 2 0
67200 = N 3 0
67248 = N 2 0
67296 = N 1 0
67344 = N 1 0
67392 = N 0 0
67488 = N 0 0
67584 = N 0 0
67632 = N 0 0
67680 = N 0 0
67776 = N 4 0
67824 = N 3 0
67872 = N 1 0
67920 = N 3 0
67968 = N 2 0
68016 = N 1 0
68064 = N 1 0
68112 = N 3 0
68160 = N 4 0
68208 = N 3 0
68256 = N 1 0
68304 = N 3 0
68352 = N 2 0
68400 = N 1 0
68448 = N 1 0
68496 = N 2 0
68544 = N 4 0
68592 = N 2 0
68640 = N 2 0
68688 = N 3 0
68736 = N 2 0
68784 = N 1 0
68832 = N 2 0
68880 = N 1 0
68928 = N 2 0
69024 = N 0 432
69504 = N 1 1152
69504 = N 5 0
}
[HardSingle]
{
1536 = N 0 0
1632 = N 2 0
1728 = N 4 0
1824 = N 2 0
1920 = N 1 0
2016 = N 2 0
2112 = N 1 0
2208 = N 0 144
2400 = N 4 0
2496 = N 3 0
2592 = N 4 0
2688 = N 2 0
2784 = N 3 0
2880 = N 1 0
2976 = N 0 144
3168 = N 2 0
3264 = N 4 0
3360 = N 2 0
3456 = N 1 0
3552 = N 2 0
3648 = N 1 0
3744 = N 0 144
3936 = N 4 0
4032 = N 3 0
4128 = N 4 0
4224 = N 2 0
4320 = N 3 0
4416 = N 1 0
4512 = N 0 144
4512 = S 2 864
4704 = N 2 0
4800 = N 4 0
4896 = N 2 0
4992 = N 1 0
5088 = N 2 0
5184 = N 1 0
5280 = N 0 144
5472 = N 4 0
5568 = N 3 0
5664 = N 4 0
5760 = N 2 0
5856 = N 3 0
5952 = N 1 0
6048 = N 0 144
6240 = N 2 0
6336 = N 4 0
6432 = N 2 0
6528 = N 1 0
6624 = N 3 0
6720 = N 2 0
6768 = N 1 0
6816 = N 0 144
7008 = N 1 0
7104 = N 2 0
7200 = N 1 0
7296 = N 0 0
7392 = N 2 0
7488 = N 4 0
7536 = N 3 0
7584 = N 2 0
7632 = N 1 0
7680 = N 0 0
7776 = N 2 0
7872 = N 4 0
7968 = N 2 0
8064 = N 1 0
8160 = N 2 0
8256 = N 1 0
8352 = N 0 144
8544 = N 4 0
8640 = N 3 0
8736 = N 4 0
8832 = N 2 0
8928 = N 3 0
9024 = N 1 0
9120 = N 0 144
9312 = N 2 0
9408 = N 4 0
9504 = N 2 0
9600 = N 1 0
9696 = N 2 0
9792 = N 1 0
9888 = N 0 144
10080 = N 4 0
10176 = N 3 0
10272 = N 4 0
10368 = N 2 0
10464 = N 3 0
10560 = N 1 0
10656 = N 0 144
10848 = N 2 0
10944 = N 4 0
11040 = N 2 0
11136 = N 1 0
11232 = N 2 0
11328 = N 1 0
11424 = N 0 144
11616 = N 4 0
11616 = S 2 672
11712 = N 3 0
11808 = N 4 0
11904 = N 2 0
12000 = N 3 0
12096 = N 1 0
12192 = N 0 144
12384 = N 2 0
12480 = N 4 0
12576 = N 2 0
12672 = N 1 0
12768 = N 2 0
12864 = N 1 0
12960 = N 0 144
13152 = N 4 0
13248 = N 3 0
13344 = N 4 0
13440 = N 2 0
13536 = N 3 0
13632 = N 1 0
13728 = N 0 144
13920 = N 2 0
14016 = N 4 0
14112 = N 2 0
14208 = N 1 0
14304 = N 2 0
14400 = N 1 0
14496 = N 0 144
14688 = N 4 0
14784 = N 3 0
14880 = N 4 0
14976 = N 2 0
15072 = N 3 0
15168 = N 1 0
15264 = N 0 144
15456 = N 2 0
15552 = N 4 0
15648 = N 2 0
15744 = N 1 0
15840 = N 2 0
15936 = N 1 0
16032 = N 0 144
16224 = N 4 0
16320 = N 3 0
16416 = N 4 0
16512 = N 2 0
16608 = N 3 0
16704 = N 1 0
16800 = N 0 144
16992 = N 2 0
17088 = N 4 0
17184 = N 2 0
17280 = N 1 0
17376 = N 2 0
17472 = N 1 0
17568 = N 0 144
17760 = N 4 0
17856 = N 3 0
17952 = N 4 0
18048 = N 2 0
18144 = N 3 0
18240 = N 1 0
18336 = N 0 144
18528 = N 2 0
18528 = S 2 1344
18624 = N 4 0
18720 = N 2 0
18816 = N 1 0
18912 = N 2 0
19008 = N 1 0
19104 = N 0 144
19296 = N 4 0
19392 = N 3 0
19488 = N 4 0
19584 = N 2 0
19680 = N 3 0
19776 = N 1 0
19872 = N 0 0
19968 = N 1 0
20064 = N 1 0
20064 = N 2 0
20112 = N 1 0
20112 = N 2 0
20160 = N 1 0
20160 = N 3 0
20256 = N 1 0
20256 = N 2 0
20304 = N 1 0
20304 = N 2 0
20352 = N 1 0
20352 = N 3 0
20400 = N 1 0
20400 = N 3 0
20448 = N 1 0
20448 = N 2 0
20496 = N 1 0
20496 = N 2 0
20544 = N 1 0
20544 = N 5 0
20832 = N 1 0
20832 = N 2 0
20880 = N 1 0
20880 = N 2 0
20928 = N 1 0
20928 = N 3 0
21024 = N 1 0
21024 = N 2 0
21072 = N 1 0
21072 = N 2 0
21120 = N 1 0
21120 = N 3 0
21168 = N 1 0
21168 = N 3 0
21216 = N 1 0
21216 = N 5 0
21264 = N 1 0
21312 = N 1 0
21504 = N 1 0
21600 = N 2 0
21648 = N 1 0
21648 = N 2 0
21696 = N 1 0
21696 = N 3 0
21792 = N 1 0
21792 = N 2 0
21840 = N 1 0
21840 = N 2 0
21888 = N 1 0
21888 = N 3 0
21936 = N 1 0
21936 = N 3 0
21984 = N 1 0
21984 = N 5 0
22032 = N 1 0
22080 = N 1 0
22368 = N 1 0
22368 = N 2 0
22416 = N 1 0
22416 = N 2 0
22464 = N 1 0
22464 = N 3 0
22512 = N 1 0
22512 = N 3 0
22560 = N 1 0
22560 = N 5 0
22656 = N 1 0
22656 = N 3 0
22752 = N 1 0
22800 = N 1 0
22848 = N 0 0
22896 = N 1 0
22944 = N 1 0
23040 = N 3 0
23088 = N 3 0
23136 = N 1 0
23232 = N 4 0
23280 = N 3 0
23328 = N 1 0
23424 = N 2 0
23472 = N 1 0
23520 = N 1 0
23568 = N 1 0
23616 = N 0 0
23712 = N 0 0
23808 = N 0 0
23904 = N 0 0
24000 = N 4 0
24048 = N 2 0
24096 = N 2 0
24144 = N 2 0
24192 = N 3 0
24240 = N 2 0
24288 = N 1 0
24384 = N 0 0
24480 = N 0 0
24576 = N 0 0
24768 = N 4 0
24816 = N 3 0
24864 = N 1 0
24912 = N 1 0
24960 = N 2 0
25008 = N 1 0
25056 = N 3 0
25152 = N 4 0
25200 = N 3 0
25248 = N 1 0
25296 = N 3 0
25344 = N 2 0
25392 = N 1 0
25440 = N 1 0
25536 = N 4 0
25584 = N 3 0
25632 = N 3 0
25680 = N 3 0
25728 = N 2 0
25776 = N 1 0
25824 = N 0 0
26112 = N 0 0
26112 = S 2 816
26208 = N 2 0
26304 = N 4 0
26400 = N 2 0
26496 = N 1 0
26592 = N 2 0
26688 = N 1 0
26784 = N 0 144
26976 = N 4 0
27072 = N 3 0
27168 = N 4 0
27264 = N 2 0
27360 = N 3 0
27456 = N 1 0
27552 = N 0 144
27744 = N 2 0
27840 = N 4 0
27936 = N 2 0
28032 = N 1 0
28128 = N 2 0
28224 = N 1 0
28320 = N 0 144
28512 = N 4 0
28608 = N 3 0
28704 = N 4 0
28800 = N 2 0
28896 = N 3 0
28992 = N 1 0
29088 = N 0 144
29280 = N 2 0
29376 = N 4 0
29472 = N 2 0
29568 = N 1 0
29664 = N 2 0
29760 = N 1 0
29856 = N 0 144
30048 = N 4 0
30144 = N 3 0
30240 = N 4 0
30336 = N 2 0
30432 = N 3 0
30528 = N 1 0
30624 = N 0 144
30816 = N 2 0
30912 = N 4 0
31008 = N 2 0
31104 = N 1 0
31200 = N 2 0
31296 = N 1 0
31392 = N 0 144
31584 = N 4 0
31680 = N 3 0
31776 = N 4 0
31872 = N 2 0
31968 = N 3 0
32064 = N 1 0
32160 = N 0 144
32352 = N 2 0
32448 = N 4 0
32544 = N 2 0
32640 = N 1 0
32736 = N 2 0
32832 = N 1 0
32928 = N 0 144
33120 = N 4 0
33216 = N 3 0
33312 = N 4 0
33408 = N 2 0
33504 = N 3 0
33600 = N 1 0
33696 = N 0 144
33888 = N 2 0
33984 = N 4 0
34080 = N 2 0
34176 = N 1 0
34272 = N 2 0
34368 = N 1 0
34464 = N 0 144
34656 = N 4 0
34656 = S 2 672
34752 = N 3 0
34848 = N 4 0
34944 = N 2 0
35040 = N 3 0
35136 = N 1 0
35232 = N 0 144
35424 = N 2 0
35520 = N 4 0
35616 = N 2 0
35712 = N 1 0
35808 = N 2 0
35904 = N 1 0
36000 = N 0 144
36192 = N 4 0
36288 = N 3 0
36384 = N 4 0
36480 = N 2 0
36576 = N 3 0
36672 = N 1 0
36768 = N 0 144
36960 = N 2 0
37056 = N 4 0
37152 = N 2 0
37248 = N 1 0
37344 = N 2 0
37440 = N 1 0
37536 = N 0 144
37728 = N 4 0
37824 = N 3 0
37920 = N 4 0
38016 = N 2 0
38112 = N 3 0
38208 = N 1 0
38496 = N 1 0
38496 = N 2 0
38544 = N 1 0
38544 = N 2 0
38592 = N 1 0
38592 = N 3 0
38688 = N 1 0
38784 = N 1 0
38784 = N 3 0
38832 = N 1 0
38832 = N 3 0
38880 = N 1 0
38880 = N 2 0
38928 = N 1 0
38928 = N 2 0
38976 = N 1 0
38976 = N 5 0
39072 = N 1 0
39264 = N 1 0
39264 = N 2 0
39312 = N 1 0
39312 = N 2 0
39360 = N 1 0
39360 = N 3 0
39456 = N 1 0
39456 = N 2 0
39504 = N 1 0
39504 = N 2 0
39552 = N 1 0
39552 = N 3 0
39600 = N 1 0
39600 = N 3 0
39648 = N 1 0
39648 = N 2 0
39696 = N 1 0
39696 = N 2 0
39744 = N 1 0
39744 = N 2 0
39792 = N 1 0
39792 = N 5 0
39840 = N 1 0
40032 = N 1 0
40032 = N 2 0
40080 = N 1 0
40080 = N 2 0
40128 = N 1 0
40128 = N 3 0
40224 = N 1 0
40224 = N 2 0
40272 = N 1 0
40272 = N 2 0
40320 = N 1 0
40320 = N 3 0
40368 = N 1 0
40368 = N 3 0
40416 = N 1 0
40416 = N 5 0
40464 = N 1 0
40512 = N 1 0
40800 = N 1 0
40800 = N 2 0
40848 = N 1 0
40848 = N 2 0
40896 = N 1 0
40896 = N 3 0
40992 = N 1 0
41088 = N 1 0
41088 = N 3 0
41136 = N 1 0
41136 = N 5 0
41184 = N 1 0
41280 = N 0 0
41376 = N 1 0
41472 = N 3 0
41472 = S 2 912
41520 = N 3 0
41568 = N 3 0
41616 = N 3 0
41664 = N 4 0
41712 = N 3 0
41760 = N 1 0
41856 = N 2 0
41904 = N 1 0
41952 = N 1 0
42000 = N 1 0
42048 = N 0 0
42144 = N 0 0
42240 = N 0 0
42432 = N 4 0
42480 = N 3 0
42528 = N 1 0
42576 = N 3 0
42624 = N 2 0
42672 = N 1 0
42720 = N 1 0
42816 = N 0 0
42912 = N 0 0
43008 = N 0 0
43200 = N 4 0
43248 = N 3 0
43296 = N 1 0
43344 = N 3 0
43392 = N 2 0
43440 = N 1 0
43488 = N 1 0
43584 = N 4 0
43632 = N 3 0
43680 = N 1 0
43728 = N 3 0
43776 = N 2 0
43824 = N 1 0
43872 = N 1 0
43968 = N 4 0
44016 = N 3 0
44064 = N 1 0
44112 = N 1 0
44160 = N 2 0
44208 = N 1 0
44256 = N 0 0
44448 = N 3 144
44448 = E solo
44640 = N 3 0
44640 = N 4 0
44736 = N 3 0
44736 = N 4 0
44832 = N 3 0
44832 = N 4 0
44928 = N 3 0
44928 = N 4 0
45024 = N 3 0
45024 = N 4 0
45120 = N 3 0
45120 = N 4 0
45216 = N 3 0
45216 = N 4 0
45312 = N 3 0
45312 = N 4 0
45408 = N 3 0
45408 = N 4 0
45504 = N 3 0
45504 = N 4 0
45600 = N 3 0
45600 = N 4 0
45696 = N 2 0
45696 = N 3 0
45792 = N 1 0
45840 = N 2 0
45936 = N 1 0
45984 = N 0 0
46128 = N 1 0
46176 = N 2 0
46272 = N 3 0
46368 = N 4 0
46416 = N 4 0
46464 = N 3 0
46512 = N 2 0
46560 = N 1 0
46656 = N 1 0
46704 = N 0 0
46752 = N 2 0
46848 = N 2 0
46944 = N 1 0
46992 = N 4 0
47088 = N 1 0
47136 = N 0 0
47184 = N 1 0
47232 = N 2 0
47280 = N 2 0
47328 = N 1 0
47376 = N 0 0
47472 = N 0 0
47520 = N 0 0
47616 = N 3 144
47616 = S 2 816
47808 = N 4 0
47904 = N 4 0
48000 = N 3 144
48192 = N 4 240
48480 = N 4 0
48576 = N 3 0
48608 = N 2 0
48720 = N 1 0
48800 = N 3 0
48864 = N 2 144
49056 = N 3 0
49104 = N 2 0
49152 = N 0 0
49248 = N 1 0
49296 = N 2 0
49392 = N 3 0
49440 = N 2 0
49536 = N 3 0
49584 = N 2 0
49632 = N 1 0
49680 = N 2 0
49728 = N 1 0
49776 = N 0 0
49824 = N 1 0
49872 = N 2 0
49920 = N 2 0
49968 = N 3 0
50016 = N 2 0
50064 = N 4 0
50160 = N 4 0
50256 = N 4 0
50304 = N 4 0
50352 = N 4 0
50400 = N 2 0
50448 = N 4 0
50496 = N 2 0
50544 = N 4 0
50592 = N 2 0
50640 = N 4 0
50736 = N 4 1152
52032 = E soloend
52320 = N 2 0
52416 = N 4 0
52512 = N 2 0
52608 = N 1 0
52704 = N 2 0
52800 = N 1 0
52896 = N 0 144
53088 = N 4 0
53184 = N 3 0
53280 = N 4 0
53376 = N 2 0
53472 = N 3 0
53568 = N 1 0
53664 = N 0 144
53664 = S 2 864
53856 = N 2 0
53952 = N 4 0
54048 = N 2 0
54144 = N 1 0
54240 = N 2 0
54336 = N 1 0
54432 = N 0 144
54624 = N 4 0
54720 = N 3 0
54816 = N 4 0
54912 = N 2 0
55008 = N 3 0
55104 = N 1 0
55200 = N 0 144
55392 = N 2 0
55488 = N 4 0
55584 = N 2 0
55680 = N 1 0
55776 = N 2 0
55872 = N 1 0
55968 = N 0 144
56160 = N 1 0
56256 = N 2 0
56352 = N 1 0
56448 = N 0 0
56544 = N 2 0
56640 = N 4 0
56688 = N 3 0
56736 = N 2 0
56784 = N 1 0
56832 = N 0 0
56928 = N 2 0
57024 = N 4 0
57120 = N 2 0
57216 = N 1 0
57312 = N 2 0
57408 = N 1 0
57504 = N 0 144
57696 = N 4 0
57792 = N 3 0
57888 = N 4 0
57984 = N 2 0
58080 = N 3 0
58176 = N 1 0
58272 = N 0 144
58464 = N 2 0
58560 = N 4 0
58656 = N 2 0
58752 = N 1 0
58848 = N 2 0
58944 = N 1 0
59040 = N 0 144
59232 = N 4 0
59328 = N 3 0
59424 = N 4 0
59520 = N 2 0
59616 = N 3 0
59712 = N 1 0
59808 = N 0 144
60000 = N 2 0
60096 = N 4 0
60192 = N 2 0
60288 = N 1 0
60384 = N 2 0
60480 = N 1 0
60576 = N 0 144
60768 = N 4 0
60864 = N 3 0
60960 = N 4 0
61056 = N 2 0
61152 = N 3 0
61248 = N 1 0
61344 = N 0 144
61536 = N 2 0
61632 = N 4 0
61728 = N 2 0
61824 = N 1 0
61920 = N 2 0
62016 = N 1 0
62112 = N 0 144
62304 = N 4 0
62304 = S 2 672
62400 = N 3 0
62496 = N 4 0
62592 = N 2 0
62688 = N 3 0
62784 = N 1 0
62880 = N 0 0
63072 = N 1 0
63072 = N 2 0
63120 = N 1 0
63120 = N 2 0
63168 = N 1 0
63168 = N 3 0
63264 = N 1 0
63360 = N 1 0
63360 = N 3 0
63408 = N 1 0
63408 = N 3 0
63456 = N 1 0
63456 = N 2 0
63504 = N 1 0
63504 = N 2 0
63552 = N 1 0
63552 = N 5 0
63648 = N 1 0
63840 = N 1 0
63840 = N 2 0
63888 = N 1 0
63888 = N 2 0
63936 = N 1 0
63936 = N 3 0
64032 = N 1 0
64032 = N 2 0
64080 = N 1 0
64080 = N 2 0
64128 = N 1 0
64128 = N 3 0
64176 = N 1 0
64176 = N 3 0
64224 = N 1 0
64224 = N 2 0
64272 = N 1 0
64272 = N 2 0
64320 = N 1 0
64320 = N 2 0
64368 = N 1 0
64368 = N 5 0
64416 = N 1 0
64608 = N 1 0
64608 = N 2 0
64656 = N 1 0
64656 = N 2 0
64704 = N 1 0
64704 = N 3 0
64800 = N 1 0
64800 = N 2 0
64848 = N 1 0
64848 = N 2 0
64896 = N 1 0
64896 = N 3 0
64944 = N 1 0
64944 = N 3 0
64992 = N 1 0
64992 = N 5 0
65040 = N 1 0
65088 = N 1 0
65376 = N 1 0
65376 = N 2 0
65424 = N 1 0
65424 = N 2 0
65472 = N 1 0
65472 = N 3 0
65568 = N 1 0
65664 = N 1 0
65664 = N 3 0
65712 = N 1 0
65712 = N 5 0
65760 = N 1 0
65856 = N 0 0
65952 = N 1 0
66048 = N 3 0
66096 = N 3 0
66144 = N 3 0
66192 = N 3 0
66240 = N 4 0
66288 = N 3 0
66336 = N 1 0
66432 = N 2 0
66480 = N 1 0
66528 = N 1 0
66576 = N 1 0
66624 = N 0 0
66720 = N 0 0
66816 = N 0 0
67008 = N 4 0
67056 = N 3 0
67104 = N 1 0
67152 = N 3 0
67200 = N 2 0
67248 = N 1 0
67296 = N 1 0
67392 = N 0 0
67488 = N 0 0
67584 = N 0 0
67776 = N 4 0
67824 = N 3 0
67872 = N 1 0
67920 = N 3 0
67968 = N 2 0
68016 = N 1 0
68064 = N 1 0
68160 = N 4 0
68208 = N 3 0
68256 = N 1 0
68304 = N 3 0
68352 = N 2 0
68400 = N 1 0
68448 = N 1 0
68544 = N 4 0
68592 = N 3 0
68640 = N 1 0
68688 = N 1 0
68736 = N 2 0
68784 = N 1 0
68832 = N 0 0
69024 = N 0 432
69024 = E solo
69504 = N 1 1152
69504 = N 5 0
}
[MediumSingle]
{
1536 = N 0 0
1728 = N 3 0
1824 = N 2 0
1920 = N 1 0
2016 = N 2 0
2112 = N 1 0
2208 = N 0 144
2496 = N 3 0
2688 = N 2 0
2880 = N 1 0
2976 = N 0 144
3264 = N 3 0
3360 = N 2 0
3456 = N 1 0
3552 = N 2 0
3648 = N 1 0
3744 = N 0 144
4032 = N 3 0
4224 = N 2 0
4416 = N 1 0
4512 = N 0 144
4512 = S 2 864
4800 = N 3 0
4896 = N 2 0
4992 = N 1 0
5088 = N 2 0
5184 = N 1 0
5280 = N 0 144
5568 = N 3 0
5760 = N 2 0
5952 = N 1 0
6048 = N 0 144
6336 = N 3 0
6432 = N 2 0
6528 = N 1 0
6624 = N 2 0
6720 = N 1 0
6816 = N 0 144
7008 = N 2 0
7104 = N 3 0
7200 = N 2 0
7296 = N 1 0
7392 = N 2 0
7488 = N 1 0
7680 = N 0 0
7872 = N 3 0
7968 = N 2 0
8064 = N 1 0
8160 = N 2 0
8256 = N 1 0
8352 = N 0 144
8640 = N 3 0
8832 = N 2 0
9024 = N 1 0
9120 = N 0 144
9408 = N 3 0
9504 = N 2 0
9600 = N 1 0
9696 = N 2 0
9792 = N 1 0
9888 = N 0 144
10176 = N 3 0
10368 = N 2 0
10560 = N 1 0
10656 = N 0 144
10944 = N 3 0
11040 = N 2 0
11136 = N 1 0
11232 = N 2 0
11328 = N 1 0
11424 = N 0 144
11616 = S 2 672
11712 = N 3 0
11904 = N 2 0
12096 = N 1 0
12192 = N 0 144
12480 = N 3 0
12576 = N 2 0
12672 = N 1 0
12768 = N 2 0
12864 = N 1 0
12960 = N 0 144
13248 = N 3 0
13440 = N 2 0
13632 = N 1 0
13728 = N 0 144
14016 = N 3 0
14112 = N 2 0
14208 = N 1 0
14304 = N 2 0
14400 = N 1 0
14496 = N 0 144
14784 = N 3 0
14976 = N 2 0
15168 = N 1 0
15264 = N 0 144
15552 = N 3 0
15648 = N 2 0
15744 = N 1 0
15840 = N 2 0
15936 = N 1 0
16032 = N 0 144
16320 = N 3 0
16512 = N 2 0
16704 = N 1 0
16800 = N 0 144
17088 = N 3 0
17184 = N 2 0
17280 = N 1 0
17376 = N 2 0
17472 = N 1 0
17568 = N 0 144
17856 = N 3 0
18048 = N 2 0
18240 = N 1 0
18336 = N 0 144
18528 = S 2 1344
18624 = N 3 0
18720 = N 2 0
18816 = N 1 0
18912 = N 2 0
19008 = N 1 0
19104 = N 0 144
19392 = N 3 0
19584 = N 2 0
19776 = N 1 0
19968 = N 1 0
20064 = N 1 0
20160 = N 2 0
20256 = N 1 0
20352 = N 2 0
20448 = N 1 0
20544 = N 1 0
20832 = N 1 0
20928 = N 2 0
21024 = N 1 0
21120 = N 2 0
21216 = N 1 0
21312 = N 1 0
21504 = N 1 0
21600 = N 1 0
21696 = N 2 0
21792 = N 1 0
21888 = N 2 0
21984 = N 1 0
22080 = N 1 0
22368 = N 1 0
22464 = N 2 0
22560 = N 1 0
22656 = N 2 0
22752 = N 1 0
22848 = N 1 0
23040 = N 2 0
23136 = N 2 0
23232 = N 3 0
23328 = N 1 0
23424 = N 2 0
23520 = N 1 0
23616 = N 0 0
23712 = N 0 0
23808 = N 0 0
24000 = N 3 0
24096 = N 2 0
24192 = N 3 0
24288 = N 1 0
24384 = N 0 0
24480 = N 0 0
24576 = N 0 0
24768 = N 3 0
24864 = N 1 0
24960 = N 2 0
25056 = N 2 0
25152 = N 3 0
25248 = N 1 0
25344 = N 2 0
25440 = N 1 0
25536 = N 3 0
25632 = N 2 0
25728 = N 1 0
25824 = N 0 0
26112 = N 0 0
26112 = S 2 816
26304 = N 3 0
26400 = N 2 0
26496 = N 1 0
26592 = N 2 0
26688 = N 1 0
26784 = N 0 144
27072 = N 3 0
27264 = N 2 0
27456 = N 1 0
27552 = N 0 144
27840 = N 3 0
27936 = N 2 0
28032 = N 1 0
28128 = N 2 0
28224 = N 1 0
28320 = N 0 144
28608 = N 3 0
28800 = N 2 0
28992 = N 1 0
29088 = N 0 144
29376 = N 3 0
29472 = N 2 0
29568 = N 1 0
29664 = N 2 0
29760 = N 1 0
29856 = N 0 144
30144 = N 3 0
30336 = N 2 0
30528 = N 1 0
30624 = N 0 144
30912 = N 3 0
31008 = N 2 0
31104 = N 1 0
31200 = N 2 0
31296 = N 1 0
31392 = N 0 144
31680 = N 3 0
31872 = N 2 0
32064 = N 1 0
32160 = N 0 144
32448 = N 3 0
32544 = N 2 0
32640 = N 1 0
32736 = N 2 0
32832 = N 1 0
32928 = N 0 144
33216 = N 3 0
33408 = N 2 0
33600 = N 1 0
33696 = N 0 144
33984 = N 3 0
34080 = N 2 0
34176 = N 1 0
34272 = N 2 0
34368 = N 1 0
34464 = N 0 144
34656 = S 2 672
34752 = N 3 0
34944 = N 2 0
35136 = N 1 0
35232 = N 0 144
35520 = N 3 0
35616 = N 2 0
35712 = N 1 0
35808 = N 2 0
35904 = N 1 0
36000 = N 0 144
36288 = N 3 0
36480 = N 2 0
36672 = N 1 0
36768 = N 0 144
37056 = N 3 0
37152 = N 2 0
37248 = N 1 0
37344 = N 2 0
37440 = N 1 0
37536 = N 0 144
37824 = N 3 0
38016 = N 2 0
38208 = N 1 0
38400 = N 1 0
38496 = N 1 0
38592 = N 2 0
38688 = N 1 0
38784 = N 2 0
38880 = N 1 0
38976 = N 1 0
39264 = N 1 0
39360 = N 2 0
39456 = N 1 0
39552 = N 2 0
39648 = N 1 0
39744 = N 1 0
39936 = N 1 0
40032 = N 1 0
40128 = N 2 0
40224 = N 1 0
40320 = N 2 0
40416 = N 1 0
40512 = N 1 0
40800 = N 1 0
40896 = N 2 0
40992 = N 1 0
41088 = N 2 0
41184 = N 1 0
41280 = N 1 0
41472 = N 2 0
41472 = S 2 912
41568 = N 2 0
41664 = N 3 0
41760 = N 1 0
41856 = N 2 0
41952 = N 1 0
42048 = N 0 0
42144 = N 0 0
42240 = N 0 0
42432 = N 3 0
42528 = N 2 0
42624 = N 3 0
42720 = N 1 0
42816 = N 0 0
42912 = N 0 0
43008 = N 0 0
43200 = N 3 0
43296 = N 1 0
43392 = N 2 0
43488 = N 2 0
43584 = N 3 0
43680 = N 1 0
43776 = N 2 0
43872 = N 1 0
43968 = N 3 0
44064 = N 2 0
44160 = N 1 0
44256 = N 0 0
44448 = N 2 144
44448 = E solo
44640 = N 3 0
44736 = N 3 0
44832 = N 3 0
44928 = N 3 0
45024 = N 3 0
45120 = N 3 0
45216 = N 3 0
45312 = N 3 0
45408 = N 3 0
45504 = N 3 0
45600 = N 3 0
45696 = N 2 0
45792 = N 1 0
45984 = N 0 0
46176 = N 1 0
46272 = N 2 0
46368 = N 3 0
46464 = N 2 0
46560 = N 1 0
46656 = N 1 0
46752 = N 2 0
46848 = N 2 0
46944 = N 1 0
47136 = N 0 0
47232 = N 1 0
47328 = N 0 0
47520 = N 0 0
47616 = N 2 144
47616 = S 2 816
47808 = N 3 0
47904 = N 3 0
48000 = N 2 144
48192 = N 3 240
48480 = N 3 0
48576 = N 2 0
48720 = N 1 0
48864 = N 2 144
49056 = N 1 0
49152 = N 0 0
49248 = N 1 0
49392 = N 2 0
49536 = N 2 0
49632 = N 1 0
49728 = N 0 0
49824 = N 1 0
49920 = N 2 0
50064 = N 3 0
50160 = N 3 0
50256 = N 3 0
50400 = N 2 0
50496 = N 3 0
50592 = N 2 0
50736 = N 3 1152
52032 = E soloend
52416 = N 3 0
52512 = N 2 0
52608 = N 1 0
52704 = N 2 0
52800 = N 1 0
52896 = N 0 144
53184 = N 3 0
53376 = N 2 0
53568 = N 1 0
53664 = N 0 144
53664 = S 2 864
53952 = N 3 0
54048 = N 2 0
54144 = N 1 0
54240 = N 2 0
54336 = N 1 0
54432 = N 0 144
54720 = N 3 0
54912 = N 2 0
55104 = N 1 0
55200 = N 0 144
55488 = N 3 0
55584 = N 2 0
55680 = N 1 0
55776 = N 2 0
55872 = N 1 0
55968 = N 0 144
56256 = N 3 0
56448 = N 2 0
56640 = N 1 0
56832 = N 0 0
57024 = N 3 0
57120 = N 2 0
57216 = N 1 0
57312 = N 2 0
57408 = N 1 0
57504 = N 0 144
57792 = N 3 0
57984 = N 2 0
58176 = N 1 0
58272 = N 0 144
58560 = N 3 0
58656 = N 2 0
58752 = N 1 0
58848 = N 2 0
58944 = N 1 0
59040 = N 0 144
59328 = N 3 0
59520 = N 2 0
59712 = N 1 0
59808 = N 0 144
60096 = N 3 0
60192 = N 2 0
60288 = N 1 0
60384 = N 2 0
60480 = N 1 0
60576 = N 0 144
60864 = N 3 0
61056 = N 2 0
61248 = N 1 0
61344 = N 0 144
61632 = N 3 0
61728 = N 2 0
61824 = N 1 0
61920 = N 2 0
62016 = N 1 0
62112 = N 0 144
62304 = S 2 672
62400 = N 3 0
62592 = N 2 0
62784 = N 1 0
63072 = N 1 0
63168 = N 2 0
63264 = N 1 0
63360 = N 2 0
63456 = N 1 0
63552 = N 1 0
63840 = N 1 0
63936 = N 2 0
64032 = N 1 0
64128 = N 2 0
64224 = N 1 0
64320 = N 1 0
64608 = N 1 0
64704 = N 2 0
64800 = N 1 0
64896 = N 2 0
64992 = N 1 0
65088 = N 1 0
65376 = N 1 0
65472 = N 2 0
65568 = N 1 0
65664 = N 2 0
65760 = N 1 0
65856 = N 1 0
66048 = N 2 0
66144 = N 2 0
66240 = N 3 0
66336 = N 1 0
66432 = N 2 0
66528 = N 1 0
66624 = N 0 0
66720 = N 0 0
66816 = N 0 0
67008 = N 3 0
67104 = N 2 0
67200 = N 3 0
67296 = N 1 0
67392 = N 0 0
67488 = N 0 0
67584 = N 0 0
67776 = N 3 0
67872 = N 1 0
67968 = N 2 0
68064 = N 2 0
68160 = N 3 0
68256 = N 1 0
68352 = N 2 0
68448 = N 1 0
68544 = N 3 0
68640 = N 2 0
68736 = N 1 0
68832 = N 0 0
69024 = N 0 432
69024 = E solo
69504 = N 1 1152
69504 = N 5 0
}
[EasySingle]
{
1536 = N 0 0
1728 = N 2 0
1920 = N 1 0
2208 = N 0 144
2496 = N 2 0
2688 = N 1 0
2976 = N 0 144
3264 = N 2 0
3456 = N 1 0
3744 = N 0 144
4032 = N 2 0
4224 = N 1 0
4512 = N 0 144
4512 = S 2 864
4800 = N 2 0
4992 = N 1 0
5280 = N 0 144
5568 = N 2 0
5760 = N 1 0
6048 = N 0 144
6336 = N 2 0
6528 = N 1 0
6816 = N 0 144
7104 = N 2 0
7296 = N 1 0
7488 = N 1 0
7680 = N 0 0
7872 = N 2 0
8064 = N 1 0
8352 = N 0 144
8640 = N 2 0
8832 = N 1 0
9120 = N 0 144
9408 = N 2 0
9600 = N 1 0
9888 = N 0 144
10176 = N 2 0
10368 = N 1 0
10656 = N 0 144
10944 = N 2 0
11136 = N 1 0
11424 = N 0 144
11616 = S 2 672
11712 = N 2 0
11904 = N 1 0
12192 = N 0 144
12480 = N 2 0
12672 = N 1 0
12960 = N 0 144
13248 = N 2 0
13440 = N 1 0
13728 = N 0 144
14016 = N 2 0
14208 = N 1 0
14496 = N 0 144
14784 = N 2 0
14976 = N 1 0
15264 = N 0 144
15552 = N 2 0
15744 = N 1 0
16032 = N 0 144
16320 = N 2 0
16512 = N 1 0
16800 = N 0 144
17088 = N 2 0
17280 = N 1 0
17568 = N 0 144
17856 = N 2 0
18048 = N 1 0
18336 = N 0 144
18528 = S 2 1344
18624 = N 2 0
18816 = N 1 0
19104 = N 0 144
19392 = N 2 0
19584 = N 1 0
19776 = N 1 0
19968 = N 0 0
20160 = N 1 0
20352 = N 1 0
20544 = N 0 0
20928 = N 1 0
21120 = N 1 0
21312 = N 0 0
21504 = N 0 0
21696 = N 1 0
21888 = N 1 0
22080 = N 0 0
22464 = N 1 0
22656 = N 1 0
22848 = N 0 0
23040 = N 1 0
23232 = N 2 0
23424 = N 1 0
23616 = N 0 0
23808 = N 0 0
24000 = N 2 0
24192 = N 1 0
24384 = N 0 0
24576 = N 0 0
24768 = N 2 0
24960 = N 1 0
25152 = N 2 0
25344 = N 1 0
25536 = N 2 0
25728 = N 1 0
26112 = N 0 0
26112 = S 2 816
26304 = N 2 0
26496 = N 1 0
26784 = N 0 144
27072 = N 2 0
27264 = N 1 0
27552 = N 0 144
27840 = N 2 0
28032 = N 1 0
28320 = N 0 144
28608 = N 2 0
28800 = N 1 0
29088 = N 0 144
29376 = N 2 0
29568 = N 1 0
29856 = N 0 144
30144 = N 2 0
30336 = N 1 0
30624 = N 0 144
30912 = N 2 0
31104 = N 1 0
31392 = N 0 144
31680 = N 2 0
31872 = N 1 0
32160 = N 0 144
32448 = N 2 0
32544 = E Default
32640 = N 1 0
32928 = N 0 144
33216 = N 2 0
33408 = N 1 0
33696 = N 0 144
33984 = N 2 0
34176 = N 1 0
34464 = N 0 144
34656 = S 2 672
34752 = N 2 0
34944 = N 1 0
35232 = N 0 144
35520 = N 2 0
35712 = N 1 0
36000 = N 0 144
36288 = N 2 0
36480 = N 1 0
36768 = N 0 144
37056 = N 2 0
37248 = N 1 0
37536 = N 0 144
37824 = N 2 0
38016 = N 1 0
38208 = N 1 0
38400 = N 0 0
38592 = N 1 0
38784 = N 1 0
38976 = N 0 0
39360 = N 1 0
39552 = N 1 0
39744 = N 0 0
39936 = N 0 0
40128 = N 1 0
40320 = N 1 0
40512 = N 0 0
40896 = N 1 0
41088 = N 1 0
41280 = N 0 0
41472 = N 1 0
41472 = S 2 912
41664 = N 2 0
41856 = N 1 0
42048 = N 0 0
42240 = N 0 0
42432 = N 2 0
42624 = N 1 0
42816 = N 0 0
43008 = N 0 0
43200 = N 2 0
43392 = N 1 0
43584 = N 2 0
43776 = N 1 0
43968 = N 2 0
44160 = N 1 0
44448 = N 2 144
44448 = E solo
44736 = N 2 0
44928 = N 2 0
45120 = N 2 0
45312 = N 2 0
45504 = N 2 0
45696 = N 1 0
45984 = N 0 0
46176 = N 1 0
46272 = N 2 0
46464 = N 2 0
46656 = N 1 0
46848 = N 2 0
47232 = N 1 0
47616 = N 1 144
47616 = S 2 816
47808 = N 2 0
47904 = N 2 0
48000 = N 1 144
48192 = N 2 240
48480 = N 2 0
48576 = N 1 0
48864 = N 2 144
49152 = N 0 0
49392 = N 2 0
49632 = N 1 0
49728 = N 0 0
49920 = N 1 0
50064 = N 2 0
50256 = N 2 0
50400 = N 2 0
50592 = N 2 0
50736 = N 2 1104
52032 = E soloend
52416 = N 2 0
52608 = N 1 0
52896 = N 0 144
53184 = N 2 0
53376 = N 1 0
53664 = N 0 144
53664 = S 2 864
53952 = N 2 0
54144 = N 1 0
54432 = N 0 144
54720 = N 2 0
54912 = N 1 0
55200 = N 0 144
55488 = N 2 0
55680 = N 1 0
55968 = N 0 144
56256 = N 2 0
56448 = N 1 0
56640 = N 1 0
56832 = N 0 0
57024 = N 2 0
57216 = N 1 0
57504 = N 0 144
57792 = N 2 0
57984 = N 1 0
58272 = N 0 144
58560 = N 2 0
58752 = N 1 0
59040 = N 0 144
59328 = N 2 0
59520 = N 1 0
59808 = N 0 144
60096 = N 2 0
60288 = N 1 0
60576 = N 0 144
60864 = N 2 0
61056 = N 1 0
61344 = N 0 144
61632 = N 2 0
61824 = N 1 0
62112 = N 0 144
62304 = S 2 672
62400 = N 2 0
62592 = N 1 0
62784 = N 1 0
62976 = N 0 0
63168 = N 1 0
63360 = N 1 0
63552 = N 0 0
63936 = N 1 0
64128 = N 1 0
64320 = N 0 0
64704 = N 1 0
64896 = N 1 0
65088 = N 0 0
65472 = N 1 0
65664 = N 1 0
65856 = N 0 0
66048 = N 1 0
66240 = N 2 0
66432 = N 1 0
66624 = N 0 0
66816 = N 0 0
67008 = N 2 0
67200 = N 1 0
67392 = N 0 0
67584 = N 0 0
67776 = N 2 0
67968 = N 1 0
68160 = N 2 0
68352 = N 1 0
68544 = N 2 0
68736 = N 1 0
69024 = N 0 1632
}
|